Subcategories

VA - Putumayo Presents Greece: A Musical Odyssey (2004)

Posted By: delpotro
VA - Putumayo Presents Greece: A Musical Odyssey (2004)

VA - Putumayo Presents Greece: A Musical Odyssey (2004)
XLD Rip | FLAC (tracks+log+.cue) - 279 Mb | MP3 CBR 320 kbps - 96 Mb | 00:41:43
World | Label: Putumayo World Music

Legends and rising stars of Greek music perform lively and haunting songs that connect the ancient and modern worlds.

Greece is one of the world’s most popular tourist destinations and is renowned for its rich history, art, architecture, literature and philosophy. However, few outside of Greece are familiar with its vibrant music.

Including styles such as soulful rembetiko and elegant entehno, the music on Greece: A Musical Odyssey reflects echoes of Middle Eastern melodies, Balkan rhythms and folk music. It features George Dalaras and Glykeria, two of the most influential and popular artists in Greece. The album also includes Melina Kana, Anastasia Moutsatsou, Elly Paspala, Pantelis Thalassinos, Apenanti, Melina Aslanidou, Kostas Makedonas, Sofia Papazoglou, Gerasimos Andreatos and other respected figures in Greek popular music, as well as developing artists such as Kostas Mantzios and Theodosia Stiga. Also featured is Children of the Revolution, a US-based band led by Greek singer and composer Vasilli whose blend of Spanish flamenco and Greek traditions will be a discovery even for Greek audiences.
Tracklist:
1. Apenanti & Melina Aslanidou – To Parelthon Thimithika (03:48)
2. Kostas Mantzios – Eleni (03:00)
3. Anastasia Moutsatsou – Pino Pino (02:39)
4. George Dalaras – Sou Axize Mia Kaliteri Agalia (03:33)
5. Elly Paspala – An Iparhis Kapou Esi (03:19)
6. Children Of The Revolution – Ragizi Apopse (03:52)
7. Melina Kana – Arnisi (03:19)
8. Pantelis Thalassinos – An M' Agapas, Tha S' Agapo (04:18)
9. Theodosia Stiga – Ela Mia Nichta (03:13)
10. Sofia Papazoglou & Gerasimos Andreatos – Ah, Feggaraki Mou (04:09)
11. Glykeria – Ta Ziliarika Sou Matia (03:17)
12. Kostas Makedonas – Exinta Dis Dolaria (03:01)

X Lossless Decoder version 20130602 (143.2)

XLD extraction logfile from 2016-12-05 18:52:10 +0000

Various Artists / Putumayo Presents: Greece: A Musical Odyssey

Used drive : HL-DT-ST DVDRW GX40N (revision RQ00)
Media type : Pressed CD

Ripper mode : XLD Secure Ripper
Disable audio cache : OK for the drive with a cache less than 1375KiB
Make use of C2 pointers : NO
Read offset correction : 6
Max retry count : 20
Gap status : Analyzed, Appended (except HTOA)

TOC of the extracted CD
Track | Start | Length | Start sector | End sector
––––––––––––––––––––––––––––-
1 | 00:00:00 | 03:48:55 | 0 | 17154
2 | 03:48:55 | 03:00:55 | 17155 | 30709
3 | 06:49:35 | 02:40:12 | 30710 | 42721
4 | 09:29:47 | 03:34:15 | 42722 | 58786
5 | 13:03:62 | 03:20:08 | 58787 | 73794
6 | 16:23:70 | 03:54:42 | 73795 | 91386
7 | 20:18:37 | 03:20:73 | 91387 | 106459
8 | 23:39:35 | 04:18:25 | 106460 | 125834
9 | 27:57:60 | 03:15:07 | 125835 | 140466
10 | 31:12:67 | 04:10:68 | 140467 | 159284
11 | 35:23:60 | 03:17:60 | 159285 | 174119
12 | 38:41:45 | 03:01:47 | 174120 | 187741

List of alternate offset correction values
# | Absolute | Relative | Confidence
–––––––––––––––––––––
1 | -110 | -116 | 15

AccurateRip Summary (DiscID: 00127091-00ad1bbd-9009c70c)
Track 01 : OK (v1+v2, confidence 23/58)
Track 02 : OK (v1+v2, confidence 23/57)
Track 03 : OK (v1+v2, confidence 23/58)
Track 04 : OK (v1+v2, confidence 23/58)
Track 05 : OK (v1+v2, confidence 23/58)
Track 06 : OK (v1+v2, confidence 23/57)
Track 07 : OK (v1+v2, confidence 24/59)
Track 08 : OK (v1+v2, confidence 23/58)
Track 09 : OK (v1+v2, confidence 23/58)
Track 10 : OK (v1+v2, confidence 22/57)
Track 11 : OK (v1+v2, confidence 23/58)
Track 12 : OK (v1+v2, confidence 22/55)
->All tracks accurately ripped.

All Tracks
Album gain : -7.69 dB
Peak : 0.999969
Statistics
Read error : 0
Jitter error (maybe fixed) : 0
Retry sector count : 0
Damaged sector count : 0

Track 01
Filename : /Putumayo Presents_ Greece_ A Musical Odyssey (2004) [FLAC]/01 Apenanti with Melina Aslanidou - To Parelthon Thimithika.flac
Pre-gap length : 00:02:00

Track gain : -7.54 dB
Peak : 0.966064
CRC32 hash (test run) : D5155F4A
CRC32 hash : D5155F4A
CRC32 hash (skip zero) : 78E2633D
AccurateRip v1 signature : 4C89FC6A
AccurateRip v2 signature : 7D9F1F99
->Accurately ripped (v1+v2, confidence 12+11/58)
Statistics
Read error : 0
Jitter error (maybe fixed) : 0
Retry sector count : 0
Damaged sector count : 0

Track 02
Filename : /Putumayo Presents_ Greece_ A Musical Odyssey (2004) [FLAC]/02 Kostas Mantzios - Eleni.flac
Pre-gap length : 00:00:05

Track gain : -8.68 dB
Peak : 0.999969
CRC32 hash (test run) : DA98D8AC
CRC32 hash : DA98D8AC
CRC32 hash (skip zero) : 6DD788E4
AccurateRip v1 signature : D1D16064
AccurateRip v2 signature : 392B5FC4
->Accurately ripped (v1+v2, confidence 12+11/57)
Statistics
Read error : 0
Jitter error (maybe fixed) : 0
Retry sector count : 0
Damaged sector count : 0

Track 03
Filename : /Putumayo Presents_ Greece_ A Musical Odyssey (2004) [FLAC]/03 Anastasia Moutsatsou - Pino Pino.flac
Pre-gap length : 00:00:15

Track gain : -8.49 dB
Peak : 0.977264
CRC32 hash (test run) : B5CC6365
CRC32 hash : B5CC6365
CRC32 hash (skip zero) : A5DD2FCC
AccurateRip v1 signature : EB2D54E1
AccurateRip v2 signature : CC6D9D04
->Accurately ripped (v1+v2, confidence 12+11/58)
Statistics
Read error : 0
Jitter error (maybe fixed) : 0
Retry sector count : 0
Damaged sector count : 0

Track 04
Filename : /Putumayo Presents_ Greece_ A Musical Odyssey (2004) [FLAC]/04 George Dalaras - Sou Axize Mia Kaliteri Agalia.flac
Pre-gap length : 00:00:62

Track gain : -5.02 dB
Peak : 0.999939
CRC32 hash (test run) : 47DD0B9C
CRC32 hash : 47DD0B9C
CRC32 hash (skip zero) : 1488BC00
AccurateRip v1 signature : EE6DFB38
AccurateRip v2 signature : A360E61F
->Accurately ripped (v1+v2, confidence 12+11/58)
Statistics
Read error : 0
Jitter error (maybe fixed) : 0
Retry sector count : 0
Damaged sector count : 0

Track 05
Filename : /Putumayo Presents_ Greece_ A Musical Odyssey (2004) [FLAC]/05 Elly Paspala - An Iparhis Kapou Esi.flac
Pre-gap length : 00:00:55

Track gain : -8.46 dB
Peak : 0.999969
CRC32 hash (test run) : 335DD690
CRC32 hash : 335DD690
CRC32 hash (skip zero) : 65A643A5
AccurateRip v1 signature : 0BD71A02
AccurateRip v2 signature : 90DC5DDD
->Accurately ripped (v1+v2, confidence 12+11/58)
Statistics
Read error : 0
Jitter error (maybe fixed) : 0
Retry sector count : 0
Damaged sector count : 0

Track 06
Filename : /Putumayo Presents_ Greece_ A Musical Odyssey (2004) [FLAC]/06 Children of the Revolution - Ragizi Apopse.flac
Pre-gap length : 00:00:15

Track gain : -8.10 dB
Peak : 0.999969
CRC32 hash (test run) : 84F35CBE
CRC32 hash : 84F35CBE
CRC32 hash (skip zero) : 19AB223F
AccurateRip v1 signature : A3992475
AccurateRip v2 signature : B7A6D5D8
->Accurately ripped (v1+v2, confidence 12+11/57)
Statistics
Read error : 0
Jitter error (maybe fixed) : 0
Retry sector count : 0
Damaged sector count : 0

Track 07
Filename : /Putumayo Presents_ Greece_ A Musical Odyssey (2004) [FLAC]/07 Melina Kana - Arnisi.flac
Pre-gap length : 00:01:45

Track gain : -8.05 dB
Peak : 0.999969
CRC32 hash (test run) : F792FE4A
CRC32 hash : F792FE4A
CRC32 hash (skip zero) : 127B280A
AccurateRip v1 signature : 3A95A4AF
AccurateRip v2 signature : 618D3329
->Accurately ripped (v1+v2, confidence 13+11/59)
Statistics
Read error : 0
Jitter error (maybe fixed) : 0
Retry sector count : 0
Damaged sector count : 0

Track 08
Filename : /Putumayo Presents_ Greece_ A Musical Odyssey (2004) [FLAC]/08 Pantelis Thalassinos - An m'agapas, tha s'agapo.flac
Pre-gap length : 00:00:73

Track gain : -8.43 dB
Peak : 0.999969
CRC32 hash (test run) : 6EF487E3
CRC32 hash : 6EF487E3
CRC32 hash (skip zero) : 6EAC5512
AccurateRip v1 signature : 4288917A
AccurateRip v2 signature : 2B7BA1CA
->Accurately ripped (v1+v2, confidence 12+11/58)
Statistics
Read error : 0
Jitter error (maybe fixed) : 0
Retry sector count : 0
Damaged sector count : 0

Track 09
Filename : /Putumayo Presents_ Greece_ A Musical Odyssey (2004) [FLAC]/09 Theodosia Stiga - Ela Mia Nichta.flac
Pre-gap length : 00:00:18

Track gain : -7.54 dB
Peak : 0.999969
CRC32 hash (test run) : 150F0109
CRC32 hash : 150F0109
CRC32 hash (skip zero) : 913A31EC
AccurateRip v1 signature : 95712825
AccurateRip v2 signature : 1B532EFD
->Accurately ripped (v1+v2, confidence 12+11/58)
Statistics
Read error : 0
Jitter error (maybe fixed) : 0
Retry sector count : 0
Damaged sector count : 0

Track 10
Filename : /Putumayo Presents_ Greece_ A Musical Odyssey (2004) [FLAC]/10 Sofia Papazoglou + Gerasimos Andreatos - Ah, Feggaraki Mou.flac
Pre-gap length : 00:01:12

Track gain : -4.86 dB
Peak : 0.994751
CRC32 hash (test run) : 58E46A77
CRC32 hash : 58E46A77
CRC32 hash (skip zero) : FFB4296D
AccurateRip v1 signature : 4EDB0706
AccurateRip v2 signature : 571A6B5E
->Accurately ripped (v1+v2, confidence 12+10/57)
Statistics
Read error : 0
Jitter error (maybe fixed) : 0
Retry sector count : 0
Damaged sector count : 0

Track 11
Filename : /Putumayo Presents_ Greece_ A Musical Odyssey (2004) [FLAC]/11 Glykeria - Ta Ziliarika Sou Matia.flac
Pre-gap length : 00:01:08

Track gain : -7.14 dB
Peak : 0.870941
CRC32 hash (test run) : A37DD069
CRC32 hash : A37DD069
CRC32 hash (skip zero) : BBEF150C
AccurateRip v1 signature : EB8204B0
AccurateRip v2 signature : 37B26D3C
->Accurately ripped (v1+v2, confidence 12+11/58)
Statistics
Read error : 0
Jitter error (maybe fixed) : 0
Retry sector count : 0
Damaged sector count : 0

Track 12
Filename : /Putumayo Presents_ Greece_ A Musical Odyssey (2004) [FLAC]/12 Kostas Makedonas - Exinta Dis Dolaria.flac
Pre-gap length : 00:00:40

Track gain : -7.21 dB
Peak : 0.851166
CRC32 hash (test run) : C10B4503
CRC32 hash : C10B4503
CRC32 hash (skip zero) : 2AD2A488
AccurateRip v1 signature : B6DA096A
AccurateRip v2 signature : 49A65056
->Accurately ripped (v1+v2, confidence 12+10/55)
Statistics
Read error : 0
Jitter error (maybe fixed) : 0
Retry sector count : 0
Damaged sector count : 0

No errors occurred

End of status report

––-BEGIN XLD SIGNATURE––-
twj_WZ2f8KUhC5iKduSxN.vQ7ZBzTheBSyCw522TZ7eUKLBe_q_Q0mpU0DctcYOQXGJBuZ03HxrHbkLJXp95jhTxcIyLyGJKB2xcGQm
––-END XLD SIGNATURE––-

Thanks to the Original ripper leontrotsky !