Subcategories

VA - I, Tonya (Original Motion Picture Soundtrack) (2017)

Posted By: delpotro
VA - I, Tonya (Original Motion Picture Soundtrack) (2017)

VA - I, Tonya (Original Motion Picture Soundtrack) (2017)
EAC Rip | FLAC (tracks+log+.cue) | 01:07:12 | 453 Mb
Rock, Soundtrack | Label: Milan Records

This is the soundtrack album for Craig Gillespie’s film biography, of infamous Olympic figure skater Tonya Harding (Margot Robbie). Since most of the film takes place in the early 1990s, the soundtrack for the movie, I, Tonya, is largely made up of music from that time period. You can find here songs from Bad Company, Supertramp, Chris Stills, Fleetwood Mac, etc.
Tracklist:
1. Mark Batson – Fair To Love Me (02:08)
2. Cliff Richard – Devil Woman (03:34)
3. Bad Company – Shooting Star (06:16)
4. Dire Straits – Romeo And Juliet (06:01)
5. Peter Nashel – A Fair Shot (01:52)
6. En Vogue – Free Your Mind (04:53)
7. Supertramp – Goodbye Stranger (05:48)
8. Chris Stills – How Can You Mend a Broken Heart (04:00)
9. Fleetwood Mac – The Chain (04:29)
10. Peter Nashel – The Incident (02:51)
11. Heart – Barracude (04:22)
12. Laura Branigan – Gloria (04:49)
13. Violent Femmes – Gone Daddy Gone (03:06)
14. Doris Day – Dream A Little Dream Of Me (03:43)
15. Siouxsie and the Banshees – The Passenger (04:09)
16. Peter Nashel – Tonya Suite (05:05)

Exact Audio Copy V1.1 from 23. June 2015

EAC extraction logfile from 1. April 2018, 17:53

Various Artists / I, Tonya

Used drive : ATAPI iHAS424 B Adapter: 1 ID: 0

Read mode : Secure
Utilize accurate stream : Yes
Defeat audio cache : Yes
Make use of C2 pointers : No

Read offset correction : 6
Overread into Lead-In and Lead-Out : No
Fill up missing offset samples with silence : Yes
Delete leading and trailing silent blocks : No
Null samples used in CRC calculations : Yes
Used interface : Native Win32 interface for Win NT & 2000
Gap handling : Appended to previous track

Used output format : User Defined Encoder
Selected bitrate : 1024 kBit/s
Quality : High
Add ID3 tag : No
Command line compressor : C:\Program Files (x86)\FLAC\flac.exe
Additional command line options : -T "artist=%artist%" -T "title=%title%" -T "album=%albumtitle%" -T "date=%year%" -T "tracknumber=%tracknr%" -T "genre=%genre%" -5 %source%


TOC of the extracted CD

Track | Start | Length | Start sector | End sector
––––––––––––––––––––––––––––-
1 | 0:00.00 | 2:08.48 | 0 | 9647
2 | 2:08.48 | 3:34.43 | 9648 | 25740
3 | 5:43.16 | 6:15.73 | 25741 | 53938
4 | 11:59.14 | 6:01.30 | 53939 | 81043
5 | 18:00.44 | 1:52.44 | 81044 | 89487
6 | 19:53.13 | 4:53.08 | 89488 | 111470
7 | 24:46.21 | 5:48.59 | 111471 | 137629
8 | 30:35.05 | 4:00.21 | 137630 | 155650
9 | 34:35.26 | 4:29.61 | 155651 | 175886
10 | 39:05.12 | 2:51.40 | 175887 | 188751
11 | 41:56.52 | 4:22.05 | 188752 | 208406
12 | 46:18.57 | 4:49.72 | 208407 | 230153
13 | 51:08.54 | 3:06.05 | 230154 | 244108
14 | 54:14.59 | 3:43.64 | 244109 | 260897
15 | 57:58.48 | 4:09.00 | 260898 | 279572
16 | 62:07.48 | 5:04.74 | 279573 | 302446


Track 1

Filename D:\Music Stuff\EAC Rips\01 - Mark Batson - Fair To Love Me.wav

Pre-gap length 0:00:02.00

Peak level 98.6 %
Extraction speed 2.9 X
Track quality 100.0 %
Test CRC FBB90A3B
Copy CRC FBB90A3B
Track not present in AccurateRip database
Copy OK

Track 2

Filename D:\Music Stuff\EAC Rips\02 - Cliff Richard - Devil Woman.wav

Peak level 98.6 %
Extraction speed 3.5 X
Track quality 100.0 %
Test CRC 08BF9E39
Copy CRC 08BF9E39
Track not present in AccurateRip database
Copy OK

Track 3

Filename D:\Music Stuff\EAC Rips\03 - Bad Company - Shooting Star.wav

Peak level 98.6 %
Extraction speed 4.1 X
Track quality 100.0 %
Test CRC D55538D5
Copy CRC D55538D5
Track not present in AccurateRip database
Copy OK

Track 4

Filename D:\Music Stuff\EAC Rips\04 - Dire Straits - Romeo And Juliet.wav

Peak level 98.6 %
Extraction speed 4.6 X
Track quality 100.0 %
Test CRC 21EBEDA8
Copy CRC 21EBEDA8
Track not present in AccurateRip database
Copy OK

Track 5

Filename D:\Music Stuff\EAC Rips\05 - Peter Nashel - A Fair Shot.wav

Peak level 98.6 %
Extraction speed 4.0 X
Track quality 100.0 %
Test CRC 3BD93A5C
Copy CRC 3BD93A5C
Track not present in AccurateRip database
Copy OK

Track 6

Filename D:\Music Stuff\EAC Rips\06 - En Vogue - Free Your Mind.wav

Peak level 98.6 %
Extraction speed 4.1 X
Track quality 99.9 %
Test CRC BC6E88D4
Copy CRC BC6E88D4
Track not present in AccurateRip database
Copy OK

Track 7

Filename D:\Music Stuff\EAC Rips\07 - Supertramp - Goodbye Stranger.wav

Peak level 98.6 %
Extraction speed 5.4 X
Track quality 100.0 %
Test CRC FAAA83D3
Copy CRC FAAA83D3
Track not present in AccurateRip database
Copy OK

Track 8

Filename D:\Music Stuff\EAC Rips\08 - Chris Stills - How Can You Mend a Broken Heart.wav

Peak level 98.6 %
Extraction speed 5.4 X
Track quality 100.0 %
Test CRC EE3CF558
Copy CRC EE3CF558
Track not present in AccurateRip database
Copy OK

Track 9

Filename D:\Music Stuff\EAC Rips\09 - Fleetwood Mac - The Chain.wav

Peak level 98.6 %
Extraction speed 5.7 X
Track quality 100.0 %
Test CRC D009491D
Copy CRC D009491D
Track not present in AccurateRip database
Copy OK

Track 10

Filename D:\Music Stuff\EAC Rips\10 - Peter Nashel - The Incident.wav

Peak level 98.6 %
Extraction speed 5.5 X
Track quality 100.0 %
Test CRC 84655EC3
Copy CRC 84655EC3
Track not present in AccurateRip database
Copy OK

Track 11

Filename D:\Music Stuff\EAC Rips\11 - Heart - Barracude.wav

Peak level 98.6 %
Extraction speed 6.1 X
Track quality 100.0 %
Test CRC 45AB94FF
Copy CRC 45AB94FF
Track not present in AccurateRip database
Copy OK

Track 12

Filename D:\Music Stuff\EAC Rips\12 - Laura Branigan - Gloria.wav

Peak level 98.6 %
Extraction speed 6.4 X
Track quality 100.0 %
Test CRC 93B70512
Copy CRC 93B70512
Track not present in AccurateRip database
Copy OK

Track 13

Filename D:\Music Stuff\EAC Rips\13 - Violent Femmes - Gone Daddy Gone.wav

Peak level 98.6 %
Extraction speed 6.1 X
Track quality 100.0 %
Test CRC 5DDE5B50
Copy CRC 5DDE5B50
Track not present in AccurateRip database
Copy OK

Track 14

Filename D:\Music Stuff\EAC Rips\14 - Doris Day - Dream A Little Dream Of Me.wav

Peak level 98.6 %
Extraction speed 6.5 X
Track quality 100.0 %
Test CRC 6766EDB7
Copy CRC 6766EDB7
Track not present in AccurateRip database
Copy OK

Track 15

Filename D:\Music Stuff\EAC Rips\15 - Siouxsie and the Banshees - The Passenger.wav

Peak level 98.6 %
Extraction speed 5.4 X
Track quality 99.9 %
Test CRC 17AD6C06
Copy CRC 17AD6C06
Track not present in AccurateRip database
Copy OK

Track 16

Filename D:\Music Stuff\EAC Rips\16 - Peter Nashel - Tonya Suite.wav

Peak level 98.6 %
Extraction speed 7.0 X
Track quality 100.0 %
Test CRC DA931230
Copy CRC DA931230
Track not present in AccurateRip database
Copy OK


None of the tracks are present in the AccurateRip database

No errors occurred

End of status report

–– CUETools DB Plugin V2.1.6

[CTDB TOCID: UDLz66W89lPfK6jUGvHpoIXCBYs-] found
Submit result: UDLz66W89lPfK6jUGvHpoIXCBYs- has been confirmed
Track | CTDB Status
1 | (6/6) Accurately ripped
2 | (6/6) Accurately ripped
3 | (6/6) Accurately ripped
4 | (6/6) Accurately ripped
5 | (6/6) Accurately ripped
6 | (6/6) Accurately ripped
7 | (6/6) Accurately ripped
8 | (6/6) Accurately ripped
9 | (6/6) Accurately ripped
10 | (6/6) Accurately ripped
11 | (6/6) Accurately ripped
12 | (6/6) Accurately ripped
13 | (6/6) Accurately ripped
14 | (6/6) Accurately ripped
15 | (6/6) Accurately ripped
16 | (6/6) Accurately ripped


==== Log checksum 2A8DCA1F28516404EEF9338D3D8E439F080FCB7557BDFEDB1D6F38AD99BFF468 ====

Thanks to the Original ripper psfd !