Subcategories

Various Artists - Jazz From America On Disques Vogue (2015) {20CD Sony Music Box Set}

Posted By: ruskaval
Various Artists - Jazz From America On Disques Vogue (2015) {20CD Sony Music Box Set}

Various Artists - Jazz From America On Disques Vogue (2015) {20CD Sony Music Box Set}
EAC rip (secure mode) | FLAC (tracks)+CUE+LOG -> 4.48 Gb | MP3 @320 -> 3.12 Gb
Full Artwork @ 600 dpi (jpg) -> 553 Mb | 5% repair rar
© 2015 Sony Music / Legacy / Disques Vogue | 88875140962
Jazz / Cool / Bop / Swing / Mainstream Jazz

42 original albums (+4 EPs and 27 Singles) gathered on 20CDs ‘Jazz From America On Disques Vogue’ reviews the revolutionary passage from the 78 rpm to the Long-Play era. A totally cool little package – one that features 20 different CDs, each done as a different tiny replica of a 10" LP that originally appeared on the Vogue Records label overseas! Vogue was well-known for recording important sessions by American jazzmen in Paris in the early 50s – but this package brings together work that was recorded in America by many of the same artists, and issued by Vogue in unique packages overseas – many of which are replicated here, along with bonus material too! The set features 20 CDs, but includes 40 different albums – as each CD features tracks from original 10" album releases – with full details on tracks, personnel, and other information in the large booklet provided – a great complement to the records by artists who include Stan Getz, Gerry Mulligan, Red Norvo, Lester Young, Mahalia Jackson, Spirit Of Memphis Quartet, Wynonie Harris, Earl Bostic, Charlie Parker, Charlie Christian, Art Tatum, Erroll Garner, Sidney Bechet, Miles Davis, and others!
Various Artists - Jazz From America On Disques Vogue (2015) {20CD Sony Music Box Set}

Legacy ressuscite les trésors du jazz sortis sur le prestigieux label VOGUE. Après le succès du coffret "Jazz On Vogue" qui présentait en 2013 quelques-unes de ses plus belles productions des années 1940 et 1950 en voici le prolongement naturel, "Jazz from America on Disques Vogue". Sortie le 30 octobre 2015.

Les productions hexagonales ne suffisant pas à refléter le bouillonnement créatif de l’époque, des accords furent passés entre Vogue (Jazz-Disques) et de nombreuses firmes phonographiques américaines spécialisées (Blue Note, Dial, Roost, Esoteric, Mercer, Apollo, King, Fantasy, Discovery, Aladdin, Pacific Jazz …). C’est ainsi que sous la houlette du directeur artistique (et fondateur de la maison Vogue) Charles Delaunay, un grand nombre d’artistes aussi différents que Sidney Bechet, Duke Ellington, Charlie Parker, Miles Davis ainsi que Dave Brubeck, Chet Baker, Gerry Mulligan, Mahalia Jackson, Jelly Roll Morton… purent figurer au catalogue Vogue.
Le label vous propose de les découvrir ou les redécouvrir au travers de 41 albums (pour la plupart des 33t 25cm + 4 EPs et 27 Singles) réunis en 20 CDs riches d’une iconographie de pochettes originales signées Pierre Merlin, Comte ou Danest.
Various Artists - Jazz From America On Disques Vogue (2015) {20CD Sony Music Box Set}

INFORMATIONS :
Produit par Daniel Richard & François Lê Xuân
Son entièrement remasterisé
Reproduction des pochettes originale en Vinyl Replica
Livret quadri 52 pages comprenant :
Texte de présentation signé Alain Tercinet
Discographie détaillée
Various Artists - Jazz From America On Disques Vogue (2015) {20CD Sony Music Box Set}

DATE DE SORTIE :
Vendredi 30 octobre 2015

LE PROGRAMME :

01.Duke Ellington, Billy Strayhorn / New Stars - New Sounds Vol. 2 (+ Serge Chaloff)
02.Stan Getz Quartet / The Stan Getz Quintette - Jazz At Storyville
03.Art Tatum From Gene Norman's Just Jazz / Gene Norman's Just Jazz Vol. 3 / Frank Bull And Gene Norman's Blues Jubilee
04.Charlie Christian At Minton's / Charlie Christian - Dizzy Gillespie At Minton's
05.Dixieland Jubilee Vol. 1 / Vol. 2 (Lu Watters - Kid Ory / Albert Nicholas)
06.Charlie Parker Vol. 1 / Vol. 2
07.Originators Of Modern Jazz / A Date With… Vol. 1 / Vol. 2 (Dizzy Gillespie - Charlie Parker - Fats Navarro - Red Norvo - Hank Jones - Howard McGhee - James Moody - Buck Clayton - Hot Lips Page)
08.Erroll Garner Trio Vol. 1 / Vol. 2
09.Kings of Boogie Woogie (Albert Ammons - Meade Lux Lewis - Blind John Davis)
10.Mahalia Jackson Vol. 1 / Vol. 2
11.The Spirit Of Memphis Quartet (+ John Lee Hooker)
12.Wynonie Mr Blues Harris / Earl Bostic His Alto Sax And His Orchestra
13.Jelly Roll Morton - Piano Solos
14.Dave Brubeck Quartet Vol. 1 / Vol. 2
15.Miles Davis - Young Man With a Horn Vol. 1 / Vol. 2
16.Red Norvo - Men at Work Vol. 1 / Vol. 2 / George Shearing Quintet
17.Gerry Mulligan Quartet Vol. 2 / Vol. 3 / Vol. 4
18.Chet Baker Quartet Vol. 1 / Vol. 2
19.Sidney Bechet And His Blue Note Jazzmen Vol. 3 / Vol. 4
20.Lester Young Les Chefs-d'œuvre de Lester Young Vol. 1 / Vol. 2
Various Artists - Jazz From America On Disques Vogue (2015) {20CD Sony Music Box Set}

Vogue was a French record label founded in 1947 by Léon Kaba and Charles Delaunay, active in the field of jazz and popular music (n.b. John Lewis’ composition “Delaunay’s dilemma”). The label was based in Paris and later in Villetaneuse (Seine). In London, in the fifties, there was also a Vogue Records operation. I don’t know whether they were legally independent or whether the U.K. operation was an affiliate of the French organization. I think the latter. There were obvious links: the name, the label (logo), which was similar, although not 100% identical ; artists recorded by French Vogue were also issued by Vogue London and vice versa. However each followed a distinct commercial policy, their catalogues were different. And Vogue U.K. was not present on the Continent.
French Vogue, of course, was present in France, but also in Belgium, Luxembourg, the Netherlands, Switzerland, Italy and Germany. (Later in the sixties Vogue Deutschland was created.) I suppose they were also represented in Spain, but not in Scandinavia.

Various Artists - Jazz From America On Disques Vogue (2015) {20CD Sony Music Box Set}


One should know that in the fifties the West European markets were not open. If a manufacturer wanted to sell in another European country, he would create an affiliate to distribute his products or choose an exclusive independent importer (agent) responsible for that country. All sales needed to be channelled through the exclusive distributor or agent and no parallel imports were allowed. The retail prices were set by the manufacturer, importer or exclusive agent.

Various Artists - Jazz From America On Disques Vogue (2015) {20CD Sony Music Box Set}


Hereunder I will limit myself to Disques Vogue, the Continental operation. Also, I will not discuss Traditional Jazz, although the New Orleans artist Sidney Bechet was one of the label’s major assets, a real cash cow. I will only discuss albums issued in the fifties and early sixties, not the later Mode and Jazz Legacy series.
The purpose of this study is not to add just another label discography in catalogue or alphabetical order, but to place the label in its historical context : Paris-based, founded just after WWII, American musicians starting to visit Paris for concerts, or to become residents, the development of a local Paris modern jazz scene (Martial Solal, Henri Renaud, Barney Wilen, Bobby Jaspar) and of a European modern jazz scene (Lars Gullin, Hans Koller, Jimmy Deuchar) and a growing appetite of the West European public for jazz recorded in the US, direct imports of the originals being (almost) non-existent.
Various Artists - Jazz From America On Disques Vogue (2015) {20CD Sony Music Box Set}


tracklist and personnel:
Disc: 1

1. Cotton Tail - Billy Strayhorn Trio
2. Flamingo - Billy Strayhorn Trio
3. Bang-Up Blues - Billy Strayhorn Trio
4. C Jam Blues - Billy Strayhorn Trio
5. Tonk - Billy Strayhorn Trio
6. Johnny Come Lately - Billy Strayhorn Trio
7. In a Blue Summer Garden - Billy Strayhorn Trio
8. Great Times - Billy Strayhorn Trio
9. Perdido - Oscar Pettiford His Cello and Quartet
10. Oscalypso - Oscar Pettiford His Cello and Quartet
11. Take the "A" Train - Oscar Pettiford His Cello and Quartet
12. Blues for Blanton - Oscar Pettiford His Cello and Quartet
13. Chickasaw - Serge Chaloff and the Herdmen
14. Bop Scotch - Serge Chaloff and the Herdmen
15. The Most! - Serge Chaloff and the Herdmen
16. Chasin' the Bass - Serge Chaloff and the Herdmen

Various Artists - Jazz From America On Disques Vogue (2015) {20CD Sony Music Box Set}

Various Artists - Jazz From America On Disques Vogue (2015) {20CD Sony Music Box Set}


Disc: 2
1. Sweetie Pie - Stan Getz Quartet
2. Yesterdays - Stan Getz Quartet
3. Hershey Bar - Stan Getz Quartet
4. Gone with the Wind - Stan Getz Quartet
5. Tootsie Roll - Stan Getz Quartet
6. Strike up the Band - Stan Getz Quartet
7. Imagination - Stan Getz Quartet
8. For Stompers Only - Stan Getz Quartet
9. Yvette - Stan Getz Quintet
10. Potter's Luck - Stan Getz Quintet
11. Penny - Stan Getz Quartet
12. It Might as Well Be Spring - Stan Getz Quartet
13. The Song Is You - Stan Getz Quartet
14. Wildwood - Stan Getz Quartet
15. On the Alamo - Stan Getz Quartet
16. Split Kick - Stan Getz Quartet
17. The Best Thing for You (Astaniave) - Stan Getz Quartet
18. Thou Swell - Stan Getz Quartet
19. The Song Is You - Stan Getz Quartet
20. Mosquito Knees - Stan Getz Quartet
21. Parker 51 - Stan Getz Quartet

Various Artists - Jazz From America On Disques Vogue (2015) {20CD Sony Music Box Set}

Various Artists - Jazz From America On Disques Vogue (2015) {20CD Sony Music Box Set}


Disc: 3
1. Yesterdays - Art Tatum
2. Willow Weep for Me - Art Tatum
3. Gershwin Medley: The Man I Love / Tatum Plays Pretty - Art Tatum
4. I Know That You Know - Art Tatum
5. Humoresque - Art Tatum
6. The Kerry Dance - Art Tatum
7. Boogie Woogie (Tatum-Pole Boogie) - Art Tatum
8. Someone to Watch over Me - Art Tatum
9. How High the Moon - Art Tatum
10. Just Bop (Just You, Just Me) - Gene Norman's Just Jazz Concert
11. Sweet Georgia Bop (Brown) [California Conquest] - Gene Norman's Just Jazz Concert
12. Swanee River Boogie - Gene Norman's Just Jazz Concert
13. Yancey Special - Gene Norman's Just Jazz Concert
14. St. Louis Blues Boogie (St. Louis Blues) - Gene Norman's Just Jazz Concert
15. J.J. Boogie (Just Jazz Boogie) - Gene Norman's Just Jazz Concert
16. No Rollin' Blues - Jimmy Witherspoon / Gene Norman's Just Jazz Concert
17. Big Fine Girl - Jimmy Witherspoon
18. I'm Gonna Let Him Ride - Blues Jubilee Concert
19. If I Could Be with You - Blues Jubilee Concert
20. Be-Baba-Leba - Blues Jubilee Concert
21. Million Dollar Secret - Blues Jubilee Concert

Various Artists - Jazz From America On Disques Vogue (2015) {20CD Sony Music Box Set}

Various Artists - Jazz From America On Disques Vogue (2015) {20CD Sony Music Box Set}


Disc: 4
1. Charlie's Choice / Swing to Bop (Topsy) - Charlie Christian
2. Stompin' at the Savoy - Charlie Christian
3. Star Dust (I) - Dizzy Gillespie
4. Kerouac - Dizzy Gillespie
5. Star Dust (II) - Dizzy Gillespie
6. Up on Teddy's Hill (Honeysuckle Rose) - Charlie Christian
7. Guy's Got to Go (I Got Rhythm) - Charlie Christian
8. Lips Flips / On with Charlie Christian (Stompin' at the Savoy) - Charlie Christian
9. Down on Teddy's Hill / Pagin' Dr. Christian (I Got Rhythm / Rhythm-a-Ning) - Charlie Christian

Various Artists - Jazz From America On Disques Vogue (2015) {20CD Sony Music Box Set}

Various Artists - Jazz From America On Disques Vogue (2015) {20CD Sony Music Box Set}


Disc: 5
1. Muskrat Ramble - Lu Watters
2. Frankie and Johnny - Lu Watters
3. Alcoholic Blues - Lu Watters
4. Bee's Knees - Lu Watters
5. High Society - Lu Watters
6. Aunt Hagar's Blues - Lu Watters
7. Doin' the Hambone - Lu Watters
8. My Little Bimbo Down on the Bamboo Isle - Lu Watters
9. 12th Street Rag - Kid Ory's Creole Jazz Band
10. Eh! Là-bas! - Kid Ory's Creole Jazz Band
11. Savoy Blues - Kid Ory's Creole Jazz Band
12. Tiger Rag - Kid Ory's Creole Jazz Band
13. That's a Plenty - Bob Scobey
14. Beale Street Mama - Bob Scobey
15. Coney Island Washboard - Bob Scobey
16. Wolverine Blues - Bob Scobey

Various Artists - Jazz From America On Disques Vogue (2015) {20CD Sony Music Box Set}

Various Artists - Jazz From America On Disques Vogue (2015) {20CD Sony Music Box Set}


Disc: 6
1. My Old Flame - Charlie Parker Quintet
2. Air Conditioning (Drifting on a Reed) - Charlie Parker Sextet
3. Bongo Beep (Bird Feathers) - Charlie Parker Sextet
4. Dewey Square (Prezology) - Charlie Parker Quintet
5. Out of Nowhere - Charlie Parker Quintet
6. Hot Blues (Cool Blues) - Charlie Parker Quartet
7. Schnourphology (Bird Feathers) - Charlie Parker Quintet
8. Bongo Beep (Diggin' Diz) - Dizzy Gillespie Jazzmen
9. Lover Man (Oh Where Can You Be?) - Charlie Parker Quintet
10. Be-Bop - Charlie Parker Quintet
11. Don't Blame Me - Charlie Parker Quintet
12. Scrapple from the Apple - Charlie Parker Quintet
13. How Deep Is the Ocean? - Charlie Parker Sextet
14. Blues (Bongo Bop) - Charlie Parker Quintet
15. Dark Shadows - Charlie Parker Quartet
16. Embraceable You - Charlie Parker Quintet

Various Artists - Jazz From America On Disques Vogue (2015) {20CD Sony Music Box Set}

Various Artists - Jazz From America On Disques Vogue (2015) {20CD Sony Music Box Set}


Disc: 7
1. Dynamo A (Dizzy Atmosphere) - Dizzy Gillespie Jazzmen
2. Dynamo B (Dizzy Atmosphere) - Dizzy Gillespie Jazzmen
3. Superman (The Hymn) - Charlie Parker Quintet
4. Move - Fats Navarro
5. Bird Blues (Slam Slam Blues) - Red Norvo and His Selected Sextet
6. Night Music - Hank Jones Quintet
7. Bird of Paradise (All the Things You Are) - Charlie Parker Quintet
8. Trumpet at Tempo - Howard McGhee
9. Sleepwalker Boogie - James Moody Sextet
10. Dorothy - Howard McGhee Sextet
11. Surrender - James Moody Orchestra
12. Stoptime Blues - James Moody Sextet
13. Turnip Blood - James Moody Sextet
14. Night Mist - Howard McGhee Sextet
15. Coolie-rini - James Moody Orchestra
16. You - James Moody Sextet
17. B.C. Blues (Melrose Blues) - Buck Clayton
18. Diga Diga Doo - Buck Clayton
19. Love Me or Leave Me - Buck Clayton
20. We're in the Money (Song of the Gold Digger) - Buck Clayton
21. Catlett-Clysm (Bloodhound) - Hot Lips Page
22. Happy Medium - Hot Lips Page
23. Al's Tune - Howard McGhee Boptet
24. Dimitar - Howard McGhee Boptet

Various Artists - Jazz From America On Disques Vogue (2015) {20CD Sony Music Box Set}

Various Artists - Jazz From America On Disques Vogue (2015) {20CD Sony Music Box Set}


Disc: 8
1. Scatter-Brain - Erroll Garner Trio
2. Through a Long and Sleepless Night - Erroll Garner Trio
3. I Let a Song Go to My Heart - Erroll Garner Trio
4. Jitterbug Waltz - Erroll Garner Trio
5. Deep Purple - Erroll Garner Trio
6. What Is This Thing Called Love - Erroll Garner Trio
7. Again - Erroll Garner Trio
8. Goodbye - Erroll Garner Trio
9. Tippin' Out with Erroll - Erroll Garner Trio
10. Relaxin' at Sugar Ray's - Erroll Garner Trio
11. Minor with the Trio - Erroll Garner Trio
12. The Quaker - Erroll Garner Trio
13. Cologne - Erroll Garner Trio
14. No Moon - Erroll Garner Trio
15. Lazy River - Erroll Garner Trio
16. Bonny Boy - Erroll Garner Trio
17. Early in Paris - Erroll Garner
18. These Foolish Things Remind Me of You - Erroll Garner

Various Artists - Jazz From America On Disques Vogue (2015) {20CD Sony Music Box Set}

Various Artists - Jazz From America On Disques Vogue (2015) {20CD Sony Music Box Set}


Disc: 9
1. Tell Your Story - Meade Lux Lewis
2. Twos and Fews - Albert Ammons
3. Chicago in Mind - Albert Ammons
4. Sunrise Boogie - Blind John Davis
5. Suitcase Blues - Albert Ammons
6. Rising Tide Blues - Meade Lux Lewis
7. Bass Goin' Crazy - Albert Ammons
8. Rockin' in Boogie - Blind John Davis
9. Boogie Woogie Stomp - Albert Ammons
10. Boogie Woogie Blues - Albert Ammons
11. Bass on Top - Meade Lux Lewis
12. Six Wheel Chaser - Meade Lux Lewis
13. Tell Your Story No. 2 - Meade Lux Lewis
14. Chicago Flyer - Meade Lux Lewis
15. Blues Whistle Boogie (Whistlin' Blues) - Meade Lux Lewis
16. O Sole Mio - Blind John Davis
17. Paris Boogie - Blind John Davis
18. Davis Boogie - Blind John Davis
19. Home Town Blues - Blind John Davis
20. Everybody's Got the Blues - Blind John Davis
21. How Long Blues - Blind John Davis

Various Artists - Jazz From America On Disques Vogue (2015) {20CD Sony Music Box Set}

Various Artists - Jazz From America On Disques Vogue (2015) {20CD Sony Music Box Set}


Disc: 10
1. Move on up a Little Higher (Pt. 1 & 2) - Mahalia Jackson
2. Amazing Grace - Mahalia Jackson
3. I Can Put My Trust in Jesus - Mahalia Jackson
4. Get Away Jordan - Mahalia Jackson
5. Go Tell It on the Mountain - Mahalia Jackson
6. Since the Fire Started Burning in My Soul - Mahalia Jackson
7. Silent Night - Mahalia Jackson
8. I'm Glad Salvation Is Free - Mahalia Jackson
9. Dig a Little Deeper in God's Love - Mahalia Jackson
10. I Gave up Everything to Follow Him - Mahalia Jackson
11. Let the Power of the Holy Ghost Fall on Me - Mahalia Jackson
12. Shall I Meet You Over Yonder? - Mahalia Jackson
13. In My Home over There - Mahalia Jackson
14. I Do, Don't You - Mahalia Jackson
15. The Last Mile of the Way - Mahalia Jackson
16. In the Upper Room (Pt. 1 & 2) - Mahalia Jackson

Various Artists - Jazz From America On Disques Vogue (2015) {20CD Sony Music Box Set}

Various Artists - Jazz From America On Disques Vogue (2015) {20CD Sony Music Box Set}


Disc: 11
1. Every Time I Feel the Spirit - The Spirit of Memphis Quartet
2. Sign of the Judgment - The Spirit of Memphis Quartet
3. The World Prayer - The Spirit of Memphis Quartet
4. Every Day and Every Hour - The Spirit of Memphis Quartet
5. I'll Go - The Spirit of Memphis Quartet
6. God's Got His Eyes on You - The Spirit of Memphis Quartet
7. Jesus, Jesus - The Spirit of Memphis Quartet
8. Calvary - The Spirit of Memphis Quartet
9. The Day Is Passed and Gone - The Spirit of Memphis Quartet
10. On the Battlefield - The Spirit of Memphis Quartet
11. He Never Left Me Alone - The Spirit of Memphis Quartet
12. Blessed Are the Dead - The Spirit of Memphis Quartet
13. Lord Jesus (Pt. 1 & 2) - The Spirit of Memphis Quartet
14. Moaning Blues - The Spirit of Memphis Quartet
15. Stomp Boogie - John Lee Cooker

Various Artists - Jazz From America On Disques Vogue (2015) {20CD Sony Music Box Set}

Various Artists - Jazz From America On Disques Vogue (2015) {20CD Sony Music Box Set}


Disc: 12
1. Bloodshot Eyes - Wynonie Harris and His All Stars
2. Luscious Woman - Wynonie Harris and His All Stars
3. Teardrops from My Eyes - Wynonie Harris with Lucky Millinder & His Orchestra
4. Oh Babe! - Wynonie Harris with Lucky Millinder & His Orchestra
5. Mr. Blues Is Coming to Town - Wynonie Harris
6. Here Comes the Night - Wynonie Harris and His All Stars
7. Just Like Two Drops of Water - Wynonie Harris and His All Stars
8. Good Rockin' Tonight - Wynonie Harris
9. Slim Gaillard's Boogie - Slim Gaillard and His Boogiereeners
10. Voot Orenee - Slim Gaillard and Orchestra
11. I'm a Hi-Ballin' Daddy - Tiny Bradshaw
12. Brad's Blues - Tiny Bradshaw
13. Ring-a-Ding-Doo - Little Esther
14. Ramblin' Blues - Little Esther
15. That's What You re Doing to Me - The Dominoes
16. Have Mercy Baby - The Dominoes
17. Flamingo - Earl Bostic
18. Sleep - Earl Bostic
19. I'm Getting Sentimental over You - Earl Bostic
20. Moonglow - Earl Bostic and His Orchestra
21. Ain't Misbehavin' - Earl Bostic and His Orchestra
22. Linger Awhile - Earl Bostic and His Orchestra
23. Lover Come Back to Me - Earl Bostic
24. Seven Steps - Earl Bostic and His Orchestra

Various Artists - Jazz From America On Disques Vogue (2015) {20CD Sony Music Box Set}

Various Artists - Jazz From America On Disques Vogue (2015) {20CD Sony Music Box Set}


Disc: 13
1. Mamie's Blues - Jelly Roll Morton
2. Michigan Water Blues - Jelly Roll Morton
3. Buddy Bolden's Blues - Jelly Roll Morton
4. Winin' Boy Blues - Jelly Roll Morton
5. Don't You Leave Me Here - Jelly Roll Morton
6. Original Rag - Jelly Roll Morton
7. The Naked Dance - Jelly Roll Morton
8. The Crave - Jelly Roll Morton
9. Mister Joe - Jelly Roll Morton
10. King Porter Stomp - Jelly Roll Morton
11. Sweet Substitute - Jelly Roll Morton Seven
12. Panama - Jelly Roll Morton Seven
13. Good Old New York - Jelly Roll Morton Seven
14. Big Lip Blues - Jelly Roll Morton Seven
15. Dirty, Dirty, Dirty - The Morton Seven
16. Swinging the Elks - The Morton Seven
17. Get the Bucket - The Morton Sextet
18. Shake It - The Morton Sextet
19. Mama's Got a Baby - The Morton Seven
20. My Home Is in a Southern Town - The Morton Seven
21. Why? - The Morton Sextet
22. If You Knew - The Morton Sextet

Various Artists - Jazz From America On Disques Vogue (2015) {20CD Sony Music Box Set}

Various Artists - Jazz From America On Disques Vogue (2015) {20CD Sony Music Box Set}


Disc: 14
1. Somebody Loves Me - The Dave Brubeck Quartet
2. Crazy Chris - The Dave Brubeck Quartet
3. A Foggy Day - The Dave Brubeck Quartet
4. Lyon's Busy - The Dave Brubeck Quartet
5. Mam'selle - The Dave Brubeck Quartet
6. Me and My Shadow - The Dave Brubeck Quartet
7. At a Perfume Counter - The Dave Brubeck Quartet
8. Frenesi - The Dave Brubeck Quartet
9. This Can't Be Love - The Dave Brubeck Quartet
10. Look for the Silver Lining - The Dave Brubeck Quartet
11. My Romance - Dave Brubeck
12. Just One of Those Things - The Dave Brubeck Quartet
13. Star Dust - The Dave Brubeck Quartet
14. Lulu's Back in Town - The Dave Brubeck Quartet
15. Alice in Wonderland - The Dave Brubeck Quartet
16. All the Things You Are - The Dave Brubeck Quartet
17. I May Be Wrong - The Dave Brubeck Quartet
18. My Heart Stood Still - Dave Brubeck
19. Let's Fall in Love - The Dave Brubeck Quartet

Various Artists - Jazz From America On Disques Vogue (2015) {20CD Sony Music Box Set}

Various Artists - Jazz From America On Disques Vogue (2015) {20CD Sony Music Box Set}


Disc: 15
1. Dear Old Stockholm - Miles Davis
2. Woody 'n' You - Miles Davis
3. Yesterdays - Miles Davis
4. Chance It - Miles Davis
5. Donna - Miles Davis
6. How Deep Is the Ocean - Miles Davis
7. Tempus Fugit - Miles Davis
8. Enigma - Miles Davis
9. Ray's Idea - Miles Davis
10. Kelo - Miles Davis
11. I Waited for You - Miles Davis
12. C.T.A. - Miles Davis
13. Bouncing with Bud - Bud Powell's Modernists
14. Wail - Bud Powell's Modernists
15. 52nd Street Theme - Bud Powell's Modernists
16. Dance of the Infidels - Bud Powell's Modernists
17. Humph - Thelonious Monk
18. Misterioso - Thelonious Monk
19. 'Round Midnight - Thelonious Monk
20. Well, You Needn't - Thelonious Monk

Various Artists - Jazz From America On Disques Vogue (2015) {20CD Sony Music Box Set}

Various Artists - Jazz From America On Disques Vogue (2015) {20CD Sony Music Box Set}


Disc: 16
1. Little White Lies - Red Norvo Trio
2. I've Got You Under My Skin - Red Norvo Trio
3. I Get a Kick out of You - Red Norvo Trio
4. Move - Red Norvo Trio
5. I Can't Believe That You're in Love With Me - Red Norvo Trio
6. I'll Remember April - Red Norvo Trio
7. Zing! Went the Strings of My Heart - Red Norvo Trio
8. September Song - Red Norvo Trio
9. This Can't Be Love - Red Norvo Trio
10. If I Had You - Red Norvo Trio
11. Cheek to Cheek - Red Norvo Trio
12. Time and Tide - Red Norvo Trio
13. Godchild - Red Norvo Trio
14. I'm Yours - Red Norvo Trio
15. Night and Day - Red Norvo Trio
16. Swedish Pastry - Red Norvo Trio
17. Moon over Miami - George Shearing Quintet
18. Midnight on Cloud 69 - George Shearing Quintet
19. Life with Feather - George Shearing Quintet
20. Cherokee - George Shearing Quintet
21. Bebop's Fables - George Shearing Quintet
22. Sorry Wrong Rhumba - George Shearing Quintet
23. Cotton Top - George Shearing Quintet
24. Four Bars Short - George Shearing Quintet

Various Artists - Jazz From America On Disques Vogue (2015) {20CD Sony Music Box Set}

Various Artists - Jazz From America On Disques Vogue (2015) {20CD Sony Music Box Set}


Disc: 17
1. Bernie's Tune - Gerry Mulligan Quartet
2. Walking Shoes - Gerry Mulligan Quartet
3. Nights at the Turntable - Gerry Mulligan Quartet
4. Lullaby of the Leaves - Gerry Mulligan Quartet
5. Utter Chaos, Pt. 1 - Gerry Mulligan Quartet
6. Frenesi - Gerry Mulligan Quartet
7. Freeway - Gerry Mulligan Quartet
8. Soft Shoe - Gerry Mulligan Quartet
9. Aren't You Glad You're You? - Gerry Mulligan Quartet
10. Carson City Stage - Gerry Mulligan Quartet
11. Cherry - Gerry Mulligan Quartet
12. Makin' Whoopee - Gerry Mulligan Quartet
13. Motel - Gerry Mulligan Quartet
14. I Can't Believe That You're in Love With Me - Lee Konitz & The Gerry Mulligan Quartet
15. Sextet - Lee Konitz & The Gerry Mulligan Quartet
16. Lover Man - Lee Konitz & The Gerry Mulligan Quartet
17. Oh, Lady Be Good - Lee Konitz & The Gerry Mulligan Quartet
18. I May Be Wrong - Gerry Mulligan Quartet
19. I m Beginning to See the Light - Gerry Mulligan Quartet
20. The Nearness of You - Gerry Mulligan Quartet
21. Tea for Two - Gerry Mulligan Quartet
22. Love Me or Leave Me - Gerry Mulligan Quartet
23. Jeru - Gerry Mulligan Quartet
24. Utter Chaos, Pt. 2 - Gerry Mulligan Quartet
25. Darn That Dream - Gerry Mulligan Quartet
26. Swing House - Gerry Mulligan Quartet

Various Artists - Jazz From America On Disques Vogue (2015) {20CD Sony Music Box Set}

Various Artists - Jazz From America On Disques Vogue (2015) {20CD Sony Music Box Set}


Disc: 18
1. Isn't It Romantic - Chet Baker
2. Maid in Mexico - Chet Baker
3. Imagination - Chet Baker
4. This Time the Dream's on Me - Chet Baker
5. Winter Wonderland - Chet Baker
6. Russ Job - Chet Baker
7. Easy to Love - Chet Baker
8. Batter Up - Chet Baker
9. The Lamp Is Low - Chet Baker
10. No Ties - Chet Baker Quartet
11. Band Aid - Chet Baker Quartet
12. The Thrill Is Gone - Chet Baker Quartet
13. All the Things You Are - Chet Baker Quartet
14. Long Ago and Far Away - Chet Baker Quartet
15. Happy Little Sunbeam - Chet Baker Quartet
16. Moon Love - Chet Baker Quartet
17. Bea's Flat - Chet Baker Quartet

Various Artists - Jazz From America On Disques Vogue (2015) {20CD Sony Music Box Set}

Various Artists - Jazz From America On Disques Vogue (2015) {20CD Sony Music Box Set}


Disc: 19
1. Rose of the Rio Grande - Sidney Bechet and His Blue Note Jazzmen
2. All of Me - Sidney Bechet and His Blue Note Jazzmen
3. Shine - Sidney Bechet and His Blue Note Jazzmen
4. Sweet Georgia Brown - Sidney Bechet and His Blue Note Jazzmen
5. Black and Blue - Sidney Bechet and His Blue Note Jazzmen
6. Ding Dong Daddy - Sidney Bechet and His Blue Note Jazzmen
7. Original Dixieland One-Step - Sidney Bechet and His Hot Six
8. Blues My Naughty Sweetie Gives to Me - Sidney Bechet and His Hot Six
9. There'll Be Some Changes Made - Sidney Bechet and His Hot Six
10. That's a Plenty - Sidney Bechet and His Hot Six
11. Ballin' the Jack - Sidney Bechet and His Hot Six
12. Avalon - Sidney Bechet and His Hot Six
13. Lazy River - Bechet-Spanier Big Four
14. That's a Plenty - Bechet-Spanier Big Four

Various Artists - Jazz From America On Disques Vogue (2015) {20CD Sony Music Box Set}

Various Artists - Jazz From America On Disques Vogue (2015) {20CD Sony Music Box Set}


Disc: 20
1. New Lester Leaps In - Lester Young and His Band
2. She's Funny That Way - Lester Young and His Band
3. Lester's Be Bop Boogie - Lester Young and His Band
4. You're Driving Me Crazy - Lester Young and His Band
5. D.B. Blues - Lester Young and His Band
6. Lester Blows Again - Lester Young and His Band
7. The Sheik of Araby - Lester Young
8. Something to Remember You By - Lester Young and His Band
9. Tea for Two - Lester Young and His Quartet
10. East of the Sun - Lester Young and His Quartet
11. After You've Gone - Lester Young and His Band
12. I'm Confessin (That I Love You) - Lester Young and His Band
13. Movin' with Lester - Lester Young and His Band
14. Easy Does It - Lester Young and His Band
15. One O' Clock Jump - Lester Young and His Band
16. Every Tub (Jumpin at the Woodside) - Lester Young and His Band
17. These Foolish Things - Lester Young and His Band
18. Jumpin' at Mesner's - Lester Young and His Band
19. Jumpin' with Symphony Sid - Lester Young and His Sextet
20. No Eyes Blues - Lester Young and His Sextet
21. Lester Smooths It Out - Lester Young and His Band
22. Just Cooling - Lester Young and His Band
23. Sunday - Lester Young and His Sextet
24. On the Sunny Side of the Street - Lester Young and His Sextet

Various Artists - Jazz From America On Disques Vogue (2015) {20CD Sony Music Box Set}

Various Artists - Jazz From America On Disques Vogue (2015) {20CD Sony Music Box Set}


Exact Audio Copy V0.99 prebeta 5 from 4. May 2009

EAC extraction logfile from 25. November 2015, 19:31

Stan Getz / Jazz From America On Disques Vogue (CD2)

Used drive : PLEXTOR DVDR PX-L890SA Adapter: 6 ID: 0

Read mode : Secure
Utilize accurate stream : Yes
Defeat audio cache : Yes
Make use of C2 pointers : No

Read offset correction : 6
Overread into Lead-In and Lead-Out : No
Fill up missing offset samples with silence : Yes
Delete leading and trailing silent blocks : No
Null samples used in CRC calculations : Yes
Used interface : Native Win32 interface for Win NT & 2000
Gap handling : Appended to previous track

Used output format : User Defined Encoder
Selected bitrate : 1024 kBit/s
Quality : High
Add ID3 tag : No
Command line compressor : C:\Program Files (x86)\FLAC Frontend\tools\flac.exe
Additional command line options : -8 -V -T "ARTIST=%a" -T "TITLE=%t" -T "ALBUM=%g" -T "DATE=%y" -T "TRACKNUMBER=%n" -T "GENRE=%m" -T "COMMENT=EAC FLAC -8" %s


TOC of the extracted CD

Track | Start | Length | Start sector | End sector
––––––––––––––––––––––––––––-
1 | 0:00.00 | 2:31.21 | 0 | 11345
2 | 2:31.21 | 2:47.36 | 11346 | 23906
3 | 5:18.57 | 2:36.45 | 23907 | 35651
4 | 7:55.27 | 2:56.27 | 35652 | 48878
5 | 10:51.54 | 2:09.40 | 48879 | 58593
6 | 13:01.19 | 2:30.63 | 58594 | 69906
7 | 15:32.07 | 2:24.44 | 69907 | 80750
8 | 17:56.51 | 2:49.73 | 80751 | 93498
9 | 20:46.49 | 2:57.36 | 93499 | 106809
10 | 23:44.10 | 2:41.59 | 106810 | 118943
11 | 26:25.69 | 2:51.06 | 118944 | 131774
12 | 29:17.00 | 2:54.06 | 131775 | 144830
13 | 32:11.06 | 2:48.28 | 144831 | 157458
14 | 34:59.34 | 3:05.51 | 157459 | 171384
15 | 38:05.10 | 2:46.29 | 171385 | 183863
16 | 40:51.39 | 2:54.21 | 183864 | 196934
17 | 43:45.60 | 2:43.13 | 196935 | 209172
18 | 46:28.73 | 4:26.06 | 209173 | 229128
19 | 50:55.04 | 7:08.59 | 229129 | 261287
20 | 58:03.63 | 5:23.28 | 261288 | 285540
21 | 63:27.16 | 6:08.00 | 285541 | 313140


Track 1

Filename D:\VA - Jazz From America On Disques Vogue (2015) [FLAC] {20CD Sony Music Box Set}\CD02 - Stan Getz Quartet - The Stan Getz Quintette - Jazz At Storyville\01 - Sweetie Pie.wav

Pre-gap length 0:00:02.00

Peak level 63.8 %
Track quality 100.0 %
Test CRC AD76DF0B
Copy CRC AD76DF0B
Cannot be verified as accurate (confidence 1) [56A2DDC6], AccurateRip returned [1B5A6B6A]
Copy OK

Track 2

Filename D:\VA - Jazz From America On Disques Vogue (2015) [FLAC] {20CD Sony Music Box Set}\CD02 - Stan Getz Quartet - The Stan Getz Quintette - Jazz At Storyville\02 - Yesterdays.wav

Peak level 74.7 %
Track quality 100.0 %
Test CRC C7CACD1F
Copy CRC C7CACD1F
Cannot be verified as accurate (confidence 1) [FFBDF3A0], AccurateRip returned [EEEB60BD]
Copy OK

Track 3

Filename D:\VA - Jazz From America On Disques Vogue (2015) [FLAC] {20CD Sony Music Box Set}\CD02 - Stan Getz Quartet - The Stan Getz Quintette - Jazz At Storyville\03 - Hershey Bar.wav

Peak level 70.1 %
Track quality 100.0 %
Test CRC 7EE7E8F4
Copy CRC 7EE7E8F4
Cannot be verified as accurate (confidence 1) [366900F0], AccurateRip returned [C8331523]
Copy OK

Track 4

Filename D:\VA - Jazz From America On Disques Vogue (2015) [FLAC] {20CD Sony Music Box Set}\CD02 - Stan Getz Quartet - The Stan Getz Quintette - Jazz At Storyville\04 - Gone With The Wind.wav

Peak level 66.1 %
Track quality 100.0 %
Test CRC 124C240C
Copy CRC 124C240C
Cannot be verified as accurate (confidence 1) [436C53DF], AccurateRip returned [164978D3]
Copy OK

Track 5

Filename D:\VA - Jazz From America On Disques Vogue (2015) [FLAC] {20CD Sony Music Box Set}\CD02 - Stan Getz Quartet - The Stan Getz Quintette - Jazz At Storyville\05 - Tootsie Roll.wav

Peak level 62.0 %
Track quality 100.0 %
Test CRC B4E99CC3
Copy CRC B4E99CC3
Cannot be verified as accurate (confidence 1) [5689D99E], AccurateRip returned [9680D789]
Copy OK

Track 6

Filename D:\VA - Jazz From America On Disques Vogue (2015) [FLAC] {20CD Sony Music Box Set}\CD02 - Stan Getz Quartet - The Stan Getz Quintette - Jazz At Storyville\06 - Strike Up The Band.wav

Peak level 58.3 %
Track quality 100.0 %
Test CRC 9F64DFFC
Copy CRC 9F64DFFC
Cannot be verified as accurate (confidence 1) [CAF6182F], AccurateRip returned [37A47EC1]
Copy OK

Track 7

Filename D:\VA - Jazz From America On Disques Vogue (2015) [FLAC] {20CD Sony Music Box Set}\CD02 - Stan Getz Quartet - The Stan Getz Quintette - Jazz At Storyville\07 - Imagination.wav

Peak level 70.4 %
Track quality 100.0 %
Test CRC 2DD56ECD
Copy CRC 2DD56ECD
Cannot be verified as accurate (confidence 1) [6F847199], AccurateRip returned [F9D2821E]
Copy OK

Track 8

Filename D:\VA - Jazz From America On Disques Vogue (2015) [FLAC] {20CD Sony Music Box Set}\CD02 - Stan Getz Quartet - The Stan Getz Quintette - Jazz At Storyville\08 - For Stompers Only.wav

Peak level 63.7 %
Track quality 100.0 %
Test CRC B77F4D3C
Copy CRC B77F4D3C
Cannot be verified as accurate (confidence 1) [FCD91FC4], AccurateRip returned [649958ED]
Copy OK

Track 9

Filename D:\VA - Jazz From America On Disques Vogue (2015) [FLAC] {20CD Sony Music Box Set}\CD02 - Stan Getz Quartet - The Stan Getz Quintette - Jazz At Storyville\09 - Yvette.wav

Peak level 68.0 %
Track quality 100.0 %
Test CRC 21B8554A
Copy CRC 21B8554A
Cannot be verified as accurate (confidence 1) [949D76D6], AccurateRip returned [9076C372]
Copy OK

Track 10

Filename D:\VA - Jazz From America On Disques Vogue (2015) [FLAC] {20CD Sony Music Box Set}\CD02 - Stan Getz Quartet - The Stan Getz Quintette - Jazz At Storyville\10 - Potter's Luck.wav

Peak level 70.6 %
Track quality 100.0 %
Test CRC 5B2523CE
Copy CRC 5B2523CE
Cannot be verified as accurate (confidence 1) [6C370289], AccurateRip returned [C904149B]
Copy OK

Track 11

Filename D:\VA - Jazz From America On Disques Vogue (2015) [FLAC] {20CD Sony Music Box Set}\CD02 - Stan Getz Quartet - The Stan Getz Quintette - Jazz At Storyville\11 - Penny.wav

Peak level 68.8 %
Track quality 100.0 %
Test CRC F2ED0DD6
Copy CRC F2ED0DD6
Cannot be verified as accurate (confidence 1) [B4FEFF48], AccurateRip returned [BBA96E48]
Copy OK

Track 12

Filename D:\VA - Jazz From America On Disques Vogue (2015) [FLAC] {20CD Sony Music Box Set}\CD02 - Stan Getz Quartet - The Stan Getz Quintette - Jazz At Storyville\12 - It Might As Well Be Spring.wav

Peak level 49.0 %
Track quality 100.0 %
Test CRC 4E44001E
Copy CRC 4E44001E
Cannot be verified as accurate (confidence 1) [0C64FB3B], AccurateRip returned [78182AB9]
Copy OK

Track 13

Filename D:\VA - Jazz From America On Disques Vogue (2015) [FLAC] {20CD Sony Music Box Set}\CD02 - Stan Getz Quartet - The Stan Getz Quintette - Jazz At Storyville\13 - The Song Is You.wav

Peak level 46.9 %
Track quality 100.0 %
Test CRC 3F9C8255
Copy CRC 3F9C8255
Cannot be verified as accurate (confidence 1) [69793A33], AccurateRip returned [1FA0105A]
Copy OK

Track 14

Filename D:\VA - Jazz From America On Disques Vogue (2015) [FLAC] {20CD Sony Music Box Set}\CD02 - Stan Getz Quartet - The Stan Getz Quintette - Jazz At Storyville\14 - Wildwood.wav

Peak level 68.9 %
Track quality 100.0 %
Test CRC 4FD9C19B
Copy CRC 4FD9C19B
Cannot be verified as accurate (confidence 1) [534FEFE7], AccurateRip returned [0D4FAA24]
Copy OK

Track 15

Filename D:\VA - Jazz From America On Disques Vogue (2015) [FLAC] {20CD Sony Music Box Set}\CD02 - Stan Getz Quartet - The Stan Getz Quintette - Jazz At Storyville\15 - On The Alamo.wav

Peak level 50.4 %
Track quality 99.9 %
Test CRC 7DA296B4
Copy CRC 7DA296B4
Cannot be verified as accurate (confidence 1) [2F192081], AccurateRip returned [5E847DB5]
Copy OK

Track 16

Filename D:\VA - Jazz From America On Disques Vogue (2015) [FLAC] {20CD Sony Music Box Set}\CD02 - Stan Getz Quartet - The Stan Getz Quintette - Jazz At Storyville\16 - Split Kick.wav

Peak level 69.3 %
Track quality 100.0 %
Test CRC 68C63130
Copy CRC 68C63130
Cannot be verified as accurate (confidence 1) [35CDD689], AccurateRip returned [839AE23F]
Copy OK

Track 17

Filename D:\VA - Jazz From America On Disques Vogue (2015) [FLAC] {20CD Sony Music Box Set}\CD02 - Stan Getz Quartet - The Stan Getz Quintette - Jazz At Storyville\17 - The Best Thing For You [Astaniave].wav

Peak level 63.8 %
Track quality 100.0 %
Test CRC 8353BE25
Copy CRC 8353BE25
Cannot be verified as accurate (confidence 1) [F147F76A], AccurateRip returned [91682501]
Copy OK

Track 18

Filename D:\VA - Jazz From America On Disques Vogue (2015) [FLAC] {20CD Sony Music Box Set}\CD02 - Stan Getz Quartet - The Stan Getz Quintette - Jazz At Storyville\18 - Thou Swell.wav

Peak level 72.7 %
Track quality 100.0 %
Test CRC A0C90E86
Copy CRC A0C90E86
Cannot be verified as accurate (confidence 1) [7BF7AA72], AccurateRip returned [0A312D22]
Copy OK

Track 19

Filename D:\VA - Jazz From America On Disques Vogue (2015) [FLAC] {20CD Sony Music Box Set}\CD02 - Stan Getz Quartet - The Stan Getz Quintette - Jazz At Storyville\19 - The Song Is You.wav

Peak level 67.4 %
Track quality 100.0 %
Test CRC BE683159
Copy CRC BE683159
Cannot be verified as accurate (confidence 1) [D3EC9F39], AccurateRip returned [37A52572]
Copy OK

Track 20

Filename D:\VA - Jazz From America On Disques Vogue (2015) [FLAC] {20CD Sony Music Box Set}\CD02 - Stan Getz Quartet - The Stan Getz Quintette - Jazz At Storyville\20 - Mosquito Knees.wav

Peak level 79.7 %
Track quality 100.0 %
Test CRC C825AB9A
Copy CRC C825AB9A
Cannot be verified as accurate (confidence 1) [2EBA206C], AccurateRip returned [143DB96B]
Copy OK

Track 21

Filename D:\VA - Jazz From America On Disques Vogue (2015) [FLAC] {20CD Sony Music Box Set}\CD02 - Stan Getz Quartet - The Stan Getz Quintette - Jazz At Storyville\21 - Parker 51.wav

Peak level 84.3 %
Track quality 100.0 %
Test CRC F18CADA4
Copy CRC F18CADA4
Cannot be verified as accurate (confidence 1) [D14FD4E1], AccurateRip returned [342B5176]
Copy OK


No tracks could be verified as accurate
You may have a different pressing from the one(s) in the database

No errors occurred

End of status report
Exact Audio Copy V0.99 prebeta 5 from 4. May 2009

EAC extraction logfile from 26. November 2015, 22:09

The Spirit Of Memphis Quartet, John Lee Hooker / Jazz From America On Disques Vogue (CD11)

Used drive : PLEXTOR DVDR PX-L890SA Adapter: 6 ID: 0

Read mode : Secure
Utilize accurate stream : Yes
Defeat audio cache : Yes
Make use of C2 pointers : No

Read offset correction : 6
Overread into Lead-In and Lead-Out : No
Fill up missing offset samples with silence : Yes
Delete leading and trailing silent blocks : No
Null samples used in CRC calculations : Yes
Used interface : Native Win32 interface for Win NT & 2000
Gap handling : Appended to previous track

Used output format : User Defined Encoder
Selected bitrate : 1024 kBit/s
Quality : High
Add ID3 tag : No
Command line compressor : C:\Program Files (x86)\FLAC Frontend\tools\flac.exe
Additional command line options : -8 -V -T "ARTIST=%a" -T "TITLE=%t" -T "ALBUM=%g" -T "DATE=%y" -T "TRACKNUMBER=%n" -T "GENRE=%m" -T "COMMENT=EAC FLAC -8" %s


TOC of the extracted CD

Track | Start | Length | Start sector | End sector
––––––––––––––––––––––––––––-
1 | 0:00.00 | 2:39.14 | 0 | 11938
2 | 2:39.14 | 2:59.74 | 11939 | 25437
3 | 5:39.13 | 3:01.74 | 25438 | 39086
4 | 8:41.12 | 4:03.51 | 39087 | 57362
5 | 12:44.63 | 3:09.74 | 57363 | 71611
6 | 15:54.62 | 2:45.58 | 71612 | 84044
7 | 18:40.45 | 2:27.14 | 84045 | 95083
8 | 21:07.59 | 3:02.28 | 95084 | 108761
9 | 24:10.12 | 3:03.20 | 108762 | 122506
10 | 27:13.32 | 3:05.37 | 122507 | 136418
11 | 30:18.69 | 2:53.51 | 136419 | 149444
12 | 33:12.45 | 3:11.14 | 149445 | 163783
13 | 36:23.59 | 6:46.50 | 163784 | 194283
14 | 43:10.34 | 2:59.67 | 194284 | 207775
15 | 46:10.26 | 3:10.15 | 207776 | 222040


Track 1

Filename D:\VA - Jazz From America On Disques Vogue (2015) [FLAC] {20CD Sony Music Box Set}\CD11 - The Spirit Of Memphis Quartet - John Lee Hooker\01 - Every Time I Feel The Spirit.wav

Pre-gap length 0:00:02.00

Peak level 97.0 %
Track quality 100.0 %
Test CRC C577E2BF
Copy CRC C577E2BF
Cannot be verified as accurate (confidence 1) [74A940B7], AccurateRip returned [183B0439]
Copy OK

Track 2

Filename D:\VA - Jazz From America On Disques Vogue (2015) [FLAC] {20CD Sony Music Box Set}\CD11 - The Spirit Of Memphis Quartet - John Lee Hooker\02 - Sign Of The Judgment.wav

Peak level 97.4 %
Track quality 99.9 %
Test CRC 3D50C787
Copy CRC 3D50C787
Cannot be verified as accurate (confidence 1) [735A554A], AccurateRip returned [A3F0A37F]
Copy OK

Track 3

Filename D:\VA - Jazz From America On Disques Vogue (2015) [FLAC] {20CD Sony Music Box Set}\CD11 - The Spirit Of Memphis Quartet - John Lee Hooker\03 - The World Prayer.wav

Peak level 96.9 %
Track quality 100.0 %
Test CRC B6C1C92D
Copy CRC B6C1C92D
Cannot be verified as accurate (confidence 1) [1B0DF75F], AccurateRip returned [30B73C4D]
Copy OK

Track 4

Filename D:\VA - Jazz From America On Disques Vogue (2015) [FLAC] {20CD Sony Music Box Set}\CD11 - The Spirit Of Memphis Quartet - John Lee Hooker\04 - Every Day And Every Hour.wav

Peak level 96.2 %
Track quality 100.0 %
Test CRC DCB23FE5
Copy CRC DCB23FE5
Cannot be verified as accurate (confidence 1) [E272DA2B], AccurateRip returned [316DA424]
Copy OK

Track 5

Filename D:\VA - Jazz From America On Disques Vogue (2015) [FLAC] {20CD Sony Music Box Set}\CD11 - The Spirit Of Memphis Quartet - John Lee Hooker\05 - I'll Go.wav

Peak level 96.9 %
Track quality 100.0 %
Test CRC 47BE906B
Copy CRC 47BE906B
Cannot be verified as accurate (confidence 1) [1DE5B8AB], AccurateRip returned [DACE3293]
Copy OK

Track 6

Filename D:\VA - Jazz From America On Disques Vogue (2015) [FLAC] {20CD Sony Music Box Set}\CD11 - The Spirit Of Memphis Quartet - John Lee Hooker\06 - God's Got His Eyes On You.wav

Peak level 96.6 %
Track quality 100.0 %
Test CRC D76757C5
Copy CRC D76757C5
Cannot be verified as accurate (confidence 1) [75852B80], AccurateRip returned [14A993DD]
Copy OK

Track 7

Filename D:\VA - Jazz From America On Disques Vogue (2015) [FLAC] {20CD Sony Music Box Set}\CD11 - The Spirit Of Memphis Quartet - John Lee Hooker\07 - Jesus, Jesus.wav

Peak level 97.2 %
Track quality 100.0 %
Test CRC 1940416B
Copy CRC 1940416B
Cannot be verified as accurate (confidence 1) [D6C2A1B7], AccurateRip returned [1896451C]
Copy OK

Track 8

Filename D:\VA - Jazz From America On Disques Vogue (2015) [FLAC] {20CD Sony Music Box Set}\CD11 - The Spirit Of Memphis Quartet - John Lee Hooker\08 - Calvary.wav

Peak level 91.9 %
Track quality 100.0 %
Test CRC 7F8F37EE
Copy CRC 7F8F37EE
Cannot be verified as accurate (confidence 1) [D6E4446F], AccurateRip returned [3DF68A1D]
Copy OK

Track 9

Filename D:\VA - Jazz From America On Disques Vogue (2015) [FLAC] {20CD Sony Music Box Set}\CD11 - The Spirit Of Memphis Quartet - John Lee Hooker\09 - The Day Is Passed And Gone.wav

Peak level 96.8 %
Track quality 99.9 %
Test CRC 620678A4
Copy CRC 620678A4
Cannot be verified as accurate (confidence 1) [9B6C3527], AccurateRip returned [581B79B0]
Copy OK

Track 10

Filename D:\VA - Jazz From America On Disques Vogue (2015) [FLAC] {20CD Sony Music Box Set}\CD11 - The Spirit Of Memphis Quartet - John Lee Hooker\10 - On The Battlefield.wav

Peak level 96.9 %
Track quality 100.0 %
Test CRC 26FB8839
Copy CRC 26FB8839
Cannot be verified as accurate (confidence 1) [9EE61C9A], AccurateRip returned [39BEC7B2]
Copy OK

Track 11

Filename D:\VA - Jazz From America On Disques Vogue (2015) [FLAC] {20CD Sony Music Box Set}\CD11 - The Spirit Of Memphis Quartet - John Lee Hooker\11 - He Never Left Me Alone.wav

Peak level 94.4 %
Track quality 99.9 %
Test CRC 1AFBA9DA
Copy CRC 1AFBA9DA
Cannot be verified as accurate (confidence 1) [BC16659C], AccurateRip returned [57C41369]
Copy OK

Track 12

Filename D:\VA - Jazz From America On Disques Vogue (2015) [FLAC] {20CD Sony Music Box Set}\CD11 - The Spirit Of Memphis Quartet - John Lee Hooker\12 - Blessed Are The Dead.wav

Peak level 92.5 %
Track quality 100.0 %
Test CRC 70917C0F
Copy CRC 70917C0F
Cannot be verified as accurate (confidence 1) [01F1CC50], AccurateRip returned [45D991D0]
Copy OK

Track 13

Filename D:\VA - Jazz From America On Disques Vogue (2015) [FLAC] {20CD Sony Music Box Set}\CD11 - The Spirit Of Memphis Quartet - John Lee Hooker\13 - Lord Jesus [Pt. 1 & 2].wav

Peak level 97.0 %
Track quality 100.0 %
Test CRC E73505BB
Copy CRC E73505BB
Cannot be verified as accurate (confidence 1) [D32E1CB7], AccurateRip returned [79EE820C]
Copy OK

Track 14

Filename D:\VA - Jazz From America On Disques Vogue (2015) [FLAC] {20CD Sony Music Box Set}\CD11 - The Spirit Of Memphis Quartet - John Lee Hooker\14 - Moaning Blues.wav

Peak level 96.8 %
Track quality 100.0 %
Test CRC 0D0DE0F8
Copy CRC 0D0DE0F8
Cannot be verified as accurate (confidence 1) [864B02DD], AccurateRip returned [74E51EDD]
Copy OK

Track 15

Filename D:\VA - Jazz From America On Disques Vogue (2015) [FLAC] {20CD Sony Music Box Set}\CD11 - The Spirit Of Memphis Quartet - John Lee Hooker\15 - Stomp Boogie.wav

Peak level 90.3 %
Track quality 100.0 %
Test CRC 377F080B
Copy CRC 377F080B
Cannot be verified as accurate (confidence 1) [2725450A], AccurateRip returned [ED25259A]
Copy OK


No tracks could be verified as accurate
You may have a different pressing from the one(s) in the database

No errors occurred

End of status report
Exact Audio Copy V0.99 prebeta 5 from 4. May 2009

EAC extraction logfile from 28. November 2015, 18:52

Gerry Mulligan / Jazz From America On Disques Vogue (CD17)

Used drive : PLEXTOR DVDR PX-L890SA Adapter: 6 ID: 0

Read mode : Secure
Utilize accurate stream : Yes
Defeat audio cache : Yes
Make use of C2 pointers : No

Read offset correction : 6
Overread into Lead-In and Lead-Out : No
Fill up missing offset samples with silence : Yes
Delete leading and trailing silent blocks : No
Null samples used in CRC calculations : Yes
Used interface : Native Win32 interface for Win NT & 2000
Gap handling : Appended to previous track

Used output format : User Defined Encoder
Selected bitrate : 1024 kBit/s
Quality : High
Add ID3 tag : No
Command line compressor : C:\Program Files (x86)\FLAC Frontend\tools\flac.exe
Additional command line options : -8 -V -T "ARTIST=%a" -T "TITLE=%t" -T "ALBUM=%g" -T "DATE=%y" -T "TRACKNUMBER=%n" -T "GENRE=%m" -T "COMMENT=EAC FLAC -8" %s


TOC of the extracted CD

Track | Start | Length | Start sector | End sector
––––––––––––––––––––––––––––-
1 | 0:00.00 | 2:52.60 | 0 | 12959
2 | 2:52.60 | 3:12.21 | 12960 | 27380
3 | 6:05.06 | 2:53.36 | 27381 | 40391
4 | 8:58.42 | 3:14.28 | 40392 | 54969
5 | 12:12.70 | 0:34.57 | 54970 | 57576
6 | 12:47.52 | 3:09.68 | 57577 | 71819
7 | 15:57.45 | 2:45.44 | 71820 | 84238
8 | 18:43.14 | 2:39.66 | 84239 | 96229
9 | 21:23.05 | 2:51.66 | 96230 | 109120
10 | 24:14.71 | 2:30.66 | 109121 | 120436
11 | 26:45.62 | 2:56.66 | 120437 | 133702
12 | 29:42.53 | 3:28.06 | 133703 | 149308
13 | 33:10.59 | 2:35.58 | 149309 | 160991
14 | 35:46.42 | 3:08.36 | 160992 | 175127
15 | 38:55.03 | 3:00.74 | 175128 | 188701
16 | 41:56.02 | 3:07.51 | 188702 | 202777
17 | 45:03.53 | 2:30.73 | 202778 | 214100
18 | 47:34.51 | 2:51.50 | 214101 | 226975
19 | 50:26.26 | 3:36.22 | 226976 | 243197
20 | 54:02.48 | 2:52.13 | 243198 | 256110
21 | 56:54.61 | 2:48.07 | 256111 | 268717
22 | 59:42.68 | 2:42.73 | 268718 | 280940
23 | 62:25.66 | 2:30.51 | 280941 | 292241
24 | 64:56.42 | 0:33.36 | 292242 | 294752
25 | 65:30.03 | 3:48.59 | 294753 | 311911
26 | 69:18.62 | 2:55.28 | 311912 | 325064


Track 1

Filename D:\VA - Jazz From America On Disques Vogue (2015) [FLAC] {20CD Sony Music Box Set}\CD17 - Gerry Mulligan Quartet Vol. 2, 3, 4\01 - Bernie's Tune.wav

Pre-gap length 0:00:02.00

Peak level 92.7 %
Track quality 100.0 %
Test CRC 1CB44F28
Copy CRC 1CB44F28
Cannot be verified as accurate (confidence 1) [B95B2C47], AccurateRip returned [9C21EFBA]
Copy OK

Track 2

Filename D:\VA - Jazz From America On Disques Vogue (2015) [FLAC] {20CD Sony Music Box Set}\CD17 - Gerry Mulligan Quartet Vol. 2, 3, 4\02 - Walking Shoes.wav

Peak level 80.2 %
Track quality 99.9 %
Test CRC A59C6750
Copy CRC A59C6750
Cannot be verified as accurate (confidence 1) [A22236E3], AccurateRip returned [970CE4D6]
Copy OK

Track 3

Filename D:\VA - Jazz From America On Disques Vogue (2015) [FLAC] {20CD Sony Music Box Set}\CD17 - Gerry Mulligan Quartet Vol. 2, 3, 4\03 - Nights At The Turntable.wav

Peak level 70.0 %
Track quality 100.0 %
Test CRC 9D350B50
Copy CRC 9D350B50
Cannot be verified as accurate (confidence 1) [8A23C332], AccurateRip returned [7F931850]
Copy OK

Track 4

Filename D:\VA - Jazz From America On Disques Vogue (2015) [FLAC] {20CD Sony Music Box Set}\CD17 - Gerry Mulligan Quartet Vol. 2, 3, 4\04 - Lullaby Of The Leaves.wav

Peak level 86.0 %
Track quality 100.0 %
Test CRC 969EDF36
Copy CRC 969EDF36
Cannot be verified as accurate (confidence 1) [A42CD6E5], AccurateRip returned [46FBB2E8]
Copy OK

Track 5

Filename D:\VA - Jazz From America On Disques Vogue (2015) [FLAC] {20CD Sony Music Box Set}\CD17 - Gerry Mulligan Quartet Vol. 2, 3, 4\05 - Utter Chaos #1.wav

Peak level 79.0 %
Track quality 100.0 %
Test CRC 1247B195
Copy CRC 1247B195
Cannot be verified as accurate (confidence 1) [BB2EF81B], AccurateRip returned [08148AA8]
Copy OK

Track 6

Filename D:\VA - Jazz From America On Disques Vogue (2015) [FLAC] {20CD Sony Music Box Set}\CD17 - Gerry Mulligan Quartet Vol. 2, 3, 4\06 - Frenesi.wav

Peak level 83.4 %
Track quality 99.9 %
Test CRC 331255B1
Copy CRC 331255B1
Cannot be verified as accurate (confidence 1) [0CDD40B0], AccurateRip returned [433F6DFE]
Copy OK

Track 7

Filename D:\VA - Jazz From America On Disques Vogue (2015) [FLAC] {20CD Sony Music Box Set}\CD17 - Gerry Mulligan Quartet Vol. 2, 3, 4\07 - Freeway.wav

Peak level 64.1 %
Track quality 100.0 %
Test CRC EE58CEB2
Copy CRC EE58CEB2
Cannot be verified as accurate (confidence 1) [1420CC8E], AccurateRip returned [0CA928DA]
Copy OK

Track 8

Filename D:\VA - Jazz From America On Disques Vogue (2015) [FLAC] {20CD Sony Music Box Set}\CD17 - Gerry Mulligan Quartet Vol. 2, 3, 4\08 - Soft Shoe.wav

Peak level 54.0 %
Track quality 100.0 %
Test CRC DE8E0333
Copy CRC DE8E0333
Cannot be verified as accurate (confidence 1) [C120DC2A], AccurateRip returned [11A23B3D]
Copy OK

Track 9

Filename D:\VA - Jazz From America On Disques Vogue (2015) [FLAC] {20CD Sony Music Box Set}\CD17 - Gerry Mulligan Quartet Vol. 2, 3, 4\09 - Aren't You Glad You're You .wav

Peak level 64.2 %
Track quality 100.0 %
Test CRC 8CEFFF99
Copy CRC 8CEFFF99
Cannot be verified as accurate (confidence 1) [399295BB], AccurateRip returned [10EA94E1]
Copy OK

Track 10

Filename D:\VA - Jazz From America On Disques Vogue (2015) [FLAC] {20CD Sony Music Box Set}\CD17 - Gerry Mulligan Quartet Vol. 2, 3, 4\10 - Carson City Stage.wav

Peak level 72.2 %
Track quality 100.0 %
Test CRC 4E3914C2
Copy CRC 4E3914C2
Cannot be verified as accurate (confidence 1) [9831CD27], AccurateRip returned [67B097BC]
Copy OK

Track 11

Filename D:\VA - Jazz From America On Disques Vogue (2015) [FLAC] {20CD Sony Music Box Set}\CD17 - Gerry Mulligan Quartet Vol. 2, 3, 4\11 - Cherry.wav

Peak level 68.9 %
Track quality 100.0 %
Test CRC 0069CA6A
Copy CRC 0069CA6A
Cannot be verified as accurate (confidence 1) [52BDF2EB], AccurateRip returned [8B027ED2]
Copy OK

Track 12

Filename D:\VA - Jazz From America On Disques Vogue (2015) [FLAC] {20CD Sony Music Box Set}\CD17 - Gerry Mulligan Quartet Vol. 2, 3, 4\12 - Makin' Whoopee.wav

Peak level 71.2 %
Track quality 100.0 %
Test CRC 8E436794
Copy CRC 8E436794
Cannot be verified as accurate (confidence 1) [9BCB1B88], AccurateRip returned [32FB3147]
Copy OK

Track 13

Filename D:\VA - Jazz From America On Disques Vogue (2015) [FLAC] {20CD Sony Music Box Set}\CD17 - Gerry Mulligan Quartet Vol. 2, 3, 4\13 - Motel.wav

Peak level 87.7 %
Track quality 100.0 %
Test CRC CFE37377
Copy CRC CFE37377
Cannot be verified as accurate (confidence 1) [4F95C8AF], AccurateRip returned [D9CA9A0C]
Copy OK

Track 14

Filename D:\VA - Jazz From America On Disques Vogue (2015) [FLAC] {20CD Sony Music Box Set}\CD17 - Gerry Mulligan Quartet Vol. 2, 3, 4\14 - I Can't Believe That You're In Love With Me.wav

Peak level 88.9 %
Track quality 100.0 %
Test CRC C27AB679
Copy CRC C27AB679
Cannot be verified as accurate (confidence 1) [090592CF], AccurateRip returned [DDB2D145]
Copy OK

Track 15

Filename D:\VA - Jazz From America On Disques Vogue (2015) [FLAC] {20CD Sony Music Box Set}\CD17 - Gerry Mulligan Quartet Vol. 2, 3, 4\15 - Sextet.wav

Peak level 84.2 %
Track quality 99.9 %
Test CRC 3B951448
Copy CRC 3B951448
Cannot be verified as accurate (confidence 1) [05B620C2], AccurateRip returned [F8B01FD5]
Copy OK

Track 16

Filename D:\VA - Jazz From America On Disques Vogue (2015) [FLAC] {20CD Sony Music Box Set}\CD17 - Gerry Mulligan Quartet Vol. 2, 3, 4\16 - Lover Man.wav

Peak level 79.8 %
Track quality 100.0 %
Test CRC 3CC5E4F0
Copy CRC 3CC5E4F0
Cannot be verified as accurate (confidence 1) [B68B89E1], AccurateRip returned [EA7D27B6]
Copy OK

Track 17

Filename D:\VA - Jazz From America On Disques Vogue (2015) [FLAC] {20CD Sony Music Box Set}\CD17 - Gerry Mulligan Quartet Vol. 2, 3, 4\17 - Oh, Lady Be Good.wav

Peak level 88.1 %
Track quality 100.0 %
Test CRC BBF83353
Copy CRC BBF83353
Cannot be verified as accurate (confidence 1) [A983AF28], AccurateRip returned [137ED4A2]
Copy OK

Track 18

Filename D:\VA - Jazz From America On Disques Vogue (2015) [FLAC] {20CD Sony Music Box Set}\CD17 - Gerry Mulligan Quartet Vol. 2, 3, 4\18 - I May Be Wrong.wav

Peak level 87.1 %
Track quality 99.9 %
Test CRC 3D51B325
Copy CRC 3D51B325
Cannot be verified as accurate (confidence 1) [44F87996], AccurateRip returned [E6F62D09]
Copy OK

Track 19

Filename D:\VA - Jazz From America On Disques Vogue (2015) [FLAC] {20CD Sony Music Box Set}\CD17 - Gerry Mulligan Quartet Vol. 2, 3, 4\19 - I'm Beginning To See The Light.wav

Peak level 97.2 %
Track quality 100.0 %
Test CRC DE5350C6
Copy CRC DE5350C6
Cannot be verified as accurate (confidence 1) [627DBDFE], AccurateRip returned [C21155D5]
Copy OK

Track 20

Filename D:\VA - Jazz From America On Disques Vogue (2015) [FLAC] {20CD Sony Music Box Set}\CD17 - Gerry Mulligan Quartet Vol. 2, 3, 4\20 - The Nearness Of You.wav

Peak level 90.8 %
Track quality 100.0 %
Test CRC F39C6908
Copy CRC F39C6908
Cannot be verified as accurate (confidence 1) [27E52654], AccurateRip returned [20F617A7]
Copy OK

Track 21

Filename D:\VA - Jazz From America On Disques Vogue (2015) [FLAC] {20CD Sony Music Box Set}\CD17 - Gerry Mulligan Quartet Vol. 2, 3, 4\21 - Tea For Two.wav

Peak level 88.6 %
Track quality 100.0 %
Test CRC 65189D81
Copy CRC 65189D81
Cannot be verified as accurate (confidence 1) [4BA158DD], AccurateRip returned [24F7EEDE]
Copy OK

Track 22

Filename D:\VA - Jazz From America On Disques Vogue (2015) [FLAC] {20CD Sony Music Box Set}\CD17 - Gerry Mulligan Quartet Vol. 2, 3, 4\22 - Love Me Or Leave Me.wav

Peak level 81.2 %
Track quality 100.0 %
Test CRC 13DB43D9
Copy CRC 13DB43D9
Cannot be verified as accurate (confidence 1) [D726A333], AccurateRip returned [A1EE8B71]
Copy OK

Track 23

Filename D:\VA - Jazz From America On Disques Vogue (2015) [FLAC] {20CD Sony Music Box Set}\CD17 - Gerry Mulligan Quartet Vol. 2, 3, 4\23 - Jeru.wav

Peak level 87.7 %
Track quality 100.0 %
Test CRC 6B0863E6
Copy CRC 6B0863E6
Cannot be verified as accurate (confidence 1) [B7471109], AccurateRip returned [D2473B5C]
Copy OK

Track 24

Filename D:\VA - Jazz From America On Disques Vogue (2015) [FLAC] {20CD Sony Music Box Set}\CD17 - Gerry Mulligan Quartet Vol. 2, 3, 4\24 - Utter Chaos #2.wav

Peak level 68.0 %
Track quality 100.0 %
Test CRC CA72CE5C
Copy CRC CA72CE5C
Cannot be verified as accurate (confidence 1) [F0845079], AccurateRip returned [7F041F24]
Copy OK

Track 25

Filename D:\VA - Jazz From America On Disques Vogue (2015) [FLAC] {20CD Sony Music Box Set}\CD17 - Gerry Mulligan Quartet Vol. 2, 3, 4\25 - Darn That Dream.wav

Peak level 88.5 %
Track quality 99.9 %
Test CRC C5A3DFFD
Copy CRC C5A3DFFD
Cannot be verified as accurate (confidence 1) [BB2AEF05], AccurateRip returned [23AFC8DD]
Copy OK

Track 26

Filename D:\VA - Jazz From America On Disques Vogue (2015) [FLAC] {20CD Sony Music Box Set}\CD17 - Gerry Mulligan Quartet Vol. 2, 3, 4\26 - Swing House.wav

Peak level 90.8 %
Track quality 100.0 %
Test CRC 6289C0F3
Copy CRC 6289C0F3
Cannot be verified as accurate (confidence 1) [B4CBB2C1], AccurateRip returned [AC87E13E]
Copy OK


No tracks could be verified as accurate
You may have a different pressing from the one(s) in the database

No errors occurred

End of status report


Various Artists - Jazz From America On Disques Vogue (2015) {20CD Sony Music Box Set}



===