Tags
Language
Tags

VA - Kenya Special, Vol. 2 (Selected East African Recordings from the 1970's & 80's) (2016)

Posted By: delpotro
VA - Kenya Special, Vol. 2 (Selected East African Recordings from the 1970's & 80's) (2016)

VA - Kenya Special, Vol. 2 (Selected East African Recordings from the 1970's & 80's) (2016)
XLD Rip | FLAC (tracks+log+.cue) | Digital booklet | 01:19:56 | 379 Mb
World, Funk | Label: Soundway Records

To many outside of East Africa, the Kenya Special Soundway compilation released in 2013 was their introduction to the full spectrum of the musical landscape of 1970s and ‘80s Kenya. The promotion of Kenyan music on an international level from the mid-eighties onwards had often been within a narrative of ‘otherness’, where releases were marketed as world music, focusing on a few genres with clearly defined sounds, such as benga and Swahili rumba. Kenya Special did more or less the opposite by highlighting songs and bands that couldn’t easily be categorized. Many of the featured songs seemed to bend the rules, break away from existing genres and sometimes borrow from foreign music trends. Whereas the world music campaigns of the 1980s were moderately successful in drawing in young audiences, the more recent wave of reissues has caught on with a demographic that’s one or two generations younger than those listeners that were originally interested in the music that was recorded in Kenya from the 1960s to the 1980s. The approach to musical rediscovery that is behind Kenya Special has its origins in a youthful movement of vinyl collecting (and to some extent club culture), which has, in the past decade and a half, carved out its own niche alongside the established music industry.

Despite the renewed interest in music from Kenya’s past, finding these tracks and their rights holders hasn’t become any easier. Only a handful of music archives around the world harbour collections of Kenyan music, and just a few private collectors in Kenya and abroad have been sharing catalogue info online or privately. One of the problems with East African music of this era is that much of it was originally released only on 45 rpm, seven-inch vinyl singles, many of which were only ever produced in tiny runs of a few hundred. 45s with their thin, paper sleeves do not age as well as LPs and are often far more susceptible to the elements. The compilers of Kenya Special 2 have gone to great lengths to disclose a small part of what is slowly being accepted as an essential element of East Africa’s cultural heritage: the history of recorded popular music. We hope you enjoy it.
Tracklist:
1. The Lulus Band – I Can Feel It (04:58)
2. The Bahari Boys – Simba Yuna Nguruma (04:11)
3. Joseph Kamaru – Mukurara Nake (03:29)
4. Orch. Conga Internationale – Nakupenda Sana (04:43)
5. Rift Valley Brothers – Mucang'ang'o Ugiraga Mukindirio (04:52)
6. L'Orch Central International – Jane Jaber (04:37)
7. The Lulus Band – Daina (04:36)
8. Orchestre Mangelepa – Nseya (08:42)
9. Eagles Lupopo 77 – Mrembo Pesa (04:06)
10. L'Orchestre Todi National – Misumba (04:51)
11. Peter J. Tsotsi & T.A. Lupopo – Fanya Imani (04:38)
12. Orch Simba Wanyika – Nakupenda (09:06)
13. Sammy Katana – Vilole (Maisha Ya Mjini) (05:58)
14. African Vibration – Hinde (04:07)
15. Afro 70 – Libondela (02:29)
16. Mac & Party – Harambe (02:43)
17. Kilwa Jazz – Shirikisho (02:56)
18. Awengele – Awengele (03:48)

X Lossless Decoder version 20161007 (149.3)

XLD extraction logfile from 2017-04-08 23:29:31 +0200

Various Artists / Kenya Special : Vol.2 Selected East African Recordings From The 1970s & 80s

Used drive : MATSHITA BD-MLT UJ272 (revision 1.01)
Media type : Pressed CD

Ripper mode : XLD Secure Ripper
Disable audio cache : OK for the drive with a cache less than 1375KiB
Make use of C2 pointers : NO
Read offset correction : 103
Max retry count : 20
Gap status : Analyzed, Appended (except HTOA)

TOC of the extracted CD
Track | Start | Length | Start sector | End sector
––––––––––––––––––––––––––––-
1 | 00:00:00 | 04:58:13 | 0 | 22362
2 | 04:58:13 | 04:10:58 | 22363 | 41170
3 | 09:08:71 | 03:28:67 | 41171 | 56837
4 | 12:37:63 | 04:43:31 | 56838 | 78093
5 | 17:21:19 | 04:51:57 | 78094 | 99975
6 | 22:13:01 | 04:37:20 | 99976 | 120770
7 | 26:50:21 | 04:35:36 | 120771 | 141431
8 | 31:25:57 | 08:42:22 | 141432 | 180603
9 | 40:08:04 | 04:05:70 | 180604 | 199048
10 | 44:13:74 | 04:37:15 | 199049 | 219838
11 | 48:51:14 | 09:05:39 | 219839 | 260752
12 | 57:56:53 | 05:58:64 | 260753 | 287666
13 | 63:55:42 | 04:04:17 | 287667 | 305983
14 | 67:59:59 | 02:28:08 | 305984 | 317091
15 | 70:27:67 | 02:42:66 | 317092 | 329307
16 | 73:10:58 | 02:56:44 | 329308 | 342551
17 | 76:07:27 | 03:48:69 | 342552 | 359720

AccurateRip Summary (DiscID: 0033518e-028e30f7-f712bc11)
Track 01 : OK (v2, confidence 1/1)
Track 02 : OK (v2, confidence 1/1)
Track 03 : OK (v2, confidence 1/1)
Track 04 : OK (v2, confidence 1/1)
Track 05 : OK (v2, confidence 1/1)
Track 06 : OK (v2, confidence 1/1)
Track 07 : OK (v2, confidence 1/1)
Track 08 : OK (v2, confidence 1/1)
Track 09 : OK (v2, confidence 1/1)
Track 10 : OK (v2, confidence 1/1)
Track 11 : OK (v2, confidence 1/1)
Track 12 : OK (v2, confidence 1/1)
Track 13 : OK (v2, confidence 1/1)
Track 14 : OK (v2, confidence 1/1)
Track 15 : OK (v2, confidence 1/1)
Track 16 : OK (v2, confidence 1/1)
Track 17 : OK (v2, confidence 1/1)
->All tracks accurately ripped.

All Tracks
Album gain : -7.20 dB
Peak : 1.000000
Statistics
Read error : 0
Jitter error (maybe fixed) : 0
Retry sector count : 0
Damaged sector count : 0

Track 01
Filename : /Volumes/osec/XLDs/Compilations - Kenya Special - Vol.2 Selected East African Recordings From The 1970s & 80s (2016) [FLAC]/01 - The Lulus Band - I Can Feel It.flac
/Volumes/osec/XLDs/Compilations - Kenya Special - Vol.2 Selected East African Recordings From The 1970s & 80s (2016) [MP3 V0]/01 - The Lulus Band - I Can Feel It.mp3
/Volumes/osec/XLDs/Compilations - Kenya Special - Vol.2 Selected East African Recordings From The 1970s & 80s (2016) [MP3 320]/01 - The Lulus Band - I Can Feel It.mp3
Pre-gap length : 00:02:00

Track gain : -5.54 dB
Peak : 0.989838
CRC32 hash (test run) : 536674F3
CRC32 hash : 536674F3
CRC32 hash (skip zero) : A697F3B1
AccurateRip v1 signature : 416F66B1
AccurateRip v2 signature : C17441F1
->Accurately ripped (v2, confidence 1/1)
Statistics
Read error : 0
Jitter error (maybe fixed) : 0
Retry sector count : 0
Damaged sector count : 0

Track 02
Filename : /Volumes/osec/XLDs/Compilations - Kenya Special - Vol.2 Selected East African Recordings From The 1970s & 80s (2016) [FLAC]/02 - The Bahari Boys - Simba Yuna Nguruma.flac
/Volumes/osec/XLDs/Compilations - Kenya Special - Vol.2 Selected East African Recordings From The 1970s & 80s (2016) [MP3 V0]/02 - The Bahari Boys - Simba Yuna Nguruma.mp3
/Volumes/osec/XLDs/Compilations - Kenya Special - Vol.2 Selected East African Recordings From The 1970s & 80s (2016) [MP3 320]/02 - The Bahari Boys - Simba Yuna Nguruma.mp3
Pre-gap length : 00:02:00

Track gain : -3.92 dB
Peak : 0.992798
CRC32 hash (test run) : 987DD82A
CRC32 hash : 987DD82A
CRC32 hash (skip zero) : 6821952B
AccurateRip v1 signature : 983DF7ED
AccurateRip v2 signature : 360E7536
->Accurately ripped (v2, confidence 1/1)
Statistics
Read error : 0
Jitter error (maybe fixed) : 0
Retry sector count : 0
Damaged sector count : 0

Track 03
Filename : /Volumes/osec/XLDs/Compilations - Kenya Special - Vol.2 Selected East African Recordings From The 1970s & 80s (2016) [FLAC]/03 - Kamaru Celina Band - Mukurara Nake.flac
/Volumes/osec/XLDs/Compilations - Kenya Special - Vol.2 Selected East African Recordings From The 1970s & 80s (2016) [MP3 V0]/03 - Kamaru Celina Band - Mukurara Nake.mp3
/Volumes/osec/XLDs/Compilations - Kenya Special - Vol.2 Selected East African Recordings From The 1970s & 80s (2016) [MP3 320]/03 - Kamaru Celina Band - Mukurara Nake.mp3
Pre-gap length : 00:02:00

Track gain : -6.37 dB
Peak : 1.000000
CRC32 hash (test run) : DBD7CA5F
CRC32 hash : DBD7CA5F
CRC32 hash (skip zero) : 63DF9882
AccurateRip v1 signature : F490E95F
AccurateRip v2 signature : 3783F142
->Accurately ripped (v2, confidence 1/1)
Statistics
Read error : 0
Jitter error (maybe fixed) : 0
Retry sector count : 0
Damaged sector count : 0

Track 04
Filename : /Volumes/osec/XLDs/Compilations - Kenya Special - Vol.2 Selected East African Recordings From The 1970s & 80s (2016) [FLAC]/04 - Orchestre Conga Internationale - Nakupenda Sana.flac
/Volumes/osec/XLDs/Compilations - Kenya Special - Vol.2 Selected East African Recordings From The 1970s & 80s (2016) [MP3 V0]/04 - Orchestre Conga Internationale - Nakupenda Sana.mp3
/Volumes/osec/XLDs/Compilations - Kenya Special - Vol.2 Selected East African Recordings From The 1970s & 80s (2016) [MP3 320]/04 - Orchestre Conga Internationale - Nakupenda Sana.mp3
Pre-gap length : 00:02:00

Track gain : -7.22 dB
Peak : 0.999969
CRC32 hash (test run) : CEEF5025
CRC32 hash : CEEF5025
CRC32 hash (skip zero) : 5CE4C472
AccurateRip v1 signature : 3C151555
AccurateRip v2 signature : A82DF74C
->Accurately ripped (v2, confidence 1/1)
Statistics
Read error : 0
Jitter error (maybe fixed) : 0
Retry sector count : 0
Damaged sector count : 0

Track 05
Filename : /Volumes/osec/XLDs/Compilations - Kenya Special - Vol.2 Selected East African Recordings From The 1970s & 80s (2016) [FLAC]/05 - Rift Valley Brothers - Mucang'ang'o Ugiraga Mukindirio.flac
/Volumes/osec/XLDs/Compilations - Kenya Special - Vol.2 Selected East African Recordings From The 1970s & 80s (2016) [MP3 V0]/05 - Rift Valley Brothers - Mucang'ang'o Ugiraga Mukindirio.mp3
/Volumes/osec/XLDs/Compilations - Kenya Special - Vol.2 Selected East African Recordings From The 1970s & 80s (2016) [MP3 320]/05 - Rift Valley Brothers - Mucang'ang'o Ugiraga Mukindirio.mp3
Pre-gap length : 00:02:00

Track gain : -6.87 dB
Peak : 0.999268
CRC32 hash (test run) : F237BC04
CRC32 hash : F237BC04
CRC32 hash (skip zero) : 4A245C99
AccurateRip v1 signature : 44D0C4BB
AccurateRip v2 signature : 54DF9D3F
->Accurately ripped (v2, confidence 1/1)
Statistics
Read error : 0
Jitter error (maybe fixed) : 0
Retry sector count : 0
Damaged sector count : 0

Track 06
Filename : /Volumes/osec/XLDs/Compilations - Kenya Special - Vol.2 Selected East African Recordings From The 1970s & 80s (2016) [FLAC]/06 - L'Orchestre Central International - Jane Jaber.flac
/Volumes/osec/XLDs/Compilations - Kenya Special - Vol.2 Selected East African Recordings From The 1970s & 80s (2016) [MP3 V0]/06 - L'Orchestre Central International - Jane Jaber.mp3
/Volumes/osec/XLDs/Compilations - Kenya Special - Vol.2 Selected East African Recordings From The 1970s & 80s (2016) [MP3 320]/06 - L'Orchestre Central International - Jane Jaber.mp3
Pre-gap length : 00:02:00

Track gain : -10.92 dB
Peak : 0.999969
CRC32 hash (test run) : 808D3C97
CRC32 hash : 808D3C97
CRC32 hash (skip zero) : 0A59C1F5
AccurateRip v1 signature : E8D41BF0
AccurateRip v2 signature : B824BE1E
->Accurately ripped (v2, confidence 1/1)
Statistics
Read error : 0
Jitter error (maybe fixed) : 0
Retry sector count : 0
Damaged sector count : 0

Track 07
Filename : /Volumes/osec/XLDs/Compilations - Kenya Special - Vol.2 Selected East African Recordings From The 1970s & 80s (2016) [FLAC]/07 - The Lulus Band - Daina.flac
/Volumes/osec/XLDs/Compilations - Kenya Special - Vol.2 Selected East African Recordings From The 1970s & 80s (2016) [MP3 V0]/07 - The Lulus Band - Daina.mp3
/Volumes/osec/XLDs/Compilations - Kenya Special - Vol.2 Selected East African Recordings From The 1970s & 80s (2016) [MP3 320]/07 - The Lulus Band - Daina.mp3
Pre-gap length : 00:02:00

Track gain : -5.58 dB
Peak : 0.995087
CRC32 hash (test run) : 257355AD
CRC32 hash : 257355AD
CRC32 hash (skip zero) : 500FC82D
AccurateRip v1 signature : 6014902F
AccurateRip v2 signature : 6687C1E2
->Accurately ripped (v2, confidence 1/1)
Statistics
Read error : 0
Jitter error (maybe fixed) : 0
Retry sector count : 0
Damaged sector count : 0

Track 08
Filename : /Volumes/osec/XLDs/Compilations - Kenya Special - Vol.2 Selected East African Recordings From The 1970s & 80s (2016) [FLAC]/08 - Orchestre Mangelepa - Nseya.flac
/Volumes/osec/XLDs/Compilations - Kenya Special - Vol.2 Selected East African Recordings From The 1970s & 80s (2016) [MP3 V0]/08 - Orchestre Mangelepa - Nseya.mp3
/Volumes/osec/XLDs/Compilations - Kenya Special - Vol.2 Selected East African Recordings From The 1970s & 80s (2016) [MP3 320]/08 - Orchestre Mangelepa - Nseya.mp3
Pre-gap length : 00:02:00

Track gain : -7.22 dB
Peak : 1.000000
CRC32 hash (test run) : 3374DEDB
CRC32 hash : 3374DEDB
CRC32 hash (skip zero) : 72F94023
AccurateRip v1 signature : 58CF6C13
AccurateRip v2 signature : CA2A6E0F
->Accurately ripped (v2, confidence 1/1)
Statistics
Read error : 0
Jitter error (maybe fixed) : 0
Retry sector count : 0
Damaged sector count : 0

Track 09
Filename : /Volumes/osec/XLDs/Compilations - Kenya Special - Vol.2 Selected East African Recordings From The 1970s & 80s (2016) [FLAC]/09 - The Eagles Lupopo - Mrembo Pesa.flac
/Volumes/osec/XLDs/Compilations - Kenya Special - Vol.2 Selected East African Recordings From The 1970s & 80s (2016) [MP3 V0]/09 - The Eagles Lupopo - Mrembo Pesa.mp3
/Volumes/osec/XLDs/Compilations - Kenya Special - Vol.2 Selected East African Recordings From The 1970s & 80s (2016) [MP3 320]/09 - The Eagles Lupopo - Mrembo Pesa.mp3
Pre-gap length : 00:02:00

Track gain : -6.65 dB
Peak : 1.000000
CRC32 hash (test run) : B6FFB451
CRC32 hash : B6FFB451
CRC32 hash (skip zero) : 58D16C74
AccurateRip v1 signature : 474B3803
AccurateRip v2 signature : AFCC99DD
->Accurately ripped (v2, confidence 1/1)
Statistics
Read error : 0
Jitter error (maybe fixed) : 0
Retry sector count : 0
Damaged sector count : 0

Track 10
Filename : /Volumes/osec/XLDs/Compilations - Kenya Special - Vol.2 Selected East African Recordings From The 1970s & 80s (2016) [FLAC]/10 - Peter J. Tsotsi, T.A. Lupopo - Fanya Imani.flac
/Volumes/osec/XLDs/Compilations - Kenya Special - Vol.2 Selected East African Recordings From The 1970s & 80s (2016) [MP3 V0]/10 - Peter J. Tsotsi, T.A. Lupopo - Fanya Imani.mp3
/Volumes/osec/XLDs/Compilations - Kenya Special - Vol.2 Selected East African Recordings From The 1970s & 80s (2016) [MP3 320]/10 - Peter J. Tsotsi, T.A. Lupopo - Fanya Imani.mp3
Pre-gap length : 00:02:00

Track gain : -6.38 dB
Peak : 0.990967
CRC32 hash (test run) : AB16C6F0
CRC32 hash : AB16C6F0
CRC32 hash (skip zero) : 3CF44855
AccurateRip v1 signature : E4D49D3D
AccurateRip v2 signature : 1F37F2E4
->Accurately ripped (v2, confidence 1/1)
Statistics
Read error : 0
Jitter error (maybe fixed) : 0
Retry sector count : 0
Damaged sector count : 0

Track 11
Filename : /Volumes/osec/XLDs/Compilations - Kenya Special - Vol.2 Selected East African Recordings From The 1970s & 80s (2016) [FLAC]/11 - Orchestre Simba Wanyika - Nakupenda.flac
/Volumes/osec/XLDs/Compilations - Kenya Special - Vol.2 Selected East African Recordings From The 1970s & 80s (2016) [MP3 V0]/11 - Orchestre Simba Wanyika - Nakupenda.mp3
/Volumes/osec/XLDs/Compilations - Kenya Special - Vol.2 Selected East African Recordings From The 1970s & 80s (2016) [MP3 320]/11 - Orchestre Simba Wanyika - Nakupenda.mp3
Pre-gap length : 00:02:00

Track gain : -6.87 dB
Peak : 0.999969
CRC32 hash (test run) : 6D64EA31
CRC32 hash : 6D64EA31
CRC32 hash (skip zero) : 11CB878F
AccurateRip v1 signature : 5FE41B31
AccurateRip v2 signature : 345FE797
->Accurately ripped (v2, confidence 1/1)
Statistics
Read error : 0
Jitter error (maybe fixed) : 0
Retry sector count : 0
Damaged sector count : 0

Track 12
Filename : /Volumes/osec/XLDs/Compilations - Kenya Special - Vol.2 Selected East African Recordings From The 1970s & 80s (2016) [FLAC]/12 - Sammy Katana - Vilole (Maisha Ya Mjini).flac
/Volumes/osec/XLDs/Compilations - Kenya Special - Vol.2 Selected East African Recordings From The 1970s & 80s (2016) [MP3 V0]/12 - Sammy Katana - Vilole (Maisha Ya Mjini).mp3
/Volumes/osec/XLDs/Compilations - Kenya Special - Vol.2 Selected East African Recordings From The 1970s & 80s (2016) [MP3 320]/12 - Sammy Katana - Vilole (Maisha Ya Mjini).mp3
Pre-gap length : 00:02:00

Track gain : -6.86 dB
Peak : 1.000000
CRC32 hash (test run) : A0A4939C
CRC32 hash : A0A4939C
CRC32 hash (skip zero) : AC4F31C4
AccurateRip v1 signature : 07DA283D
AccurateRip v2 signature : 956A7724
->Accurately ripped (v2, confidence 1/1)
Statistics
Read error : 0
Jitter error (maybe fixed) : 0
Retry sector count : 0
Damaged sector count : 0

Track 13
Filename : /Volumes/osec/XLDs/Compilations - Kenya Special - Vol.2 Selected East African Recordings From The 1970s & 80s (2016) [FLAC]/13 - African Vibration - Hinde.flac
/Volumes/osec/XLDs/Compilations - Kenya Special - Vol.2 Selected East African Recordings From The 1970s & 80s (2016) [MP3 V0]/13 - African Vibration - Hinde.mp3
/Volumes/osec/XLDs/Compilations - Kenya Special - Vol.2 Selected East African Recordings From The 1970s & 80s (2016) [MP3 320]/13 - African Vibration - Hinde.mp3
Pre-gap length : 00:02:00

Track gain : -5.30 dB
Peak : 1.000000
CRC32 hash (test run) : CE18D765
CRC32 hash : CE18D765
CRC32 hash (skip zero) : 21A6E4BE
AccurateRip v1 signature : 85C32FE9
AccurateRip v2 signature : 7EB0E4D4
->Accurately ripped (v2, confidence 1/1)
Statistics
Read error : 0
Jitter error (maybe fixed) : 0
Retry sector count : 0
Damaged sector count : 0

Track 14
Filename : /Volumes/osec/XLDs/Compilations - Kenya Special - Vol.2 Selected East African Recordings From The 1970s & 80s (2016) [FLAC]/14 - Afro 70 - Libondela.flac
/Volumes/osec/XLDs/Compilations - Kenya Special - Vol.2 Selected East African Recordings From The 1970s & 80s (2016) [MP3 V0]/14 - Afro 70 - Libondela.mp3
/Volumes/osec/XLDs/Compilations - Kenya Special - Vol.2 Selected East African Recordings From The 1970s & 80s (2016) [MP3 320]/14 - Afro 70 - Libondela.mp3
Pre-gap length : 00:02:00

Track gain : -10.56 dB
Peak : 1.000000
CRC32 hash (test run) : 8CA74F70
CRC32 hash : 8CA74F70
CRC32 hash (skip zero) : 02E412AD
AccurateRip v1 signature : 9A6EA2B1
AccurateRip v2 signature : FF661AC7
->Accurately ripped (v2, confidence 1/1)
Statistics
Read error : 0
Jitter error (maybe fixed) : 0
Retry sector count : 0
Damaged sector count : 0

Track 15
Filename : /Volumes/osec/XLDs/Compilations - Kenya Special - Vol.2 Selected East African Recordings From The 1970s & 80s (2016) [FLAC]/15 - Mac & Party - Harambe.flac
/Volumes/osec/XLDs/Compilations - Kenya Special - Vol.2 Selected East African Recordings From The 1970s & 80s (2016) [MP3 V0]/15 - Mac & Party - Harambe.mp3
/Volumes/osec/XLDs/Compilations - Kenya Special - Vol.2 Selected East African Recordings From The 1970s & 80s (2016) [MP3 320]/15 - Mac & Party - Harambe.mp3
Pre-gap length : 00:02:00

Track gain : -6.15 dB
Peak : 0.990875
CRC32 hash (test run) : 502FCE13
CRC32 hash : 502FCE13
CRC32 hash (skip zero) : FA9F7D7D
AccurateRip v1 signature : FDA874DA
AccurateRip v2 signature : 3B4A2532
->Accurately ripped (v2, confidence 1/1)
Statistics
Read error : 0
Jitter error (maybe fixed) : 0
Retry sector count : 0
Damaged sector count : 0

Track 16
Filename : /Volumes/osec/XLDs/Compilations - Kenya Special - Vol.2 Selected East African Recordings From The 1970s & 80s (2016) [FLAC]/16 - Kilwa Jazz - Shirikisho.flac
/Volumes/osec/XLDs/Compilations - Kenya Special - Vol.2 Selected East African Recordings From The 1970s & 80s (2016) [MP3 V0]/16 - Kilwa Jazz - Shirikisho.mp3
/Volumes/osec/XLDs/Compilations - Kenya Special - Vol.2 Selected East African Recordings From The 1970s & 80s (2016) [MP3 320]/16 - Kilwa Jazz - Shirikisho.mp3
Pre-gap length : 00:02:00

Track gain : -7.26 dB
Peak : 0.996399
CRC32 hash (test run) : 1FB90DA7
CRC32 hash : 1FB90DA7
CRC32 hash (skip zero) : 91C2BED7
AccurateRip v1 signature : 959C9607
AccurateRip v2 signature : ED7FEEAD
->Accurately ripped (v2, confidence 1/1)
Statistics
Read error : 0
Jitter error (maybe fixed) : 0
Retry sector count : 0
Damaged sector count : 0

Track 17
Filename : /Volumes/osec/XLDs/Compilations - Kenya Special - Vol.2 Selected East African Recordings From The 1970s & 80s (2016) [FLAC]/17 - Awengele - Awengele.flac
/Volumes/osec/XLDs/Compilations - Kenya Special - Vol.2 Selected East African Recordings From The 1970s & 80s (2016) [MP3 V0]/17 - Awengele - Awengele.mp3
/Volumes/osec/XLDs/Compilations - Kenya Special - Vol.2 Selected East African Recordings From The 1970s & 80s (2016) [MP3 320]/17 - Awengele - Awengele.mp3
Pre-gap length : 00:02:00

Track gain : -5.88 dB
Peak : 1.000000
CRC32 hash (test run) : C5BA8F57
CRC32 hash : C5BA8F57
CRC32 hash (skip zero) : 008B2BED
AccurateRip v1 signature : 0A5AFD8A
AccurateRip v2 signature : 43D85312
->Accurately ripped (v2, confidence 1/1)
Statistics
Read error : 0
Jitter error (maybe fixed) : 0
Retry sector count : 0
Damaged sector count : 0

No errors occurred

End of status report

––-BEGIN XLD SIGNATURE––-
YbG6ZJqc5_MigB4d3k8EmY6neY4ztzjImWg1KmhWMAglbQm2B0jt0aFIyXpCEdBjX3VQqwcMSAz3TAiXgploevHG3tZxkcHAkM0jn8O
––-END XLD SIGNATURE––-

Thanks to the Original ripper ravana !