Subcategories

V.A. - Jazz For Lovers (1996)

Posted By: Speedyclick
V.A. - Jazz For Lovers (1996)

V.A. - Jazz For Lovers (1996)
EAC Rip | FLAC (image & cue & log) | tracks: 17 | ~ 350 Mb | 1:11:12 | Scans
Label: BMG | 5% recovery record | Genre: Jazz

A special compilation with 17 jazz pieces, from the greatest artists in their original version. Dizzy Gillespie, Duke Ellington, Sideny Bechet, Django Reinhardt, all are here. Enjoy

TRACKLIST
01. Duke Ellington and his Orchestra - Didn't Know About You
02. Dizzy Gillespie - She's Funny That Way
03. Don Byas with Nartial Solar - Lover Man
04. Sonny Rollins feat. Herbie Hancock - My One and Only Love
05. Django Reinhardt & Stephane Grappelli - All the Things You Are
06. Sidney Bechet - Petite Fleur
07. Gerry Mulligan Quartet - The Nearness of You
08. Coleman Hawkins - Body and Soul
09. Lucky Thompson with Gerard Pochonet All Stars - You Go to My Head
10. Zoot Sims Quartet - I Understand
11. Paul Desmond - My Funny Valentine
12. Phineas Newborn & Dennis Farnon and his Orchestra - While My Lady Sleeps
13. James Moody with Strings - Les Feuilles Mortes
14. Phil Woods - Superwoman (Where Were You When I Needed You)
15. Rex Stewart & Dickie Wells - Let's Do It
16. Frank Foster Quartet - The Things We Did Last sumer
17. Christopher Hollyday - Everytime We Say Goodbye

Exact Audio Copy V0.99 prebeta 5 from 4. May 2009

EAC extraction logfile from 10. March 2011, 14:10

Various Artists / Jazz Cafe For Lovers

Used drive : HL-DT-STDVDRAM GH10N Adapter: 1 ID: 0

Read mode : Secure
Utilize accurate stream : Yes
Defeat audio cache : Yes
Make use of C2 pointers : No

Read offset correction : 667
Overread into Lead-In and Lead-Out : No
Fill up missing offset samples with silence : Yes
Delete leading and trailing silent blocks : No
Null samples used in CRC calculations : Yes
Used interface : Native Win32 interface for Win NT & 2000

Used output format : User Defined Encoder
Selected bitrate : 896 kBit/s
Quality : High
Add ID3 tag : No
Command line compressor : C:\Program Files\FLAC\flac.exe
Additional command line options : -V -5 -T "artist=%a" -T "title=%t" -T "album=%g" -T "date=%y" -T "tracknumber=%n" -T "genre=%m" -5 %s


TOC of the extracted CD

Track | Start | Length | Start sector | End sector
––––––––––––––––––––––––––––-
1 | 0:00.33 | 2:46.67 | 33 | 12549
2 | 2:47.25 | 3:41.25 | 12550 | 29149
3 | 6:28.50 | 3:56.48 | 29150 | 46897
4 | 10:25.23 | 6:01.47 | 46898 | 74019
5 | 16:26.70 | 2:53.55 | 74020 | 87049
6 | 19:20.50 | 3:19.18 | 87050 | 101992
7 | 22:39.68 | 4:38.35 | 101993 | 122877
8 | 27:18.28 | 3:02.15 | 122878 | 136542
9 | 30:20.43 | 4:53.72 | 136543 | 158589
10 | 35:14.40 | 3:35.38 | 158590 | 174752
11 | 38:50.03 | 3:50.40 | 174753 | 192042
12 | 42:40.43 | 6:12.02 | 192043 | 219944
13 | 48:52.45 | 3:28.25 | 219945 | 235569
14 | 52:20.70 | 5:51.55 | 235570 | 261949
15 | 58:12.50 | 2:52.73 | 261950 | 274922
16 | 61:05.48 | 4:02.65 | 274923 | 293137
17 | 65:08.38 | 6:04.20 | 293138 | 320457


Range status and errors

Selected range

Filename S:\EAC Rips\For Lovers\Various Artists - Jazz Cafe For Lovers.wav

Peak level 97.9 %
Range quality 100.0 %
Test CRC 8398B595
Copy CRC 8398B595
Copy OK

No errors occurred


AccurateRip summary

Track 1 cannot be verified as accurate (confidence 4) [6C1A4AC7], AccurateRip returned [A3216567]
Track 2 cannot be verified as accurate (confidence 4) [6919FC0F], AccurateRip returned [97CE7CCF]
Track 3 cannot be verified as accurate (confidence 4) [38609388], AccurateRip returned [1A9DCB68]
Track 4 cannot be verified as accurate (confidence 4) [A689634B], AccurateRip returned [454303BB]
Track 5 cannot be verified as accurate (confidence 4) [E43B0142], AccurateRip returned [66A821F2]
Track 6 cannot be verified as accurate (confidence 4) [C4AEE7D0], AccurateRip returned [6C5BA950]
Track 7 cannot be verified as accurate (confidence 4) [D1C037E8], AccurateRip returned [B5C87FF8]
Track 8 cannot be verified as accurate (confidence 4) [C2BC96B8], AccurateRip returned [53F0B3C8]
Track 9 cannot be verified as accurate (confidence 4) [CC195F41], AccurateRip returned [526A75A1]
Track 10 cannot be verified as accurate (confidence 4) [DC19E0C4], AccurateRip returned [1EE5F004]
Track 11 cannot be verified as accurate (confidence 4) [75DA15AE], AccurateRip returned [90A09CFE]
Track 12 cannot be verified as accurate (confidence 4) [3CA05CD5], AccurateRip returned [53C49335]
Track 13 cannot be verified as accurate (confidence 4) [C89EF671], AccurateRip returned [E23AFEA1]
Track 14 cannot be verified as accurate (confidence 4) [C7F39110], AccurateRip returned [6A37E430]
Track 15 cannot be verified as accurate (confidence 4) [5188CF7E], AccurateRip returned [AC5794BE]
Track 16 cannot be verified as accurate (confidence 3) [4AC09AEC], AccurateRip returned [E7EA355C]
Track 17 cannot be verified as accurate (confidence 3) [66E80736], AccurateRip returned [150FDE56]

No tracks could be verified as accurate
You may have a different pressing from the one(s) in the database

End of status report