Subcategories

Various Artists - Let Me Tell You About The Blues - Atlanta: The Evolution Of Atlanta Blues (2010) {3 CD Box Set}

Posted By: ruskaval
Various Artists - Let Me Tell You About The Blues - Atlanta: The Evolution Of Atlanta Blues (2010) {3 CD Box Set}

Various Artists - Let Me Tell You About The Blues - Atlanta: The Evolution Of Atlanta Blues (2010) {3 CD Box Set}
EAC rip (secure mode) | FLAC (tracks)+CUE+LOG -> 562 Mb | MP3 @320 -> 453 Mb
Full Artwork @ 300 dpi (png) -> 146 Mb | 5% repair rar
© 2010 Fantastic Voyage / Future Noise Music Ltd. | FVTD055
Blues / Regional Blues

Like Memphis, Tennessee, Atlanta was a staging post for itinerant musicians and like Memphis, it was home to an impressive number of guitarists who established a very distinctive style of playing that became synonymous with the city. It was also the location for the first country blues artist, Ed Andrews, to be recorded. Three years later, Julius Daniels was the first Carolina bluesman to record. Atlanta was also a recording centre for out-of-state artists such as Blind Lemon Jefferson, Bo Carter, the Memphis Jug Band, Blind Willie Johnson and Hambone Willie Newbern. A further school of blues gathered around Peg Leg Howell and Eddie Anthony.
Various Artists - Let Me Tell You About The Blues - Atlanta: The Evolution Of Atlanta Blues (2010) {3 CD Box Set}

The source of Atlanta’s principal blues style was Curley Weaver’s mother, Savannah Shepard, who also taught the Hicks brothers, Charlie and Robert, known on record as Charlie Lincoln and Barbecue Bob. Her influence is also heard in the music of Willie Baker and George Carter. She didn’t teach Blind Willie McTell but he was probably the inspiration for Riley Puckett’s ‘A Darkey’s Wail’. Weaver and McTell recorded together as the Georgia Cotton Pickers, while Weaver also worked with Fred McMullen and Buddy Moss as the Georgia Browns. Willie McTell also accompanied Weaver and artists such as Harris & Harris and Mary Willis. The wealth of musical talent recorded in Atlanta, included Sloppy Henry, Too Tight Henry, Billy Bird, Lonnie Coleman, Barefoot Bill, Lil McClintock, King David’s Jug Band and the Birmingham Jug Band.

World War II put paid to recording in Atlanta until the end of the 1940s, when record companies returned to the city. McTell and Weaver were still around and other country blues artists like Frank Edwards, David Wylie and Pinetop Slim made their mark. But their music was in decline as rhythm and blues rose in importance. Atlanta’s stars included Billy Wright, Piano Red and Blow Top Lynn, sometimes backed by bands led by tenor-man Fred Jackson. Others included Tommy Brown, Melvin Smith, Zilla Mays, Willie Brown and Joyce Jackson. Most popular of all were Chuck Willis and Little Richard, each went on to greater fame after making impressive recording debuts. They merely underlined once again what a valuable breeding ground for talent Atlanta had continued to be.
Various Artists - Let Me Tell You About The Blues - Atlanta: The Evolution Of Atlanta Blues (2010) {3 CD Box Set}


Personnel & Tracklist:

Disc 1


01. Ed Andrews / Time Ain't Gonna Make Me Stay - 02:51
02. Julius Daniels / My Mama Was A Sailor - 03:29
03. Blind Lemon Jefferson / Match Box Blues - 02:57
04. Barbecue Bob / Barbecue Blues - 03:15
05. Earl McDonald's Original Louisville Jug Band / Under The Chicken Tree - 03:21
06. Riley Puckett / A Darkey's Wail - 02:57
07. Blind Willie McTell / Mama 'Tain't Long Fo' Day - 03:03
08. Emery Glen / Back Door Blues - 03:04
09. Memphis Jug Band / Kansas City Blues - 02:58
10. Will Weldon / Turpentine Blues - 03:28
11. Vol Stevens / Vol Stevens Blues - 03:22
12. Charlie Lincoln / Jealous Hearted Blues - 03:39
13. Peg Leg Howell / Skin Game Blues - 03:09
14. Bobby Grant / Lonesome Atlanta Blues - 03:02
15. Pink Anderson and Simmie Dooley / C.C. And O. Blues - 03:10
16. Henry Williams and Eddie Anthony / Georgia Crawl - 03:27
17. Nellie Florence / Midnight Weeping Blues - 03:01
18. Uncle Bud Walker / Look Here Mama Blues - 02:59
19. Sloppy Henry / Canned Heat Blues - 02:59
20. Curley Weaver / No No Blues - 03:12
21. Too Tight Henry / Charleston Contest Pt. 1 - 03:29
22. Billy Bird / Down In The Cemetery - 03:16
23. Alec Johnson / Miss Meal Cramp Blues - 03:03
24. Willie Baker / Mama, Don't Rush Me Blues - 02:58
25. George Carter / Rising River Blues - 02:50

Playing time…1:18:59

Various Artists - Let Me Tell You About The Blues - Atlanta: The Evolution Of Atlanta Blues (2010) {3 CD Box Set}


Disc 2

01. Macon Ed and Tampa Joe / Worrying Blues - 03:14
02. Hambone Willie Newbern / Shelby County Workhouse Blues - 02:58
03. Lonnie Coleman / Old Rock Island Blues - 03:17
04. Peg Leg Howell and Jim Hill / Ball And Chain Blues - 03:05
05. Harris and Harris / This Is Not The Stove To Brown Your Bread - 02:35
06. Eli Framer / Framer's Blues - 03:10
07. Barbecue Bob / She Shook Her Gin - 03:14
08. Pillie Bolling / Brown Skin Woman - 03:25
09. Barefoot Bill / Snigglin' Blues - 02:41
10. Blind Willie Johnson / You're Gonna Need Somebody On Your Bond - 03:14
11. Jaybird Coleman / Coffee Grinder Blues - 03:08
12. Lil McClintock / Furniture Man - 03:19
13. Willie Walker / South Carolina Rag - 03:12
14. Georgia Cotton Pickers / I'm On My Way Down Home - 03:17
15. Lillie Mae / Buggy Jail House Blues - 02:45
16. Birmingham Jug Band / Giving It Away - 03:16
17. King David's Jug Band / What's That Tastes Like Gravy - 03:10
18. Bo Carter / What Kind Of Scent Is This - 03:29
19. Mississippi Sheiks / Bed Spring Poker - 03:14
20. Mary Willis and Blind Willie McTell / Talkin' To You Wimmen About The Blues - 03:07
21. Fred McMullen / DeKalb Chain Gang - 03:08
22. Georgia Browns / Decatur Street 81 - 02:48
23. Buddy Moss / Hard Times Blues - 03:19
24. Chasey Collins / Atlanta Town - 02:39
25. Blind Willie McTell / Dying Crapshooter's Blues - 03:11

Playing time…1:17:55

Various Artists - Let Me Tell You About The Blues - Atlanta: The Evolution Of Atlanta Blues (2010) {3 CD Box Set}


Disc 3

01. Pinetop Slim / Applejack Boogie - 02:43
02. Curley Weaver / Brown Skin Woman - 03:19
03. Blind Willie McTell / Love Changin' Blues - 02:32
04. Frank Edwards / Gotta Get Together - 02:14
05. David Wylie / You're Gonna Weep And Moan - 03:30
06. Fred Jackson / Duck Fever - 02:30
07. Billy Wright / Stacked Deck - 03:01
08. Blow Top Lynn / Reliefin' Blues - 02:28
09. Tommy Brown / V-8 Baby - 03:00
10. Chuck Willis / It Ain't Right To Treat Me Wrong - 02:52
11. Joyce Jackson / Body Rocking Daddy - 02:35
12. Waymon Brown / Barefoot Susie - 02:28
13. Roy Mays Orchestra / Royal Peacock Boogie - 02:56
14. Willie Brown / Korea Blues - 02:41
15. Little Richard / Get Rich Quick - 02:20
16. Piano Red / Hey Good Lookin' - 02:23
17. Junior Tamplin / Under The Viaduct (In Atlanta, GA) - 02:54
18. Little Richard / Thinkin' 'Bout My Mother - 02:57
19. Melvin Smith / Everybody's Got The Blues - 02:46
20. Zilla Mays and The Blues Caravan / Nite Shift Blues - 02:39
21. H-Bomb Ferguson / You Made Me Baby - 02:37
22. Billy Wright / Four Cold, Cold Walls - 02:51
23. Arthur 'Big Boy' Crudup / If You Ever Been To Georgia - 02:38
24. Papa Lightfoot / Mean Old Train - 02:16
25. Piano Red / Wrong Yo-Yo - 03:16

Playing time…1:08:24

Various Artists - Let Me Tell You About The Blues - Atlanta: The Evolution Of Atlanta Blues (2010) {3 CD Box Set}


Exact Audio Copy V1.0 beta 3 from 29. August 2011

EAC extraction logfile from 16. November 2012, 15:23

Various Artists / Let Me Tell You About the Blues, Atlanta [Disc 1 of 3]

Used drive : HL-DT-STDVDRAM GT51N Adapter: 0 ID: 1

Read mode : Secure
Utilize accurate stream : Yes
Defeat audio cache : Yes
Make use of C2 pointers : No

Read offset correction : 103
Overread into Lead-In and Lead-Out : No
Fill up missing offset samples with silence : Yes
Delete leading and trailing silent blocks : No
Null samples used in CRC calculations : Yes
Used interface : Native Win32 interface for Win NT & 2000
Gap handling : Appended to previous track

Used output format : User Defined Encoder
Selected bitrate : 32 kBit/s
Quality : High
Add ID3 tag : No
Command line compressor : C:\Exact Audio Copy\FLAC\FLAC.EXE
Additional command line options : -5 -V -T "ARTIST=%artist%" -T "TITLE=%title%" -T "ALBUM=%albumtitle%" -T "DATE=%year%" -T "TRACKNUMBER=%tracknr%" -T "TOTALTRACKS=%numtracks%" -T "GENRE=%genre%" -T "ALBUM ARTIST=%albumartist%" -T "ALBUMARTIST=%albumartist%" -T "COMMENT=Secure Mode, Test and Copy, AccurateRip, FLAC -5" %source%


TOC of the extracted CD

Track | Start | Length | Start sector | End sector
––––––––––––––––––––––––––––-
1 | 0:00.00 | 2:50.38 | 0 | 12787
2 | 2:50.38 | 3:28.53 | 12788 | 28440
3 | 6:19.16 | 2:57.12 | 28441 | 41727
4 | 9:16.28 | 3:15.18 | 41728 | 56370
5 | 12:31.46 | 3:21.24 | 56371 | 71469
6 | 15:52.70 | 2:57.35 | 71470 | 84779
7 | 18:50.30 | 3:03.27 | 84780 | 98531
8 | 21:53.57 | 3:03.72 | 98532 | 112328
9 | 24:57.54 | 2:58.07 | 112329 | 125685
10 | 27:55.61 | 3:28.04 | 125686 | 141289
11 | 31:23.65 | 3:22.18 | 141290 | 156457
12 | 34:46.08 | 3:39.25 | 156458 | 172907
13 | 38:25.33 | 3:08.74 | 172908 | 187081
14 | 41:34.32 | 3:02.37 | 187082 | 200768
15 | 44:36.69 | 3:09.53 | 200769 | 214996
16 | 47:46.47 | 3:26.47 | 214997 | 230493
17 | 51:13.19 | 3:01.00 | 230494 | 244068
18 | 54:14.19 | 2:58.60 | 244069 | 257478
19 | 57:13.04 | 2:59.07 | 257479 | 270910
20 | 60:12.11 | 3:11.74 | 270911 | 285309
21 | 63:24.10 | 3:28.73 | 285310 | 300982
22 | 66:53.08 | 3:15.68 | 300983 | 315675
23 | 70:09.01 | 3:03.05 | 315676 | 329405
24 | 73:12.06 | 2:57.58 | 329406 | 342738
25 | 76:09.64 | 2:49.45 | 342739 | 355458


Track 1

Filename C:\temp\01 - Ed Andrews - Time Ain't Gonna Make Me Stay.wav

Pre-gap length 0:00:02.00

Peak level 79.0 %
Extraction speed 2.8 X
Track quality 100.0 %
Test CRC 939E5314
Copy CRC 939E5314
Accurately ripped (confidence 1) [7514E9CC] (AR v2)
Copy OK

Track 2

Filename C:\temp\02 - Julius Daniels - My Mama Was A Sailor.wav

Peak level 90.2 %
Extraction speed 3.1 X
Track quality 100.0 %
Test CRC D649CE4F
Copy CRC D649CE4F
Accurately ripped (confidence 1) [09E1EE4E] (AR v2)
Copy OK

Track 3

Filename C:\temp\03 - Blind Lemon Jefferson - Match Box Blues.wav

Peak level 100.0 %
Extraction speed 3.2 X
Track quality 100.0 %
Test CRC C9D5C47F
Copy CRC C9D5C47F
Accurately ripped (confidence 1) [CA09856E] (AR v2)
Copy OK

Track 4

Filename C:\temp\04 - Barbecue Bob - Barbecue Blues.wav

Peak level 100.0 %
Extraction speed 3.4 X
Track quality 100.0 %
Test CRC 1A7A412F
Copy CRC 1A7A412F
Accurately ripped (confidence 1) [476FC04B] (AR v2)
Copy OK

Track 5

Filename C:\temp\05 - Earl McDonald's Original Louisville Jug Band - Under The Chicken Tree.wav

Peak level 81.1 %
Extraction speed 3.7 X
Track quality 100.0 %
Test CRC 0B1872BC
Copy CRC 0B1872BC
Accurately ripped (confidence 1) [B90B101B] (AR v2)
Copy OK

Track 6

Filename C:\temp\06 - Riley Puckett - A Darkey's Wail.wav

Peak level 83.0 %
Extraction speed 3.7 X
Track quality 100.0 %
Test CRC C345BABE
Copy CRC C345BABE
Accurately ripped (confidence 1) [2174A712] (AR v2)
Copy OK

Track 7

Filename C:\temp\07 - Blind Willie McTell - Mama 'Tain't Long Fo' Day.wav

Peak level 100.0 %
Extraction speed 3.9 X
Track quality 100.0 %
Test CRC BB736034
Copy CRC BB736034
Accurately ripped (confidence 1) [66312229] (AR v2)
Copy OK

Track 8

Filename C:\temp\08 - Emery Glen - Back Door Blues.wav

Peak level 96.3 %
Extraction speed 4.1 X
Track quality 100.0 %
Test CRC CD5843F2
Copy CRC CD5843F2
Accurately ripped (confidence 1) [89299AA3] (AR v2)
Copy OK

Track 9

Filename C:\temp\09 - Memphis Jug Band - Kansas City Blues.wav

Peak level 100.0 %
Extraction speed 4.2 X
Track quality 100.0 %
Test CRC 2626298F
Copy CRC 2626298F
Accurately ripped (confidence 1) [25D95A04] (AR v2)
Copy OK

Track 10

Filename C:\temp\10 - Will Weldon - Turpentine Blues.wav

Peak level 100.0 %
Extraction speed 4.4 X
Track quality 100.0 %
Test CRC 56E05EF2
Copy CRC 56E05EF2
Accurately ripped (confidence 1) [AD58D0DE] (AR v2)
Copy OK

Track 11

Filename C:\temp\11 - Vol Stevens - Vol Stevens Blues.wav

Peak level 100.0 %
Extraction speed 4.6 X
Track quality 100.0 %
Test CRC 8B0A2E32
Copy CRC 8B0A2E32
Accurately ripped (confidence 1) [204F0D5B] (AR v2)
Copy OK

Track 12

Filename C:\temp\12 - Charlie Lincoln - Jealous Hearted Blues.wav

Peak level 87.5 %
Extraction speed 4.7 X
Track quality 100.0 %
Test CRC CBC5225E
Copy CRC CBC5225E
Accurately ripped (confidence 1) [F73C49EF] (AR v2)
Copy OK

Track 13

Filename C:\temp\13 - Peg Leg Howell - Skin Game Blues.wav

Peak level 100.0 %
Extraction speed 4.8 X
Track quality 100.0 %
Test CRC D3C9AB48
Copy CRC D3C9AB48
Accurately ripped (confidence 1) [2A454EEA] (AR v2)
Copy OK

Track 14

Filename C:\temp\14 - Bobby Grant - Lonesome Atlanta Blues.wav

Peak level 100.0 %
Extraction speed 4.8 X
Track quality 100.0 %
Test CRC 6AAEB7A6
Copy CRC 6AAEB7A6
Accurately ripped (confidence 1) [8432A831] (AR v2)
Copy OK

Track 15

Filename C:\temp\15 - Pink Anderson and Simmie Dooley - C.C. And O. Blues.wav

Peak level 100.0 %
Extraction speed 5.0 X
Track quality 100.0 %
Test CRC 22046E70
Copy CRC 22046E70
Accurately ripped (confidence 1) [AEABC000] (AR v2)
Copy OK

Track 16

Filename C:\temp\16 - Henry Williams and Eddie Anthony - Georgia Crawl.wav

Peak level 100.0 %
Extraction speed 5.2 X
Track quality 100.0 %
Test CRC 8761FCEB
Copy CRC 8761FCEB
Accurately ripped (confidence 1) [77784C05] (AR v2)
Copy OK

Track 17

Filename C:\temp\17 - Nellie Florence - Midnight Weeping Blues.wav

Peak level 91.0 %
Extraction speed 5.2 X
Track quality 100.0 %
Test CRC F1E812BD
Copy CRC F1E812BD
Accurately ripped (confidence 1) [B0FEC4BD] (AR v2)
Copy OK

Track 18

Filename C:\temp\18 - Uncle Bud Walker - Look Here Mama Blues.wav

Peak level 79.5 %
Extraction speed 5.1 X
Track quality 100.0 %
Test CRC 39955A09
Copy CRC 39955A09
Accurately ripped (confidence 1) [124D21A2] (AR v2)
Copy OK

Track 19

Filename C:\temp\19 - Sloppy Henry - Canned Heat Blues.wav

Peak level 100.0 %
Extraction speed 5.5 X
Track quality 100.0 %
Test CRC AAE53AD3
Copy CRC AAE53AD3
Accurately ripped (confidence 1) [A94123D1] (AR v2)
Copy OK

Track 20

Filename C:\temp\20 - Curley Weaver - No No Blues.wav

Peak level 99.3 %
Extraction speed 5.7 X
Track quality 100.0 %
Test CRC 11C71284
Copy CRC 11C71284
Accurately ripped (confidence 1) [2C1FA070] (AR v2)
Copy OK

Track 21

Filename C:\temp\21 - Too Tight Henry - Charleston Contest Pt. 1.wav

Peak level 89.3 %
Extraction speed 5.8 X
Track quality 100.0 %
Test CRC B1CC407E
Copy CRC B1CC407E
Accurately ripped (confidence 1) [AA26434F] (AR v2)
Copy OK

Track 22

Filename C:\temp\22 - Billy Bird - Down In The Cemetery.wav

Peak level 97.3 %
Extraction speed 5.8 X
Track quality 100.0 %
Test CRC 4EB1E446
Copy CRC 4EB1E446
Accurately ripped (confidence 1) [8B77CD5A] (AR v2)
Copy OK

Track 23

Filename C:\temp\23 - Alec Johnson - Miss Meal Cramp Blues.wav

Peak level 100.0 %
Extraction speed 5.9 X
Track quality 100.0 %
Test CRC 93489268
Copy CRC 93489268
Accurately ripped (confidence 1) [713C3737] (AR v2)
Copy OK

Track 24

Filename C:\temp\24 - Willie Baker - Mama, Don't Rush Me Blues.wav

Peak level 100.0 %
Extraction speed 6.0 X
Track quality 100.0 %
Test CRC AC1F0EBC
Copy CRC AC1F0EBC
Accurately ripped (confidence 1) [63BB68C2] (AR v2)
Copy OK

Track 25

Filename C:\temp\25 - George Carter - Rising River Blues.wav

Peak level 94.1 %
Extraction speed 5.9 X
Track quality 100.0 %
Test CRC B7557A29
Copy CRC B7557A29
Accurately ripped (confidence 1) [B7ABDF5A] (AR v2)
Copy OK


All tracks accurately ripped

No errors occurred

End of status report

==== Log checksum 02B99ACD13DBE98F586C33BE0FAA7E9F02FEE44C20CB4F0F0C0ED0E4E4E12441 ====
Exact Audio Copy V1.0 beta 3 from 29. August 2011

EAC extraction logfile from 16. November 2012, 16:23

Various Artists / Let Me Tell You About the Blues, Atlanta [Disc 2 of 3]

Used drive : HL-DT-STDVDRAM GT51N Adapter: 0 ID: 1

Read mode : Secure
Utilize accurate stream : Yes
Defeat audio cache : Yes
Make use of C2 pointers : No

Read offset correction : 103
Overread into Lead-In and Lead-Out : No
Fill up missing offset samples with silence : Yes
Delete leading and trailing silent blocks : No
Null samples used in CRC calculations : Yes
Used interface : Native Win32 interface for Win NT & 2000
Gap handling : Appended to previous track

Used output format : User Defined Encoder
Selected bitrate : 32 kBit/s
Quality : High
Add ID3 tag : No
Command line compressor : C:\Exact Audio Copy\FLAC\FLAC.EXE
Additional command line options : -5 -V -T "ARTIST=%artist%" -T "TITLE=%title%" -T "ALBUM=%albumtitle%" -T "DATE=%year%" -T "TRACKNUMBER=%tracknr%" -T "TOTALTRACKS=%numtracks%" -T "GENRE=%genre%" -T "ALBUM ARTIST=%albumartist%" -T "ALBUMARTIST=%albumartist%" -T "COMMENT=Secure Mode, Test and Copy, AccurateRip, FLAC -5" %source%


TOC of the extracted CD

Track | Start | Length | Start sector | End sector
––––––––––––––––––––––––––––-
1 | 0:00.00 | 3:13.68 | 0 | 14542
2 | 3:13.68 | 2:57.56 | 14543 | 27873
3 | 6:11.49 | 3:17.23 | 27874 | 42671
4 | 9:28.72 | 3:05.10 | 42672 | 56556
5 | 12:34.07 | 2:34.57 | 56557 | 68163
6 | 15:08.64 | 3:09.68 | 68164 | 82406
7 | 18:18.57 | 3:13.58 | 82407 | 96939
8 | 21:32.40 | 3:24.57 | 96940 | 112296
9 | 24:57.22 | 2:41.16 | 112297 | 124387
10 | 27:38.38 | 3:14.19 | 124388 | 138956
11 | 30:52.57 | 3:08.05 | 138957 | 153061
12 | 34:00.62 | 3:19.08 | 153062 | 167994
13 | 37:19.70 | 3:12.21 | 167995 | 182415
14 | 40:32.16 | 3:16.65 | 182416 | 197180
15 | 43:49.06 | 2:44.49 | 197181 | 209529
16 | 46:33.55 | 3:15.43 | 209530 | 224197
17 | 49:49.23 | 3:10.20 | 224198 | 238467
18 | 52:59.43 | 3:29.06 | 238468 | 254148
19 | 56:28.49 | 3:14.10 | 254149 | 268708
20 | 59:42.59 | 3:06.45 | 268709 | 282703
21 | 62:49.29 | 3:08.27 | 282704 | 296830
22 | 65:57.56 | 2:48.35 | 296831 | 309465
23 | 68:46.16 | 3:18.67 | 309466 | 324382
24 | 72:05.08 | 2:39.13 | 324383 | 336320
25 | 74:44.21 | 3:11.20 | 336321 | 350665


Track 1

Filename C:\temp\01 - Macon Ed and Tampa Joe - Worrying Blues.wav

Pre-gap length 0:00:02.00

Peak level 100.0 %
Extraction speed 2.8 X
Track quality 100.0 %
Test CRC BD4A8C5A
Copy CRC BD4A8C5A
Accurately ripped (confidence 1) [49E19693] (AR v2)
Copy OK

Track 2

Filename C:\temp\02 - Hambone Willie Newbern - Shelby County Workhouse Blues.wav

Peak level 73.6 %
Extraction speed 3.1 X
Track quality 100.0 %
Test CRC D8B79A0C
Copy CRC D8B79A0C
Accurately ripped (confidence 1) [692F96F4] (AR v2)
Copy OK

Track 3

Filename C:\temp\03 - Lonnie Coleman - Old Rock Island Blues.wav

Peak level 96.3 %
Extraction speed 3.3 X
Track quality 100.0 %
Test CRC 742D701A
Copy CRC 742D701A
Accurately ripped (confidence 1) [0D75DC05] (AR v2)
Copy OK

Track 4

Filename C:\temp\04 - Peg Leg Howell and Jim Hill - Ball And Chain Blues.wav

Peak level 83.0 %
Extraction speed 3.4 X
Track quality 100.0 %
Test CRC 9C5AD262
Copy CRC 9C5AD262
Accurately ripped (confidence 1) [E1FAB772] (AR v2)
Copy OK

Track 5

Filename C:\temp\05 - Harris and Harris - This Is Not The Stove To Brown Your Bread.wav

Peak level 100.0 %
Extraction speed 3.5 X
Track quality 100.0 %
Test CRC 67F1FD5C
Copy CRC 67F1FD5C
Accurately ripped (confidence 1) [A9387377] (AR v2)
Copy OK

Track 6

Filename C:\temp\06 - Eli Framer - Framer's Blues.wav

Peak level 88.3 %
Extraction speed 2.9 X
Track quality 99.9 %
Test CRC 7C0FB20F
Copy CRC 7C0FB20F
Accurately ripped (confidence 1) [C0970614] (AR v2)
Copy OK

Track 7

Filename C:\temp\07 - Barbecue Bob - She Shook Her Gin.wav

Peak level 100.0 %
Extraction speed 3.9 X
Track quality 100.0 %
Test CRC 9FA10D99
Copy CRC 9FA10D99
Accurately ripped (confidence 1) [576BDCF8] (AR v2)
Copy OK

Track 8

Filename C:\temp\08 - Pillie Bolling - Brown Skin Woman.wav

Peak level 100.0 %
Extraction speed 4.1 X
Track quality 100.0 %
Test CRC 44E9D569
Copy CRC 44E9D569
Accurately ripped (confidence 1) [D026278B] (AR v2)
Copy OK

Track 9

Filename C:\temp\09 - Barefoot Bill - Snigglin' Blues.wav

Peak level 100.0 %
Extraction speed 4.0 X
Track quality 100.0 %
Test CRC 805C21D6
Copy CRC 805C21D6
Accurately ripped (confidence 1) [582B51A7] (AR v2)
Copy OK

Track 10

Filename C:\temp\10 - Blind Willie Johnson - You're Gonna Need Somebody On Your Bond.wav

Peak level 100.0 %
Extraction speed 4.4 X
Track quality 100.0 %
Test CRC C7CA12CA
Copy CRC C7CA12CA
Accurately ripped (confidence 1) [9B82499C] (AR v2)
Copy OK

Track 11

Filename C:\temp\11 - Jaybird Coleman - Coffee Grinder Blues.wav

Peak level 100.0 %
Extraction speed 4.5 X
Track quality 100.0 %
Test CRC B1BDA468
Copy CRC B1BDA468
Accurately ripped (confidence 1) [53203DB1] (AR v2)
Copy OK

Track 12

Filename C:\temp\12 - Lil McClintock - Furniture Man.wav

Peak level 76.8 %
Extraction speed 4.6 X
Track quality 100.0 %
Test CRC A718685F
Copy CRC A718685F
Accurately ripped (confidence 1) [FD7D2C76] (AR v2)
Copy OK

Track 13

Filename C:\temp\13 - Willie Walker - South Carolina Rag.wav

Peak level 75.4 %
Extraction speed 4.8 X
Track quality 100.0 %
Test CRC 9162AF13
Copy CRC 9162AF13
Accurately ripped (confidence 1) [E22659F1] (AR v2)
Copy OK

Track 14

Filename C:\temp\14 - Georgia Cotton Pickers - I'm On My Way Down Home.wav

Peak level 81.2 %
Extraction speed 3.8 X
Track quality 99.9 %
Test CRC F33EA758
Copy CRC F33EA758
Accurately ripped (confidence 1) [47394272] (AR v2)
Copy OK

Track 15

Filename C:\temp\15 - Lillie Mae - Buggy Jail House Blues.wav

Peak level 58.9 %
Extraction speed 3.6 X
Track quality 99.9 %
Test CRC 4DFBEF99
Copy CRC 4DFBEF99
Accurately ripped (confidence 1) [E04A9753] (AR v2)
Copy OK

Track 16

Filename C:\temp\16 - Birmingham Jug Band - Giving It Away.wav

Peak level 74.0 %
Extraction speed 5.1 X
Track quality 100.0 %
Test CRC 7C2D7907
Copy CRC 7C2D7907
Accurately ripped (confidence 1) [43A48665] (AR v2)
Copy OK

Track 17

Filename C:\temp\17 - King David's Jug Band - What's That Tastes Like Gravy.wav

Peak level 85.7 %
Extraction speed 5.2 X
Track quality 100.0 %
Test CRC 204B926D
Copy CRC 204B926D
Accurately ripped (confidence 1) [03165F50] (AR v2)
Copy OK

Track 18

Filename C:\temp\18 - Bo Carter - What Kind Of Scent Is This.wav

Peak level 86.8 %
Extraction speed 5.4 X
Track quality 100.0 %
Test CRC 4DE636B9
Copy CRC 4DE636B9
Accurately ripped (confidence 1) [AE4847A6] (AR v2)
Copy OK

Track 19

Filename C:\temp\19 - Mississippi Sheiks - Bed Spring Poker.wav

Peak level 85.4 %
Extraction speed 5.4 X
Track quality 100.0 %
Test CRC 89FE63BF
Copy CRC 89FE63BF
Accurately ripped (confidence 1) [13EDD28F] (AR v2)
Copy OK

Track 20

Filename C:\temp\20 - Mary Willis and Blind Willie McTell - Talkin' To You Wimmen About The Blues.wav

Peak level 99.2 %
Extraction speed 5.5 X
Track quality 100.0 %
Test CRC DAAC0D0B
Copy CRC DAAC0D0B
Accurately ripped (confidence 1) [94A6260A] (AR v2)
Copy OK

Track 21

Filename C:\temp\21 - Fred McMullen - DeKalb Chain Gang.wav

Peak level 88.0 %
Extraction speed 5.7 X
Track quality 100.0 %
Test CRC F1F0C522
Copy CRC F1F0C522
Accurately ripped (confidence 1) [CCBC6B78] (AR v2)
Copy OK

Track 22

Filename C:\temp\22 - Georgia Browns - Decatur Street 81.wav

Peak level 100.0 %
Extraction speed 5.7 X
Track quality 100.0 %
Test CRC CB830AF9
Copy CRC CB830AF9
Accurately ripped (confidence 1) [EA3A3B4D] (AR v2)
Copy OK

Track 23

Filename C:\temp\23 - Buddy Moss - Hard Times Blues.wav

Peak level 100.0 %
Extraction speed 4.5 X
Track quality 99.9 %
Test CRC ECB9C043
Copy CRC ECB9C043
Accurately ripped (confidence 1) [E7CB90B4] (AR v2)
Copy OK

Track 24

Filename C:\temp\24 - Chasey Collins - Atlanta Town.wav

Peak level 100.0 %
Extraction speed 5.8 X
Track quality 100.0 %
Test CRC ECDD350D
Copy CRC ECDD350D
Accurately ripped (confidence 1) [DFBE3A95] (AR v2)
Copy OK

Track 25

Filename C:\temp\25 - Blind Willie McTell - Dying Crapshooter's Blues.wav

Peak level 96.5 %
Extraction speed 4.7 X
Track quality 99.9 %
Test CRC F862ADD1
Copy CRC F862ADD1
Accurately ripped (confidence 1) [E66EA59A] (AR v2)
Copy OK


All tracks accurately ripped

No errors occurred

End of status report

==== Log checksum A72E2BC2B6B41A760E2DE60F7E89DDCB72C6599BB941A37D8A450A12B532EDD3 ====
Exact Audio Copy V1.0 beta 3 from 29. August 2011

EAC extraction logfile from 16. November 2012, 17:15

Various Artists / Let Me Tell You About the Blues, Atlanta [Disc 3 of 3]

Used drive : HL-DT-STDVDRAM GT51N Adapter: 0 ID: 1

Read mode : Secure
Utilize accurate stream : Yes
Defeat audio cache : Yes
Make use of C2 pointers : No

Read offset correction : 103
Overread into Lead-In and Lead-Out : No
Fill up missing offset samples with silence : Yes
Delete leading and trailing silent blocks : No
Null samples used in CRC calculations : Yes
Used interface : Native Win32 interface for Win NT & 2000
Gap handling : Appended to previous track

Used output format : User Defined Encoder
Selected bitrate : 32 kBit/s
Quality : High
Add ID3 tag : No
Command line compressor : C:\Exact Audio Copy\FLAC\FLAC.EXE
Additional command line options : -5 -V -T "ARTIST=%artist%" -T "TITLE=%title%" -T "ALBUM=%albumtitle%" -T "DATE=%year%" -T "TRACKNUMBER=%tracknr%" -T "TOTALTRACKS=%numtracks%" -T "GENRE=%genre%" -T "ALBUM ARTIST=%albumartist%" -T "ALBUMARTIST=%albumartist%" -T "COMMENT=Secure Mode, Test and Copy, AccurateRip, FLAC -5" %source%


TOC of the extracted CD

Track | Start | Length | Start sector | End sector
––––––––––––––––––––––––––––-
1 | 0:00.00 | 2:42.56 | 0 | 12205
2 | 2:42.56 | 3:19.10 | 12206 | 27140
3 | 6:01.66 | 2:32.13 | 27141 | 38553
4 | 8:34.04 | 2:13.57 | 38554 | 48585
5 | 10:47.61 | 3:30.26 | 48586 | 64361
6 | 14:18.12 | 2:30.07 | 64362 | 75618
7 | 16:48.19 | 3:00.56 | 75619 | 89174
8 | 19:49.00 | 2:27.53 | 89175 | 100252
9 | 22:16.53 | 2:59.62 | 100253 | 113739
10 | 25:16.40 | 2:52.15 | 113740 | 126654
11 | 28:08.55 | 2:34.71 | 126655 | 138275
12 | 30:43.51 | 2:28.34 | 138276 | 149409
13 | 33:12.10 | 2:55.44 | 149410 | 162578
14 | 36:07.54 | 2:40.67 | 162579 | 174645
15 | 38:48.46 | 2:20.17 | 174646 | 185162
16 | 41:08.63 | 2:23.02 | 185163 | 195889
17 | 43:31.65 | 2:53.38 | 195890 | 208902
18 | 46:25.28 | 2:56.51 | 208903 | 222153
19 | 49:22.04 | 2:46.33 | 222154 | 234636
20 | 52:08.37 | 2:38.55 | 234637 | 246541
21 | 54:47.17 | 2:37.36 | 246542 | 258352
22 | 57:24.53 | 2:50.58 | 258353 | 271160
23 | 60:15.36 | 2:37.46 | 271161 | 282981
24 | 62:53.07 | 2:16.05 | 282982 | 293186
25 | 65:09.12 | 3:15.42 | 293187 | 307853


Track 1

Filename C:\temp\01 - Pinetop Slim - Applejack Boogie.wav

Pre-gap length 0:00:02.00

Peak level 82.9 %
Extraction speed 2.6 X
Track quality 100.0 %
Test CRC 16ED4D11
Copy CRC 16ED4D11
Accurately ripped (confidence 1) [5B857B1B] (AR v2)
Copy OK

Track 2

Filename C:\temp\02 - Curley Weaver - Brown Skin Woman.wav

Peak level 85.7 %
Extraction speed 2.9 X
Track quality 100.0 %
Test CRC D4482D3B
Copy CRC D4482D3B
Accurately ripped (confidence 1) [467C8791] (AR v2)
Copy OK

Track 3

Filename C:\temp\03 - Blind Willie McTell - Love Changin' Blues.wav

Peak level 91.5 %
Extraction speed 3.0 X
Track quality 100.0 %
Test CRC 4FAF53B0
Copy CRC 4FAF53B0
Accurately ripped (confidence 1) [F17F23C0] (AR v2)
Copy OK

Track 4

Filename C:\temp\04 - Frank Edwards - Gotta Get Together.wav

Peak level 81.7 %
Extraction speed 2.2 X
Track quality 99.9 %
Test CRC 8C79FE01
Copy CRC 8C79FE01
Accurately ripped (confidence 1) [7F240494] (AR v2)
Copy OK

Track 5

Filename C:\temp\05 - David Wylie - You're Gonna Weep And Moan.wav

Peak level 63.7 %
Extraction speed 3.5 X
Track quality 100.0 %
Test CRC B366404A
Copy CRC B366404A
Accurately ripped (confidence 1) [A2A3CA9D] (AR v2)
Copy OK

Track 6

Filename C:\temp\06 - Fred Jackson - Duck Fever.wav

Peak level 84.1 %
Extraction speed 3.4 X
Track quality 100.0 %
Test CRC 5F4360A3
Copy CRC 5F4360A3
Accurately ripped (confidence 1) [F07764E0] (AR v2)
Copy OK

Track 7

Filename C:\temp\07 - Billy Wright - Stacked Deck.wav

Peak level 87.8 %
Extraction speed 3.7 X
Track quality 100.0 %
Test CRC 60C264DF
Copy CRC 60C264DF
Accurately ripped (confidence 1) [FEB137B8] (AR v2)
Copy OK

Track 8

Filename C:\temp\08 - Blow Top Lynn - Reliefin' Blues.wav

Peak level 63.5 %
Extraction speed 2.8 X
Track quality 99.9 %
Test CRC 2634597A
Copy CRC 2634597A
Accurately ripped (confidence 1) [F2C33E3D] (AR v2)
Copy OK

Track 9

Filename C:\temp\09 - Tommy Brown - V-8 Baby.wav

Peak level 79.2 %
Extraction speed 3.9 X
Track quality 100.0 %
Test CRC 59CF327A
Copy CRC 59CF327A
Accurately ripped (confidence 1) [72311440] (AR v2)
Copy OK

Track 10

Filename C:\temp\10 - Chuck Willis - It Ain't Right To Treat Me Wrong.wav

Peak level 74.7 %
Extraction speed 4.1 X
Track quality 100.0 %
Test CRC CF66EC66
Copy CRC CF66EC66
Accurately ripped (confidence 1) [36A50F15] (AR v2)
Copy OK

Track 11

Filename C:\temp\11 - Joyce Jackson - Body Rocking Daddy.wav

Peak level 97.3 %
Extraction speed 4.1 X
Track quality 100.0 %
Test CRC 4F914953
Copy CRC 4F914953
Accurately ripped (confidence 1) [E447CD0A] (AR v2)
Copy OK

Track 12

Filename C:\temp\12 - Waymon Brown - Barefoot Susie.wav

Peak level 77.5 %
Extraction speed 4.3 X
Track quality 100.0 %
Test CRC ADA8D4D9
Copy CRC ADA8D4D9
Accurately ripped (confidence 1) [3CFE1CD6] (AR v2)
Copy OK

Track 13

Filename C:\temp\13 - Roy Mays Orchestra - Royal Peacock Boogie.wav

Peak level 84.4 %
Extraction speed 3.3 X
Track quality 99.9 %
Test CRC 9D0D7D66
Copy CRC 9D0D7D66
Accurately ripped (confidence 1) [E65BB3FB] (AR v2)
Copy OK

Track 14

Filename C:\temp\14 - Willie Brown - Korea Blues.wav

Peak level 78.1 %
Extraction speed 4.3 X
Track quality 100.0 %
Test CRC C3511020
Copy CRC C3511020
Accurately ripped (confidence 1) [2F13A3AB] (AR v2)
Copy OK

Track 15

Filename C:\temp\15 - Little Richard - Get Rich Quick.wav

Peak level 87.0 %
Extraction speed 4.1 X
Track quality 100.0 %
Test CRC 557BDFDF
Copy CRC 557BDFDF
Accurately ripped (confidence 1) [D2F896AA] (AR v2)
Copy OK

Track 16

Filename C:\temp\16 - Piano Red - Hey Good Lookin'.wav

Peak level 86.3 %
Extraction speed 4.5 X
Track quality 100.0 %
Test CRC 7E6A7F9C
Copy CRC 7E6A7F9C
Accurately ripped (confidence 1) [B3AD65AB] (AR v2)
Copy OK

Track 17

Filename C:\temp\17 - Junior Tamplin - Under The Viaduct (In Atlanta, GA).wav

Peak level 94.8 %
Extraction speed 4.8 X
Track quality 100.0 %
Test CRC 9354EBB4
Copy CRC 9354EBB4
Accurately ripped (confidence 1) [9DA64FC2] (AR v2)
Copy OK

Track 18

Filename C:\temp\18 - Little Richard - Thinkin' 'Bout My Mother.wav

Peak level 61.8 %
Extraction speed 5.0 X
Track quality 100.0 %
Test CRC 1E5E83AB
Copy CRC 1E5E83AB
Accurately ripped (confidence 1) [92C81B27] (AR v2)
Copy OK

Track 19

Filename C:\temp\19 - Melvin Smith - Everybody's Got The Blues.wav

Peak level 71.5 %
Extraction speed 5.1 X
Track quality 100.0 %
Test CRC EFB46A99
Copy CRC EFB46A99
Accurately ripped (confidence 1) [BE38A64F] (AR v2)
Copy OK

Track 20

Filename C:\temp\20 - Zilla Mays and The Blues Caravan - Nite Shift Blues.wav

Peak level 94.8 %
Extraction speed 5.1 X
Track quality 100.0 %
Test CRC 6A19A851
Copy CRC 6A19A851
Accurately ripped (confidence 1) [12A4C2E0] (AR v2)
Copy OK

Track 21

Filename C:\temp\21 - H-Bomb Ferguson - You Made Me Baby.wav

Peak level 88.5 %
Extraction speed 5.3 X
Track quality 100.0 %
Test CRC AFCA704A
Copy CRC AFCA704A
Accurately ripped (confidence 1) [FF9E28A1] (AR v2)
Copy OK

Track 22

Filename C:\temp\22 - Billy Wright - Four Cold, Cold Walls.wav

Peak level 77.8 %
Extraction speed 5.4 X
Track quality 100.0 %
Test CRC 833B3B10
Copy CRC 833B3B10
Accurately ripped (confidence 1) [0FA1A97B] (AR v2)
Copy OK

Track 23

Filename C:\temp\23 - Arthur 'Big Boy' Crudup - If You Ever Been To Georgia.wav

Peak level 69.3 %
Extraction speed 5.3 X
Track quality 100.0 %
Test CRC 801598E6
Copy CRC 801598E6
Accurately ripped (confidence 1) [8586476A] (AR v2)
Copy OK

Track 24

Filename C:\temp\24 - Papa Lightfoot - Mean Old Train.wav

Peak level 80.7 %
Extraction speed 5.2 X
Track quality 100.0 %
Test CRC D688BF26
Copy CRC D688BF26
Accurately ripped (confidence 1) [E58DE6A0] (AR v2)
Copy OK

Track 25

Filename C:\temp\25 - Piano Red - Wrong Yo-Yo.wav

Peak level 78.5 %
Extraction speed 4.5 X
Track quality 99.9 %
Test CRC 076AFE3F
Copy CRC 076AFE3F
Accurately ripped (confidence 1) [B90D2EDB] (AR v2)
Copy OK


All tracks accurately ripped

No errors occurred

End of status report

==== Log checksum 6FDAE123DCECB6772F89723B1AA7971C20C7D3337BC67E00C15A3FD20A6DED92 ====


Various Artists - Let Me Tell You About The Blues - Atlanta: The Evolution Of Atlanta Blues (2010) {3 CD Box Set}


NEXT -> more Let Me Tell You About The Blues series on the way…

see more Let Me Tell You About The Blues Series…


===