Subcategories

Various Artists - Let Me Tell You About The Blues - Memphis: The Evolution Of Memphis Blues 1927-1958 (2009) {3 CD Box Set}

Posted By: ruskaval
Various Artists - Let Me Tell You About The Blues - Memphis: The Evolution Of Memphis Blues 1927-1958 (2009) {3 CD Box Set}

Various Artists - Let Me Tell You About The Blues - Memphis: The Evolution Of Memphis Blues 1927-1958 (2009) {3 CD Box Set}
EAC rip (secure mode) | FLAC (tracks)+CUE+LOG -> 687 Mb | MP3 @320 -> 467 Mb
Full Artwork @ 300 dpi (png) -> 153 Mb | 5% repair rar
© 1927-58, 2009 Fantastic Voyage / Future Noise Music Ltd. | FVTD022
Blues / Regional Blues

Memphis was the town blues musicians passed through on their way to Chicago. But some of them stayed and the record companies sent their mobile units to record them. Over a three-year period from 1927, an astonishing amount of talent was recorded: local stars like the Memphis Jug Band, Frank Stokes, Cannon’s Jug Stompers, Jim Jackson, Furry Lewis, Robert Wilkins, Bukka White, Memphis Minnie, Joe Callicott and Sleepy John Estes.
Various Artists - Let Me Tell You About The Blues - Memphis: The Evolution Of Memphis Blues 1927-1958 (2009) {3 CD Box Set}

It was also where musicians from neighbouring states came to try their luck. Men like Tommy Johnson, Ishman Bracey, Mississippi John Hurt, Lonnie Johnson, Lewis Black, Charlie McCoy, Kid Bailey and Blind Willie Reynolds. All of these musicians are featured on the first CD of this collection, caught at their best, cutting songs that became blues standards, like ‘Big Road Blues’, ‘Cannon Ball Blues’, ‘I’m Wild About My Lovin’’, ‘That’s No Way To Get Along’ (covered by the Rolling Stones as ‘Prodigal Son’), ‘The Girl I Love, She Got Long Curly Hair. In 1950 Sam Phillips set up his Memphis Recording Service and a couple of years later, Sun Records. He took it as his mission to record the wealth of black talent in Memphis that was being ignored.

He gave first recording opportunities to Howlin’ Wolf, Ike Turner, Rosco Gordon, Doctor Ross, Willie Nix, Honeyboy Edwards, Joe Hill Louis, Little Junior Parker, Little Milton, Rufus Thomas and Walter Horton. Once again, standards like ‘Moanin’ At Midnight’, ‘Rocket 88’, ‘Saddle My Pony’, ‘Bear Cat’ and B.B. King’s ‘Three O’Clock Blues’ were laid down in his studio at 708 Union Avenue. But all the time he was looking for a white singer who sounded like a bluesman and in 1954 he found him. Elvis Presley recorded ‘That’s All Right’, ‘Mystery Train’ and others, and history was made. That history is presented over the three CDs in this collection.
Various Artists - Let Me Tell You About The Blues - Memphis: The Evolution Of Memphis Blues 1927-1958 (2009) {3 CD Box Set}


Personnel & Tracklist:

Disc 1 of 3:


01. Memphis Jug Band / Sun Brimmer's Blues - 03:12
02. Banjo Joe (Gus Cannon) / Poor Boy, Long Ways From Home - 03:12
03. Lewis Black / Corn Liquor Blues - 02:58
04. Pearl Dickson / Little Rock Blues - 03:02
05. Cannon's Jug Stompers / Springdale Blues - 03:07
06. Frank Stokes / Downtown Blues - 03:14
07. Tommy Johnson / Big Road Blues - 03:12
08. Ishman Bracey / Saturday Blues - 03:30
09. Mississippi John Hurt / Frankie - 03:24
10. Lonnie Johnson / Away Down In The Alley Blues - 02:51
11. Tom Dickson / Death Bell Blues - 03:12
12. Jim Jackson / I'm Wild About My Lovin' - 03:14
13. Furry Lewis / Cannon Ball Blues - 03:06
14. Charlie McCoy / Last Time Blues - 03:05
15. Robert Wilkins / That's No Way To Get Along - 02:55
16. Garfield Akers / Cottonfield Blues - Part 1 - 02:52
17. Sleepy John Estes / The Girl I Love, She Got Long Curly Hair - 02:58
18. Kid Bailey / Rowdy Blues - 02:59
19. Noah Lewis / Chickasaw Special - 03:17
20. Joe Callicott / Fare Thee Well Blues - 03:11
21. Jim Thompkins / Bedside Blues - 03:06
22. Memphis Minnie / Bumble Bee - 03:18
23. Bukka White / The Panama Limited - 03:10
24. Blind Willie Reynolds / Married Man Blues - 03:17
25. Allen Shaw / Moanin' The Blues - 03:02

Playing time…1:18:23

Various Artists - Let Me Tell You About The Blues - Memphis: The Evolution Of Memphis Blues 1927-1958 (2009) {3 CD Box Set}


Disc 2 of 3:

01. Memphis Jug Band / Jazzbo Stomp - 02:59
02. Robert Wilkins / Old Jim Canaan's - 02:54
03. Minnie Wallace / The Cockeyed World - 02:59
04. Little Buddy Doyle / Hard Scufflin' Blues - 02:41
05. Charlie Burse and his Memphis Mudcats / Beale Street Holiday - 02:26
06. James de Barry and his Memphis Playboys / Single Man Blues - 02:33
07. Joe Hill Louis / Boogie In The Park - 02:47
08. Walter Horton / Little Boy Blue - 02:59
09. Ike Turner / I'm Lonsome Baby - 03:02
10. Jackie Brenston / Rocket 88 - 02:52
11. Howlin' Wolf / Moanin' At Midnight - 02:56
12. B.B. King / She's Dynamite - 02:32
13. Billy Love / Juiced - 02:33
14. B.B. King / Three O' Clock Blues - 03:03
15. Dr. Ross / Dr. Ross Boogie - 02:40
16. Rosco Gordon / Booted - 03:10
17. Sleepy John Estes / Rats In My Kitchen - 03:04
18. Howlin' Wolf / Saddle My Pony - 02:34
19. Rosco Gordon / T-Model Boogie - 02:38
20. Woodrow Adams / The Last Time - 02:55
21. Walter Horton / We All Gotta Go Sometime - 02:59
22. Willie Nix / Seems Like A Million Years - 02:50
23. Honeyboy Edwards / Sweet Home Chicago - 03:00
24. Jimmy and Walter / Easy - 03:00
25. Rufus Thomas / Bear Cat - 02:52

Playing time…1:10:57

Various Artists - Let Me Tell You About The Blues - Memphis: The Evolution Of Memphis Blues 1927-1958 (2009) {3 CD Box Set}


Disc 3 of 3:

01. Charlie Booker / Walked All Night - 02:46
02. D.A. Hunt / Greyhound Blues - 02:38
03. Little Junior Parker / Feelin' Good - 02:56
04. William Stewart / County Farm Blues - 01:57
05. Rufus Thomas / Tiger Man - 02:48
06. Boyd Gilmore / Believe I'll Settle Down - 03:08
07. Earl Hooker / Blue Guitar - 02:47
08. Pinetop Perkins / Pinetop's Boogie Woogie - 02:47
09. Little Milton / Beggin' My Baby - 02:27
10. Johnny O'Neal / Ugly Woman - 02:30
11. Joe Hill Louis / Hydramatic Woman - 02:32
12. Little Junior Parker / Mystery Train - 02:23
13. James Cotton / Straighten Up Baby - 02:20
14. Coy 'Hot Shot' Love / Wolf Call Boogie - 02:37
15. Kenneth Banks / But High - 02:35
16. Billy Love / Way After Midnight - 02:51
17. Little Milton / Lookin' For My Baby - 02:36
18. James Cotton / Cotton Crop Blues - 03:03
19. Elvis Presley / That's All Right - 01:58
20. Pat Hare / I'm Gonna Murder My Baby - 02:57
21. Elvis Presley / Mystery Train - 02:27
22. Billy 'The Kid' Emerson / When It Rains It Pours - 03:06
23. Doctor Ross / The Boogie Disease - 02:36
24. Sammy Lewis and Willie Johnson / Feel So Worried - 02:28
25. Rosco Gordon / Cheese And Crackers - 02:50

Playing time…1:06:01

Various Artists - Let Me Tell You About The Blues - Memphis: The Evolution Of Memphis Blues 1927-1958 (2009) {3 CD Box Set}


Exact Audio Copy V1.0 beta 3 from 29. August 2011

EAC extraction logfile from 2. November 2012, 19:28

Various Artists / Let Me Tell You About the Blues, Memphis 1927-1958 [Disc 1 of 3]

Used drive : Optiarc DVD RW AD-7240S Adapter: 0 ID: 4

Read mode : Secure
Utilize accurate stream : Yes
Defeat audio cache : Yes
Make use of C2 pointers : No

Read offset correction : 48
Overread into Lead-In and Lead-Out : No
Fill up missing offset samples with silence : Yes
Delete leading and trailing silent blocks : No
Null samples used in CRC calculations : Yes
Used interface : Native Win32 interface for Win NT & 2000
Gap handling : Appended to previous track

Used output format : User Defined Encoder
Selected bitrate : 32 kBit/s
Quality : High
Add ID3 tag : No
Command line compressor : C:\Exact Audio Copy 1.3\Flac\flac.exe
Additional command line options : -5 -V -T "ARTIST=%artist%" -T "TITLE=%title%" -T "ALBUM=%albumtitle%" -T "DATE=%year%" -T "TRACKNUMBER=%tracknr%" -T "TOTALTRACKS=%numtracks%" -T "GENRE=%genre%" -T "ALBUM ARTIST=%albumartist%" -T "ALBUMARTIST=%albumartist%" -T "COMMENT=Secure Mode, Test and Copy, AccurateRip, FLAC -5" %source%


TOC of the extracted CD

Track | Start | Length | Start sector | End sector
––––––––––––––––––––––––––––-
1 | 0:00.00 | 3:12.34 | 0 | 14433
2 | 3:12.34 | 3:11.43 | 14434 | 28801
3 | 6:24.02 | 2:58.03 | 28802 | 42154
4 | 9:22.05 | 3:01.47 | 42155 | 55776
5 | 12:23.52 | 3:07.24 | 55777 | 69825
6 | 15:31.01 | 3:14.26 | 69826 | 84401
7 | 18:45.27 | 3:12.32 | 84402 | 98833
8 | 21:57.59 | 3:29.54 | 98834 | 114562
9 | 25:27.38 | 3:23.57 | 114563 | 129844
10 | 28:51.20 | 2:51.18 | 129845 | 142687
11 | 31:42.38 | 3:11.71 | 142688 | 157083
12 | 34:54.34 | 3:13.61 | 157084 | 171619
13 | 38:08.20 | 3:05.57 | 171620 | 185551
14 | 41:14.02 | 3:04.54 | 185552 | 199405
15 | 44:18.56 | 2:54.48 | 199406 | 212503
16 | 47:13.29 | 2:51.71 | 212504 | 225399
17 | 50:05.25 | 2:57.58 | 225400 | 238732
18 | 53:03.08 | 2:59.23 | 238733 | 252180
19 | 56:02.31 | 3:17.27 | 252181 | 266982
20 | 59:19.58 | 3:11.36 | 266983 | 281343
21 | 62:31.19 | 3:06.11 | 281344 | 295304
22 | 65:37.30 | 3:17.54 | 295305 | 310133
23 | 68:55.09 | 3:09.57 | 310134 | 324365
24 | 72:04.66 | 3:17.08 | 324366 | 339148
25 | 75:21.74 | 3:01.61 | 339149 | 352784


Track 1

Filename E:\01 - Memphis Jug Band - Sun Brimmer's Blues.wav

Pre-gap length 0:00:02.00

Peak level 96.7 %
Extraction speed 1.0 X
Track quality 100.0 %
Test CRC AE6B9B66
Copy CRC AE6B9B66
Track not present in AccurateRip database
Copy OK

Track 2

Filename E:\02 - Banjo Joe (Gus Cannon) - Poor Boy, Long Ways From Home.wav

Peak level 67.7 %
Extraction speed 0.9 X
Track quality 99.9 %
Test CRC BEA37A4E
Copy CRC BEA37A4E
Track not present in AccurateRip database
Copy OK

Track 3

Filename E:\03 - Lewis Black - Corn Liquor Blues.wav

Peak level 77.7 %
Extraction speed 1.0 X
Track quality 100.0 %
Test CRC 7EB05D12
Copy CRC 7EB05D12
Track not present in AccurateRip database
Copy OK

Track 4

Filename E:\04 - Pearl Dickson - Little Rock Blues.wav

Peak level 59.5 %
Extraction speed 1.0 X
Track quality 100.0 %
Test CRC 6583236F
Copy CRC 6583236F
Track not present in AccurateRip database
Copy OK

Track 5

Filename E:\05 - Cannon's Jug Stompers - Springdale Blues.wav

Peak level 96.2 %
Extraction speed 1.0 X
Track quality 100.0 %
Test CRC E38245FC
Copy CRC E38245FC
Track not present in AccurateRip database
Copy OK

Track 6

Filename E:\06 - Frank Stokes - Downtown Blues.wav

Peak level 88.9 %
Extraction speed 1.0 X
Track quality 100.0 %
Test CRC 3564D1A8
Copy CRC 3564D1A8
Track not present in AccurateRip database
Copy OK

Track 7

Filename E:\07 - Tommy Johnson - Big Road Blues.wav

Peak level 100.0 %
Extraction speed 1.0 X
Track quality 100.0 %
Test CRC 81690FD6
Copy CRC 81690FD6
Track not present in AccurateRip database
Copy OK

Track 8

Filename E:\08 - Ishman Bracey - Saturday Blues.wav

Peak level 100.0 %
Extraction speed 1.0 X
Track quality 100.0 %
Test CRC 0A552BAB
Copy CRC 0A552BAB
Track not present in AccurateRip database
Copy OK

Track 9

Filename E:\09 - Mississippi John Hurt - Frankie.wav

Peak level 89.1 %
Extraction speed 1.0 X
Track quality 100.0 %
Test CRC EBD274A0
Copy CRC EBD274A0
Track not present in AccurateRip database
Copy OK

Track 10

Filename E:\10 - Lonnie Johnson - Away Down In The Alley Blues.wav

Peak level 72.0 %
Extraction speed 1.0 X
Track quality 100.0 %
Test CRC 6D55C756
Copy CRC 6D55C756
Track not present in AccurateRip database
Copy OK

Track 11

Filename E:\11 - Tom Dickson - Death Bell Blues.wav

Peak level 100.0 %
Extraction speed 1.0 X
Track quality 100.0 %
Test CRC 04B930CD
Copy CRC 04B930CD
Track not present in AccurateRip database
Copy OK

Track 12

Filename E:\12 - Jim Jackson - I'm Wild About My Lovin'.wav

Peak level 100.0 %
Extraction speed 1.0 X
Track quality 100.0 %
Test CRC 7202632E
Copy CRC 7202632E
Track not present in AccurateRip database
Copy OK

Track 13

Filename E:\13 - Furry Lewis - Cannon Ball Blues.wav

Peak level 100.0 %
Extraction speed 1.0 X
Track quality 100.0 %
Test CRC 7ABF695F
Copy CRC 7ABF695F
Track not present in AccurateRip database
Copy OK

Track 14

Filename E:\14 - Charlie McCoy - Last Time Blues.wav

Peak level 99.9 %
Extraction speed 1.0 X
Track quality 100.0 %
Test CRC 32AD8A53
Copy CRC 32AD8A53
Track not present in AccurateRip database
Copy OK

Track 15

Filename E:\15 - Robert Wilkins - That's No Way To Get Along.wav

Peak level 80.8 %
Extraction speed 0.8 X
Track quality 99.9 %
Test CRC A5F9986B
Copy CRC A5F9986B
Track not present in AccurateRip database
Copy OK

Track 16

Filename E:\16 - Garfield Akers - Cottonfield Blues - Part 1.wav

Peak level 100.0 %
Extraction speed 0.8 X
Track quality 99.9 %
Test CRC A1925E7B
Copy CRC A1925E7B
Track not present in AccurateRip database
Copy OK

Track 17

Filename E:\17 - Sleepy John Estes - The Girl I Love, She Got Long Curly Hair.wav

Peak level 100.0 %
Extraction speed 1.0 X
Track quality 100.0 %
Test CRC 24B88061
Copy CRC 24B88061
Track not present in AccurateRip database
Copy OK

Track 18

Filename E:\18 - Kid Bailey - Rowdy Blues.wav

Peak level 98.3 %
Extraction speed 1.0 X
Track quality 100.0 %
Test CRC B1DD14D9
Copy CRC B1DD14D9
Track not present in AccurateRip database
Copy OK

Track 19

Filename E:\19 - Noah Lewis - Chickasaw Special.wav

Peak level 100.0 %
Extraction speed 1.0 X
Track quality 100.0 %
Test CRC 8702930A
Copy CRC 8702930A
Track not present in AccurateRip database
Copy OK

Track 20

Filename E:\20 - Joe Callicott - Fare Thee Well Blues.wav

Peak level 100.0 %
Extraction speed 1.0 X
Track quality 100.0 %
Test CRC BC2FDDC0
Copy CRC BC2FDDC0
Track not present in AccurateRip database
Copy OK

Track 21

Filename E:\21 - Jim Thompkins - Bedside Blues.wav

Peak level 100.0 %
Extraction speed 1.0 X
Track quality 100.0 %
Test CRC 2D35DC07
Copy CRC 2D35DC07
Track not present in AccurateRip database
Copy OK

Track 22

Filename E:\22 - Memphis Minnie - Bumble Bee.wav

Peak level 84.0 %
Extraction speed 1.0 X
Track quality 100.0 %
Test CRC 0A9A8669
Copy CRC 0A9A8669
Track not present in AccurateRip database
Copy OK

Track 23

Filename E:\23 - Bukka White - The Panama Limited.wav

Peak level 78.2 %
Extraction speed 1.0 X
Track quality 100.0 %
Test CRC 2E524813
Copy CRC 2E524813
Track not present in AccurateRip database
Copy OK

Track 24

Filename E:\24 - Blind Willie Reynolds - Married Man Blues.wav

Peak level 98.9 %
Extraction speed 1.0 X
Track quality 100.0 %
Test CRC 0E593028
Copy CRC 0E593028
Track not present in AccurateRip database
Copy OK

Track 25

Filename E:\25 - Allen Shaw - Moanin' The Blues.wav

Peak level 97.2 %
Extraction speed 1.0 X
Track quality 100.0 %
Test CRC 16004FBF
Copy CRC 16004FBF
Track not present in AccurateRip database
Copy OK


None of the tracks are present in the AccurateRip database

No errors occurred

End of status report

==== Log checksum 1C388713DA4BCDF3D2BC6287708272E823E37CA02905FA9EE02D7818E6FB656C ====
Exact Audio Copy V1.0 beta 3 from 29. August 2011

EAC extraction logfile from 3. November 2012, 9:46

Various Artists / Let Me Tell You About the Blues, Memphis 1927-1958 [Disc 2 of 3]

Used drive : Optiarc DVD RW AD-7240S Adapter: 0 ID: 4

Read mode : Secure
Utilize accurate stream : Yes
Defeat audio cache : Yes
Make use of C2 pointers : No

Read offset correction : 48
Overread into Lead-In and Lead-Out : No
Fill up missing offset samples with silence : Yes
Delete leading and trailing silent blocks : No
Null samples used in CRC calculations : Yes
Used interface : Native Win32 interface for Win NT & 2000
Gap handling : Appended to previous track

Used output format : User Defined Encoder
Selected bitrate : 32 kBit/s
Quality : High
Add ID3 tag : No
Command line compressor : C:\Exact Audio Copy 1.3\Flac\flac.exe
Additional command line options : -5 -V -T "ARTIST=%artist%" -T "TITLE=%title%" -T "ALBUM=%albumtitle%" -T "DATE=%year%" -T "TRACKNUMBER=%tracknr%" -T "TOTALTRACKS=%numtracks%" -T "GENRE=%genre%" -T "ALBUM ARTIST=%albumartist%" -T "ALBUMARTIST=%albumartist%" -T "COMMENT=Secure Mode, Test and Copy, AccurateRip, FLAC -5" %source%


TOC of the extracted CD

Track | Start | Length | Start sector | End sector
––––––––––––––––––––––––––––-
1 | 0:00.00 | 2:59.34 | 0 | 13458
2 | 2:59.34 | 2:53.43 | 13459 | 26476
3 | 5:53.02 | 2:58.39 | 26477 | 39865
4 | 8:51.41 | 2:40.57 | 39866 | 51922
5 | 11:32.23 | 2:25.42 | 51923 | 62839
6 | 13:57.65 | 2:33.32 | 62840 | 74346
7 | 16:31.22 | 2:46.58 | 74347 | 86854
8 | 19:18.05 | 2:58.59 | 86855 | 100263
9 | 22:16.64 | 3:02.37 | 100264 | 113950
10 | 25:19.26 | 2:51.69 | 113951 | 126844
11 | 28:11.20 | 2:56.13 | 126845 | 140057
12 | 31:07.33 | 2:32.26 | 140058 | 151483
13 | 33:39.59 | 2:33.26 | 151484 | 162984
14 | 36:13.10 | 3:02.61 | 162985 | 176695
15 | 39:15.71 | 2:39.41 | 176696 | 188661
16 | 41:55.37 | 3:10.30 | 188662 | 202941
17 | 45:05.67 | 3:04.21 | 202942 | 216762
18 | 48:10.13 | 2:34.17 | 216763 | 228329
19 | 50:44.30 | 2:37.48 | 228330 | 240152
20 | 53:22.03 | 2:54.44 | 240153 | 253246
21 | 56:16.47 | 2:58.61 | 253247 | 266657
22 | 59:15.33 | 2:49.61 | 266658 | 279393
23 | 62:05.19 | 3:00.19 | 279394 | 292912
24 | 65:05.38 | 3:00.02 | 292913 | 306414
25 | 68:05.40 | 2:51.47 | 306415 | 319286


Track 1

Filename E:\01 - Memphis Jug Band - Jazzbo Stomp.wav

Pre-gap length 0:00:02.00

Peak level 84.1 %
Extraction speed 1.0 X
Track quality 100.0 %
Test CRC ED394A79
Copy CRC ED394A79
Track not present in AccurateRip database
Copy OK

Track 2

Filename E:\02 - Robert Wilkins - Old Jim Canaan's.wav

Peak level 97.7 %
Extraction speed 1.0 X
Track quality 100.0 %
Test CRC CE38E081
Copy CRC CE38E081
Track not present in AccurateRip database
Copy OK

Track 3

Filename E:\03 - Minnie Wallace - The Cockeyed World.wav

Peak level 100.0 %
Extraction speed 1.0 X
Track quality 100.0 %
Test CRC 9D6767C7
Copy CRC 9D6767C7
Track not present in AccurateRip database
Copy OK

Track 4

Filename E:\04 - Little Buddy Doyle - Hard Scufflin' Blues.wav

Peak level 77.8 %
Extraction speed 1.0 X
Track quality 100.0 %
Test CRC 775842B2
Copy CRC 775842B2
Track not present in AccurateRip database
Copy OK

Track 5

Filename E:\05 - Charlie Burse and his Memphis Mudcats - Beale Street Holiday.wav

Peak level 100.0 %
Extraction speed 1.0 X
Track quality 100.0 %
Test CRC B1016225
Copy CRC B1016225
Track not present in AccurateRip database
Copy OK

Track 6

Filename E:\06 - James de Barry and his Memphis Playboys - Single Man Blues.wav

Peak level 100.0 %
Extraction speed 1.0 X
Track quality 100.0 %
Test CRC 27FEC809
Copy CRC 27FEC809
Track not present in AccurateRip database
Copy OK

Track 7

Filename E:\07 - Joe Hill Louis - Boogie In The Park.wav

Peak level 62.6 %
Extraction speed 1.0 X
Track quality 100.0 %
Test CRC 55F6A4E0
Copy CRC 55F6A4E0
Track not present in AccurateRip database
Copy OK

Track 8

Filename E:\08 - Walter Horton - Little Boy Blue.wav

Peak level 69.2 %
Extraction speed 1.0 X
Track quality 100.0 %
Test CRC A3F8953D
Copy CRC A3F8953D
Track not present in AccurateRip database
Copy OK

Track 9

Filename E:\09 - Ike Turner - I'm Lonsome Baby.wav

Peak level 99.9 %
Extraction speed 1.0 X
Track quality 100.0 %
Test CRC 2696222D
Copy CRC 2696222D
Track not present in AccurateRip database
Copy OK

Track 10

Filename E:\10 - Jackie Brenston - Rocket 88.wav

Peak level 88.8 %
Extraction speed 1.0 X
Track quality 100.0 %
Test CRC AD3B9AC8
Copy CRC AD3B9AC8
Track not present in AccurateRip database
Copy OK

Track 11

Filename E:\11 - Howlin' Wolf - Moanin' At Midnight.wav

Peak level 45.5 %
Extraction speed 1.0 X
Track quality 100.0 %
Test CRC 7F572FA7
Copy CRC 7F572FA7
Track not present in AccurateRip database
Copy OK

Track 12

Filename E:\12 - B.B. King - She's Dynamite.wav

Peak level 70.9 %
Extraction speed 1.0 X
Track quality 100.0 %
Test CRC 3C5562AC
Copy CRC 3C5562AC
Track not present in AccurateRip database
Copy OK

Track 13

Filename E:\13 - Billy Love - Juiced.wav

Peak level 99.3 %
Extraction speed 0.8 X
Track quality 99.9 %
Test CRC F3C49929
Copy CRC F3C49929
Track not present in AccurateRip database
Copy OK

Track 14

Filename E:\14 - B.B. King - Three O' Clock Blues.wav

Peak level 96.1 %
Extraction speed 1.0 X
Track quality 100.0 %
Test CRC 8D3BF732
Copy CRC 8D3BF732
Track not present in AccurateRip database
Copy OK

Track 15

Filename E:\15 - Dr. Ross - Dr. Ross Boogie.wav

Peak level 70.0 %
Extraction speed 1.0 X
Track quality 100.0 %
Test CRC 456BED04
Copy CRC 456BED04
Track not present in AccurateRip database
Copy OK

Track 16

Filename E:\16 - Rosco Gordon - Booted.wav

Peak level 76.3 %
Extraction speed 1.0 X
Track quality 100.0 %
Test CRC 83A5EE84
Copy CRC 83A5EE84
Track not present in AccurateRip database
Copy OK

Track 17

Filename E:\17 - Sleepy John Estes - Rats In My Kitchen.wav

Peak level 100.0 %
Extraction speed 0.8 X
Track quality 99.9 %
Test CRC CC5F9A15
Copy CRC CC5F9A15
Track not present in AccurateRip database
Copy OK

Track 18

Filename E:\18 - Howlin' Wolf - Saddle My Pony.wav

Peak level 64.5 %
Extraction speed 1.0 X
Track quality 100.0 %
Test CRC 49580807
Copy CRC 49580807
Track not present in AccurateRip database
Copy OK

Track 19

Filename E:\19 - Rosco Gordon - T-Model Boogie.wav

Peak level 84.0 %
Extraction speed 1.0 X
Track quality 100.0 %
Test CRC FAC0F78F
Copy CRC FAC0F78F
Track not present in AccurateRip database
Copy OK

Track 20

Filename E:\20 - Woodrow Adams - The Last Time.wav

Peak level 78.9 %
Extraction speed 0.8 X
Track quality 99.9 %
Test CRC 6E29D5B2
Copy CRC 6E29D5B2
Track not present in AccurateRip database
Copy OK

Track 21

Filename E:\21 - Walter Horton - We All Gotta Go Sometime.wav

Peak level 93.3 %
Extraction speed 1.0 X
Track quality 100.0 %
Test CRC 2554778C
Copy CRC 2554778C
Track not present in AccurateRip database
Copy OK

Track 22

Filename E:\22 - Willie Nix - Seems Like A Million Years.wav

Peak level 86.1 %
Extraction speed 1.0 X
Track quality 100.0 %
Test CRC 783F4A58
Copy CRC 783F4A58
Track not present in AccurateRip database
Copy OK

Track 23

Filename E:\23 - Honeyboy Edwards - Sweet Home Chicago.wav

Peak level 61.8 %
Extraction speed 0.8 X
Track quality 99.9 %
Test CRC 5E002A20
Copy CRC 5E002A20
Track not present in AccurateRip database
Copy OK

Track 24

Filename E:\24 - Jimmy and Walter - Easy.wav

Peak level 71.0 %
Extraction speed 1.0 X
Track quality 100.0 %
Test CRC 0026F1E9
Copy CRC 0026F1E9
Track not present in AccurateRip database
Copy OK

Track 25

Filename E:\25 - Rufus Thomas - Bear Cat.wav

Peak level 78.5 %
Extraction speed 0.8 X
Track quality 99.9 %
Test CRC D363E687
Copy CRC D363E687
Track not present in AccurateRip database
Copy OK


None of the tracks are present in the AccurateRip database

No errors occurred

End of status report

==== Log checksum E83A3AB43029396FB82D7920AF40C85C144BA4AA0A0DE17C9A29C05D016B7B82 ====
Exact Audio Copy V1.0 beta 3 from 29. August 2011

EAC extraction logfile from 3. November 2012, 12:27

Various Artists / Let Me Tell You About the Blues, Memphis 1927-1958 [Disc 3 of 3]

Used drive : Optiarc DVD RW AD-7240S Adapter: 0 ID: 4

Read mode : Secure
Utilize accurate stream : Yes
Defeat audio cache : Yes
Make use of C2 pointers : No

Read offset correction : 48
Overread into Lead-In and Lead-Out : No
Fill up missing offset samples with silence : Yes
Delete leading and trailing silent blocks : No
Null samples used in CRC calculations : Yes
Used interface : Native Win32 interface for Win NT & 2000
Gap handling : Appended to previous track

Used output format : User Defined Encoder
Selected bitrate : 32 kBit/s
Quality : High
Add ID3 tag : No
Command line compressor : C:\Exact Audio Copy 1.3\Flac\flac.exe
Additional command line options : -5 -V -T "ARTIST=%artist%" -T "TITLE=%title%" -T "ALBUM=%albumtitle%" -T "DATE=%year%" -T "TRACKNUMBER=%tracknr%" -T "TOTALTRACKS=%numtracks%" -T "GENRE=%genre%" -T "ALBUM ARTIST=%albumartist%" -T "ALBUMARTIST=%albumartist%" -T "COMMENT=Secure Mode, Test and Copy, AccurateRip, FLAC -5" %source%


TOC of the extracted CD

Track | Start | Length | Start sector | End sector
––––––––––––––––––––––––––––-
1 | 0:00.00 | 2:45.41 | 0 | 12415
2 | 2:45.41 | 2:37.71 | 12416 | 24261
3 | 5:23.37 | 2:56.23 | 24262 | 37484
4 | 8:19.60 | 1:56.52 | 37485 | 46236
5 | 10:16.37 | 2:48.29 | 46237 | 58865
6 | 13:04.66 | 3:08.06 | 58866 | 72971
7 | 16:12.72 | 2:47.37 | 72972 | 85533
8 | 19:00.34 | 2:46.53 | 85534 | 98036
9 | 21:47.12 | 2:26.38 | 98037 | 109024
10 | 24:13.50 | 2:29.51 | 109025 | 120250
11 | 26:43.26 | 2:32.09 | 120251 | 131659
12 | 29:15.35 | 2:22.47 | 131660 | 142356
13 | 31:38.07 | 2:20.18 | 142357 | 152874
14 | 33:58.25 | 2:36.60 | 152875 | 164634
15 | 36:35.10 | 2:34.70 | 164635 | 176254
16 | 39:10.05 | 2:51.03 | 176255 | 189082
17 | 42:01.08 | 2:36.14 | 189083 | 200796
18 | 44:37.22 | 3:02.50 | 200797 | 214496
19 | 47:39.72 | 1:58.08 | 214497 | 223354
20 | 49:38.05 | 2:56.56 | 223355 | 236610
21 | 52:34.61 | 2:26.54 | 236611 | 247614
22 | 55:01.40 | 3:06.15 | 247615 | 261579
23 | 58:07.55 | 2:36.10 | 261580 | 273289
24 | 60:43.65 | 2:27.46 | 273290 | 284360
25 | 63:11.36 | 2:49.44 | 284361 | 297079


Track 1

Filename E:\01 - Charlie Booker - Walked All Night.wav

Pre-gap length 0:00:02.00

Peak level 71.2 %
Extraction speed 1.0 X
Track quality 100.0 %
Test CRC CBBDC941
Copy CRC CBBDC941
Track not present in AccurateRip database
Copy OK

Track 2

Filename E:\02 - D.A. Hunt - Greyhound Blues.wav

Peak level 88.7 %
Extraction speed 1.0 X
Track quality 100.0 %
Test CRC B4C05F72
Copy CRC B4C05F72
Track not present in AccurateRip database
Copy OK

Track 3

Filename E:\03 - Little Junior Parker - Feelin' Good.wav

Peak level 79.3 %
Extraction speed 0.8 X
Track quality 99.9 %
Test CRC 04047421
Copy CRC 04047421
Track not present in AccurateRip database
Copy OK

Track 4

Filename E:\04 - William Stewart - County Farm Blues.wav

Peak level 88.9 %
Extraction speed 0.9 X
Track quality 100.0 %
Test CRC 74417F4E
Copy CRC 74417F4E
Track not present in AccurateRip database
Copy OK

Track 5

Filename E:\05 - Rufus Thomas - Tiger Man.wav

Peak level 100.0 %
Extraction speed 1.0 X
Track quality 100.0 %
Test CRC 68C01244
Copy CRC 68C01244
Track not present in AccurateRip database
Copy OK

Track 6

Filename E:\06 - Boyd Gilmore - Believe I'll Settle Down.wav

Peak level 88.6 %
Extraction speed 1.0 X
Track quality 100.0 %
Test CRC AE9D16BF
Copy CRC AE9D16BF
Track not present in AccurateRip database
Copy OK

Track 7

Filename E:\07 - Earl Hooker - Blue Guitar.wav

Peak level 89.1 %
Extraction speed 1.0 X
Track quality 100.0 %
Test CRC C7C27B07
Copy CRC C7C27B07
Track not present in AccurateRip database
Copy OK

Track 8

Filename E:\08 - Pinetop Perkins - Pinetop's Boogie Woogie.wav

Peak level 100.0 %
Extraction speed 1.0 X
Track quality 100.0 %
Test CRC 9988DFF7
Copy CRC 9988DFF7
Track not present in AccurateRip database
Copy OK

Track 9

Filename E:\09 - Little Milton - Beggin' My Baby.wav

Peak level 89.5 %
Extraction speed 1.0 X
Track quality 100.0 %
Test CRC E4ED79A5
Copy CRC E4ED79A5
Track not present in AccurateRip database
Copy OK

Track 10

Filename E:\10 - Johnny O'Neal - Ugly Woman.wav

Peak level 80.4 %
Extraction speed 0.9 X
Track quality 100.0 %
Test CRC C9774A9E
Copy CRC C9774A9E
Track not present in AccurateRip database
Copy OK

Track 11

Filename E:\11 - Joe Hill Louis - Hydramatic Woman.wav

Peak level 100.0 %
Extraction speed 1.0 X
Track quality 100.0 %
Test CRC AC750789
Copy CRC AC750789
Track not present in AccurateRip database
Copy OK

Track 12

Filename E:\12 - Little Junior Parker - Mystery Train.wav

Peak level 88.7 %
Extraction speed 0.9 X
Track quality 100.0 %
Test CRC 97CCD2B8
Copy CRC 97CCD2B8
Track not present in AccurateRip database
Copy OK

Track 13

Filename E:\13 - James Cotton - Straighten Up Baby.wav

Peak level 99.5 %
Extraction speed 0.9 X
Track quality 100.0 %
Test CRC A9515483
Copy CRC A9515483
Track not present in AccurateRip database
Copy OK

Track 14

Filename E:\14 - Coy 'Hot Shot' Love - Wolf Call Boogie.wav

Peak level 91.0 %
Extraction speed 1.0 X
Track quality 100.0 %
Test CRC B68C9D7D
Copy CRC B68C9D7D
Track not present in AccurateRip database
Copy OK

Track 15

Filename E:\15 - Kenneth Banks - But High.wav

Peak level 96.7 %
Extraction speed 0.9 X
Track quality 100.0 %
Test CRC A37B204C
Copy CRC A37B204C
Track not present in AccurateRip database
Copy OK

Track 16

Filename E:\16 - Billy Love - Way After Midnight.wav

Peak level 79.1 %
Extraction speed 1.0 X
Track quality 100.0 %
Test CRC 3F3AABE0
Copy CRC 3F3AABE0
Track not present in AccurateRip database
Copy OK

Track 17

Filename E:\17 - Little Milton - Lookin' For My Baby.wav

Peak level 62.4 %
Extraction speed 1.0 X
Track quality 100.0 %
Test CRC EAE72F59
Copy CRC EAE72F59
Track not present in AccurateRip database
Copy OK

Track 18

Filename E:\18 - James Cotton - Cotton Crop Blues.wav

Peak level 82.0 %
Extraction speed 1.0 X
Track quality 100.0 %
Test CRC D0003344
Copy CRC D0003344
Track not present in AccurateRip database
Copy OK

Track 19

Filename E:\19 - Elvis Presley - That's All Right.wav

Peak level 66.3 %
Extraction speed 0.9 X
Track quality 100.0 %
Test CRC 38E494C1
Copy CRC 38E494C1
Track not present in AccurateRip database
Copy OK

Track 20

Filename E:\20 - Pat Hare - I'm Gonna Murder My Baby.wav

Peak level 70.8 %
Extraction speed 1.0 X
Track quality 100.0 %
Test CRC C0F3E46F
Copy CRC C0F3E46F
Track not present in AccurateRip database
Copy OK

Track 21

Filename E:\21 - Elvis Presley - Mystery Train.wav

Peak level 92.0 %
Extraction speed 0.8 X
Track quality 99.9 %
Test CRC 15EF7B88
Copy CRC 15EF7B88
Track not present in AccurateRip database
Copy OK

Track 22

Filename E:\22 - Billy 'The Kid' Emerson - When It Rains It Pours.wav

Peak level 89.3 %
Extraction speed 1.0 X
Track quality 100.0 %
Test CRC B7F295FF
Copy CRC B7F295FF
Track not present in AccurateRip database
Copy OK

Track 23

Filename E:\23 - Doctor Ross - The Boogie Disease.wav

Peak level 96.9 %
Extraction speed 1.0 X
Track quality 100.0 %
Test CRC 60DE2AB7
Copy CRC 60DE2AB7
Track not present in AccurateRip database
Copy OK

Track 24

Filename E:\24 - Sammy Lewis and Willie Johnson - Feel So Worried.wav

Peak level 99.9 %
Extraction speed 0.9 X
Track quality 100.0 %
Test CRC 49AD9271
Copy CRC 49AD9271
Track not present in AccurateRip database
Copy OK

Track 25

Filename E:\25 - Rosco Gordon - Cheese And Crackers.wav

Peak level 77.2 %
Extraction speed 1.0 X
Track quality 100.0 %
Test CRC A8AA4870
Copy CRC A8AA4870
Track not present in AccurateRip database
Copy OK


None of the tracks are present in the AccurateRip database

No errors occurred

End of status report

==== Log checksum C9AD11E151EBEF68DA7DBB5D12455F34B2301C6F1D248B9F5465961252DA0A79 ====


Various Artists - Let Me Tell You About The Blues - Memphis: The Evolution Of Memphis Blues 1927-1958 (2009) {3 CD Box Set}


NEXT -> more Let Me Tell You About The Blues series on the way…

see more Let Me Tell You About The Blues Series…


===