Subcategories

Various Artists - Let Me Tell You About The Blues - New York: The Evolution Of New York Blues (2009) {3 CD Box Set}

Posted By: ruskaval
Various Artists - Let Me Tell You About The Blues - New York: The Evolution Of New York Blues (2009) {3 CD Box Set}

Various Artists - Let Me Tell You About The Blues - New York: The Evolution Of New York Blues (2009) {3 CD Box Set}
EAC rip (secure mode) | FLAC (tracks)+CUE+LOG -> 682 Mb | MP3 @320 -> 479 Mb
Full Artwork @ 300 dpi (png) -> 125 Mb | 5% repair rar
© 2009 Fantastic Voyage / Future Noise Music Ltd. | FVTD030
Blues / Regional Blues

The blues recording industry began in New York City and for most of the 1920s, musicians travelled from all parts of the country to make their mark in the recording studio. Bessie Smith and Ma Rainey were amongst the most popular female singers but they were soon rivaled by the likes of Lonnie Johnson, Robert ‘Barbecue Bob’ Hicks, Texas Alexander and Mississippi John Hurt. Kansas Joe McCoy cut ‘When The Levee Breaks’, justly famous in its Led Zeppelin incarnation, in the city.
Various Artists - Let Me Tell You About The Blues - New York: The Evolution Of New York Blues (2009) {3 CD Box Set}

Other blues masters who came to New York during the 1930s and early 1940s included Big Bill Broonzy, Amos ‘Bumble Bee Slim’ Easton, Blind Willie McTell, Charley Patton, Leroy Carr, Leadbelly, Roosevelt Sykes, Sleepy John Estes, Blind Boy Fuller. Should we go on? A strong brand of country blues, mostly by artists from the Eastern states, carried on throughout the 1940s, some, like Boy Green, Hank Kilroy, Little Boy Fuller and Leroy Dallas made a handful of striking recordings. Gabriel Brown, Guitar Slim & Jelly Belly and Ralph Willis were more successful, although their music was about to be superseded by the arrival of rhythm and blues. Brownie McGhee and his brother, Stick, began as country artists before moving successfully into R&B. New artists like H-Bomb Ferguson, Bob Gaddy and Danny ‘Run Joe’ Taylor revelled in the freedom R&B gave them, while Little Esther, Margie Day and Big Maybelle were more than the equal of their male counterparts.

The new music created a new set of stars, prominent among them Chuck Willis, Larry Dale, Tiny Kennedy, Teddy ‘Mr Bear’ McRae, Hurricane Harry and the inimitable Screamin’ Jay Hawkins. Even so, country blues still had a way to go, as Champion Jack Dupree, Sonny Terry and Cousin Leroy were willing to prove. By the mid-1950s, New York City provided a microcosm of the many forms of blues in which the public were engaged. The times were changing and rock ‘n’ roll would deal a death blow to the blues as a major influence on popular music. But, as we know, that wasn’t the end of it.
Various Artists - Let Me Tell You About The Blues - New York: The Evolution Of New York Blues (2009) {3 CD Box Set}


Personnel & Tracklist:

Disc 1 of 3:


01. Bessie Smith / Beale Street Mama - 03:29
02. Sylvester Weaver / Guitar Blues - 03:08
03. Ma Rainey / Countin' The Blues - 03:09
04. Lonnie Johnson / To Do This You Got To Know How - 03:09
05. Sam Butler / Jefferson County Blues - 02:45
06. Bobby Leecan / Need More Blues - 03:15
07. Robert Hicks / Mississipi Heavy Water Blues - 03:10
08. Victoria Spivey / Dope Head Blues - 03:20
09. Helen Humes / Cross-Eyed Blues - 03:10
10. Texas Alexander / Work Ox Blues - 03:21
11. Mississippi John Hurt / Candy Man Blues - 02:49
12. Kansas Joe McCoy / When The Levee Breaks - 03:13
13. Famous Hokum Boys / Pussy Cat, Pussy Cat - 02:46
14. Bo Chatman / My Pencil Won't Write No More - 02:58
15. Sam Collins / Slow Mama Slow - 03:07
16. Tampa Red and Georgia Tom / Dead Cats On The Line - 02:50
17. Jelly Jaw Short / Snake Doctor Blues - 03:35
18. Amos Easton / B&O Blues - 03:06
19. Big Bill / How You Want It Done - 02:54
20. Curley Weaver / No No Blues - 03:12
21. Buddy Moss / Hard Road Blues - 03:17
22. Lucille Bogan / Groceries On The Shelf - 03:00
23. Jack Kelly / President Blues - 03:01
24. Blind Willie McTell / Warm It Up To Me - 02:58
25. Charley Patton / High Sheriff Blues - 03:11

Playing time…1:17:52

Various Artists - Let Me Tell You About The Blues - New York: The Evolution Of New York Blues (2009) {3 CD Box Set}


Disc 2 of 3:

01. Leroy Carr / Barrel House Woman - 02:56
02. Hattie Hart / I Let My Daddy Do That - 03:02
03. Bob Campbell / Starvation Farm Blues - 02:52
04. Leadbelly / Packin' Trunk Blues - 02:59
05. Josh White / Black Man - 03:07
06. Walter Roland / Penniless Blues - 02:59
07. Bull City Red / I Saw The Light - 03:06
08. Roosevelt Sykes / Driving Wheel - 03:06
09. Peetie Wheatstraw / Coon Can Shorty - 02:57
10. Sam Montgomery / Mercy Mercy Blues - 02:39
11. Sleepy John Estes / Hobo Jungle Blues - 02:59
12. Charlie Pickett / Let Me Squeeze Your Lemon - 02:53
13. Rosetta Howard / If You're A Viper - 03:13
14. Pete Johnson / Roll 'Em Pete - 02:52
15. Blind Boy Fuller / Shake It, Baby - 02:52
16. Ollie Shepard / Throw This Dog A Bone - 02:40
17. Brownie McGhee / I'm A Black Woman's Man - 02:54
18. Gabriel Brown / You Ain't No Good - 03:05
19. Boy Green / Play My Jukebox - 02:56
20. Guitar Slim and Jelly Belly / No More Hard Times - 02:20
21. Little Boy Fuller (Rich Trice) / Bed Springs Blues - 02:48
22. Sonny Terry / Custard Pie Blues - 03:01
23. Hank Kilroy / Harlem Women - 02:53
24. Ralph Willis / Christmas Blues - 02:41
25. Johnny Moore's Three Blazers / How Blue Can You Get - 03:04

Playing time…1:12:51

Various Artists - Let Me Tell You About The Blues - New York: The Evolution Of New York Blues (2009) {3 CD Box Set}


Disc 3 of 3:

01. Stick McGhee / Drank Up All The Wine Last Night - 02:57
02. Leroy Dallas / Your Sweet Man's Blues - 02:26
03. Grant Jones / They Call Me Mr Blues - 03:01
04. Duke Bayou and his Mystic Six / Rub A Little Boogie - 02:19
05. Curley Weaver / Some Rainy Day - 02:31
06. Brownie McGhee / I'm Gonna Move Cross The River - 02:48
07. H-Bomb Ferguson / Preachin' The Blues - 02:15
08. Danny 'Run Joe' Taylor / Coffee Daddy Blues - 02:42
09. Country Paul / Side Walk Boogie - 02:59
10. Bob Gaddy and his Alley Cats / I (Believe You Got A Side Kick) - 02:15
11. Little Bobby Harris / Love, Love, Love - 02:45
12. Little Esther / Sit Back Down - 02:23
13. Square Walton / Pepper Head Woman - 02:24
14. Chuck Willis / I Feel So Bad - 02:56
15. Margie Day / Take Out Your False Teeth Daddy - 02:24
16. Larry Dale / Midnight Hours - 03:01
17. Big Maybelle / One Monkey Don't Stop No Show - 02:55
18. Tiny Kennedy / Country Boy - 02:23
19. Mr Bear and the Bearcats / I'm Gonna Keep My Good Eye On You - 02:40
20. Sonny Terry / Ride And Roll - 02:37
21. Big Connie / Mumbles Blues - 02:24
22. Screamin' Jay Hawkins / I Put A Spell On You - 02:30
23. Hurricane Harry / The Last Meal - 02:20
24. Champion Jack Dupree / Just Like A Woman - 03:06
25. Cousin Leroy / Waitin' At The Station - 02:48

Playing time…1:05:48

Various Artists - Let Me Tell You About The Blues - New York: The Evolution Of New York Blues (2009) {3 CD Box Set}


Exact Audio Copy V1.0 beta 3 from 29. August 2011

EAC extraction logfile from 3. November 2012, 13:43

Various Artists / Let Me Tell You About the Blues, New York [Disc 1 of 3]

Used drive : HL-DT-STDVDRAM GT51N Adapter: 0 ID: 1

Read mode : Secure
Utilize accurate stream : Yes
Defeat audio cache : Yes
Make use of C2 pointers : No

Read offset correction : 103
Overread into Lead-In and Lead-Out : No
Fill up missing offset samples with silence : Yes
Delete leading and trailing silent blocks : No
Null samples used in CRC calculations : Yes
Used interface : Native Win32 interface for Win NT & 2000
Gap handling : Appended to previous track

Used output format : User Defined Encoder
Selected bitrate : 32 kBit/s
Quality : High
Add ID3 tag : No
Command line compressor : C:\Exact Audio Copy\FLAC\FLAC.EXE
Additional command line options : -5 -V -T "ARTIST=%artist%" -T "TITLE=%title%" -T "ALBUM=%albumtitle%" -T "DATE=%year%" -T "TRACKNUMBER=%tracknr%" -T "TOTALTRACKS=%numtracks%" -T "GENRE=%genre%" -T "ALBUM ARTIST=%albumartist%" -T "ALBUMARTIST=%albumartist%" -T "COMMENT=Secure Mode, Test and Copy, AccurateRip, FLAC -5" %source%


TOC of the extracted CD

Track | Start | Length | Start sector | End sector
––––––––––––––––––––––––––––-
1 | 0:00.00 | 3:29.13 | 0 | 15687
2 | 3:29.13 | 3:08.01 | 15688 | 29788
3 | 6:37.14 | 3:08.63 | 29789 | 43951
4 | 9:46.02 | 3:09.20 | 43952 | 58146
5 | 12:55.22 | 2:44.47 | 58147 | 70493
6 | 15:39.69 | 3:15.21 | 70494 | 85139
7 | 18:55.15 | 3:09.45 | 85140 | 99359
8 | 22:04.60 | 3:20.10 | 99360 | 114369
9 | 25:24.70 | 3:10.28 | 114370 | 128647
10 | 28:35.23 | 3:20.50 | 128648 | 143697
11 | 31:55.73 | 2:49.14 | 143698 | 156386
12 | 34:45.12 | 3:12.54 | 156387 | 170840
13 | 37:57.66 | 2:46.18 | 170841 | 183308
14 | 40:44.09 | 2:57.71 | 183309 | 196654
15 | 43:42.05 | 3:07.07 | 196655 | 210686
16 | 46:49.12 | 2:49.74 | 210687 | 223435
17 | 49:39.11 | 3:35.03 | 223436 | 239563
18 | 53:14.14 | 3:05.54 | 239564 | 253492
19 | 56:19.68 | 2:53.65 | 253493 | 266532
20 | 59:13.58 | 3:11.53 | 266533 | 280910
21 | 62:25.36 | 3:16.41 | 280911 | 295651
22 | 65:42.02 | 3:00.06 | 295652 | 309157
23 | 68:42.08 | 3:00.59 | 309158 | 322716
24 | 71:42.67 | 2:58.23 | 322717 | 336089
25 | 74:41.15 | 3:11.06 | 336090 | 350420


Track 1

Filename C:\temp\01 - Bessie Smith - Beale Street Mama.wav

Pre-gap length 0:00:02.00

Peak level 100.0 %
Extraction speed 2.3 X
Track quality 99.9 %
Test CRC C088ADBC
Copy CRC C088ADBC
Track not present in AccurateRip database
Copy OK

Track 2

Filename C:\temp\02 - Sylvester Weaver - Guitar Blues.wav

Peak level 77.1 %
Extraction speed 3.1 X
Track quality 100.0 %
Test CRC A500C312
Copy CRC A500C312
Track not present in AccurateRip database
Copy OK

Track 3

Filename C:\temp\03 - Ma Rainey - Countin' The Blues.wav

Peak level 100.0 %
Extraction speed 3.3 X
Track quality 100.0 %
Test CRC 9D191FD8
Copy CRC 9D191FD8
Track not present in AccurateRip database
Copy OK

Track 4

Filename C:\temp\04 - Lonnie Johnson - To Do This You Got To Know How.wav

Peak level 61.7 %
Extraction speed 3.4 X
Track quality 100.0 %
Test CRC 2E711CFC
Copy CRC 2E711CFC
Track not present in AccurateRip database
Copy OK

Track 5

Filename C:\temp\05 - Sam Butler - Jefferson County Blues.wav

Peak level 98.0 %
Extraction speed 3.5 X
Track quality 100.0 %
Test CRC 1EDE5C06
Copy CRC 1EDE5C06
Track not present in AccurateRip database
Copy OK

Track 6

Filename C:\temp\06 - Bobby Leecan - Need More Blues.wav

Peak level 56.0 %
Extraction speed 3.8 X
Track quality 100.0 %
Test CRC 8FFCD729
Copy CRC 8FFCD729
Track not present in AccurateRip database
Copy OK

Track 7

Filename C:\temp\07 - Robert Hicks - Mississipi Heavy Water Blues.wav

Peak level 79.0 %
Extraction speed 3.9 X
Track quality 100.0 %
Test CRC CEE3B281
Copy CRC CEE3B281
Track not present in AccurateRip database
Copy OK

Track 8

Filename C:\temp\08 - Victoria Spivey - Dope Head Blues.wav

Peak level 77.5 %
Extraction speed 4.1 X
Track quality 100.0 %
Test CRC 1B1CB2EA
Copy CRC 1B1CB2EA
Track not present in AccurateRip database
Copy OK

Track 9

Filename C:\temp\09 - Helen Humes - Cross-Eyed Blues.wav

Peak level 77.4 %
Extraction speed 4.3 X
Track quality 100.0 %
Test CRC 0C0068AB
Copy CRC 0C0068AB
Track not present in AccurateRip database
Copy OK

Track 10

Filename C:\temp\10 - Texas Alexander - Work Ox Blues.wav

Peak level 81.2 %
Extraction speed 4.4 X
Track quality 100.0 %
Test CRC A780CE06
Copy CRC A780CE06
Track not present in AccurateRip database
Copy OK

Track 11

Filename C:\temp\11 - Mississippi John Hurt - Candy Man Blues.wav

Peak level 89.1 %
Extraction speed 4.4 X
Track quality 100.0 %
Test CRC 59683DBE
Copy CRC 59683DBE
Track not present in AccurateRip database
Copy OK

Track 12

Filename C:\temp\12 - Kansas Joe McCoy - When The Levee Breaks.wav

Peak level 78.3 %
Extraction speed 4.7 X
Track quality 100.0 %
Test CRC 507F8DEF
Copy CRC 507F8DEF
Track not present in AccurateRip database
Copy OK

Track 13

Filename C:\temp\13 - Famous Hokum Boys - Pussy Cat, Pussy Cat.wav

Peak level 80.8 %
Extraction speed 4.6 X
Track quality 100.0 %
Test CRC 2BB1BEEA
Copy CRC 2BB1BEEA
Track not present in AccurateRip database
Copy OK

Track 14

Filename C:\temp\14 - Bo Chatman - My Pencil Won't Write No More.wav

Peak level 81.0 %
Extraction speed 3.6 X
Track quality 99.9 %
Test CRC DA614EAE
Copy CRC DA614EAE
Track not present in AccurateRip database
Copy OK

Track 15

Filename C:\temp\15 - Sam Collins - Slow Mama Slow.wav

Peak level 85.6 %
Extraction speed 4.9 X
Track quality 100.0 %
Test CRC B84145C0
Copy CRC B84145C0
Track not present in AccurateRip database
Copy OK

Track 16

Filename C:\temp\16 - Tampa Red and Georgia Tom - Dead Cats On The Line.wav

Peak level 84.7 %
Extraction speed 3.7 X
Track quality 99.9 %
Test CRC A8242C02
Copy CRC A8242C02
Track not present in AccurateRip database
Copy OK

Track 17

Filename C:\temp\17 - Jelly Jaw Short - Snake Doctor Blues.wav

Peak level 89.0 %
Extraction speed 5.2 X
Track quality 100.0 %
Test CRC 39DB091B
Copy CRC 39DB091B
Track not present in AccurateRip database
Copy OK

Track 18

Filename C:\temp\18 - Amos Easton - B&O Blues.wav

Peak level 83.7 %
Extraction speed 5.4 X
Track quality 100.0 %
Test CRC EAB2E252
Copy CRC EAB2E252
Track not present in AccurateRip database
Copy OK

Track 19

Filename C:\temp\19 - Big Bill - How You Want It Done.wav

Peak level 95.4 %
Extraction speed 5.2 X
Track quality 100.0 %
Test CRC 677EA233
Copy CRC 677EA233
Track not present in AccurateRip database
Copy OK

Track 20

Filename C:\temp\20 - Curley Weaver - No No Blues.wav

Peak level 84.0 %
Extraction speed 5.6 X
Track quality 100.0 %
Test CRC CAFD26B5
Copy CRC CAFD26B5
Track not present in AccurateRip database
Copy OK

Track 21

Filename C:\temp\21 - Buddy Moss - Hard Road Blues.wav

Peak level 70.5 %
Extraction speed 4.4 X
Track quality 99.9 %
Test CRC FEEBCD4E
Copy CRC FEEBCD4E
Track not present in AccurateRip database
Copy OK

Track 22

Filename C:\temp\22 - Lucille Bogan - Groceries On The Shelf.wav

Peak level 92.8 %
Extraction speed 5.7 X
Track quality 100.0 %
Test CRC EBD27E37
Copy CRC EBD27E37
Track not present in AccurateRip database
Copy OK

Track 23

Filename C:\temp\23 - Jack Kelly - President Blues.wav

Peak level 74.9 %
Extraction speed 5.7 X
Track quality 100.0 %
Test CRC 32C0C1C4
Copy CRC 32C0C1C4
Track not present in AccurateRip database
Copy OK

Track 24

Filename C:\temp\24 - Blind Willie McTell - Warm It Up To Me.wav

Peak level 81.5 %
Extraction speed 4.4 X
Track quality 99.9 %
Test CRC 0AC227DC
Copy CRC 0AC227DC
Track not present in AccurateRip database
Copy OK

Track 25

Filename C:\temp\25 - Charley Patton - High Sheriff Blues.wav

Peak level 100.0 %
Extraction speed 6.2 X
Track quality 100.0 %
Test CRC 1770ADF9
Copy CRC 1770ADF9
Track not present in AccurateRip database
Copy OK


None of the tracks are present in the AccurateRip database

No errors occurred

End of status report

==== Log checksum 5D8D85B69F9372B07CEBD2FA8C952028CAC23E8A9A1C85CB46B8131C51D79297 ====
Exact Audio Copy V1.0 beta 3 from 29. August 2011

EAC extraction logfile from 3. November 2012, 15:17

Various Artists / Let Me Tell You About the Blues, New York [Disc 2 of 3]

Used drive : HL-DT-STDVDRAM GT51N Adapter: 0 ID: 1

Read mode : Secure
Utilize accurate stream : Yes
Defeat audio cache : Yes
Make use of C2 pointers : No

Read offset correction : 103
Overread into Lead-In and Lead-Out : No
Fill up missing offset samples with silence : Yes
Delete leading and trailing silent blocks : No
Null samples used in CRC calculations : Yes
Used interface : Native Win32 interface for Win NT & 2000
Gap handling : Appended to previous track

Used output format : User Defined Encoder
Selected bitrate : 32 kBit/s
Quality : High
Add ID3 tag : No
Command line compressor : C:\Exact Audio Copy\FLAC\FLAC.EXE
Additional command line options : -5 -V -T "ARTIST=%artist%" -T "TITLE=%title%" -T "ALBUM=%albumtitle%" -T "DATE=%year%" -T "TRACKNUMBER=%tracknr%" -T "TOTALTRACKS=%numtracks%" -T "GENRE=%genre%" -T "ALBUM ARTIST=%albumartist%" -T "ALBUMARTIST=%albumartist%" -T "COMMENT=Secure Mode, Test and Copy, AccurateRip, FLAC -5" %source%


TOC of the extracted CD

Track | Start | Length | Start sector | End sector
––––––––––––––––––––––––––––-
1 | 0:00.00 | 2:56.11 | 0 | 13210
2 | 2:56.11 | 3:01.45 | 13211 | 26830
3 | 5:57.56 | 2:51.42 | 26831 | 39697
4 | 8:49.23 | 2:58.59 | 39698 | 53106
5 | 11:48.07 | 3:07.00 | 53107 | 67131
6 | 14:55.07 | 2:59.21 | 67132 | 80577
7 | 17:54.28 | 3:05.71 | 80578 | 94523
8 | 21:00.24 | 3:06.32 | 94524 | 108505
9 | 24:06.56 | 2:56.70 | 108506 | 121775
10 | 27:03.51 | 2:38.53 | 121776 | 133678
11 | 29:42.29 | 2:58.42 | 133679 | 147070
12 | 32:40.71 | 2:52.59 | 147071 | 160029
13 | 35:33.55 | 3:13.14 | 160030 | 174518
14 | 38:46.69 | 2:51.48 | 174519 | 187391
15 | 41:38.42 | 2:51.62 | 187392 | 200278
16 | 44:30.29 | 2:39.50 | 200279 | 212253
17 | 47:10.04 | 2:53.60 | 212254 | 225288
18 | 50:03.64 | 3:05.12 | 225289 | 239175
19 | 53:09.01 | 2:56.32 | 239176 | 252407
20 | 56:05.33 | 2:19.58 | 252408 | 262890
21 | 58:25.16 | 2:47.56 | 262891 | 275471
22 | 61:12.72 | 3:00.49 | 275472 | 289020
23 | 64:13.46 | 2:52.58 | 289021 | 301978
24 | 67:06.29 | 2:41.15 | 301979 | 314068
25 | 69:47.44 | 3:03.50 | 314069 | 327843


Track 1

Filename C:\temp\01 - Leroy Carr - Barrel House Woman.wav

Pre-gap length 0:00:02.00

Peak level 87.2 %
Extraction speed 2.8 X
Track quality 100.0 %
Test CRC AEB65014
Copy CRC AEB65014
Track not present in AccurateRip database
Copy OK

Track 2

Filename C:\temp\02 - Hattie Hart - I Let My Daddy Do That.wav

Peak level 76.3 %
Extraction speed 2.3 X
Track quality 99.9 %
Test CRC 55373D31
Copy CRC 55373D31
Track not present in AccurateRip database
Copy OK

Track 3

Filename C:\temp\03 - Bob Campbell - Starvation Farm Blues.wav

Peak level 75.4 %
Extraction speed 3.1 X
Track quality 100.0 %
Test CRC 68F834C9
Copy CRC 68F834C9
Track not present in AccurateRip database
Copy OK

Track 4

Filename C:\temp\04 - Leadbelly - Packin' Trunk Blues.wav

Peak level 100.0 %
Extraction speed 3.4 X
Track quality 100.0 %
Test CRC E3C09B71
Copy CRC E3C09B71
Track not present in AccurateRip database
Copy OK

Track 5

Filename C:\temp\05 - Josh White - Black Man.wav

Peak level 100.0 %
Extraction speed 3.6 X
Track quality 100.0 %
Test CRC C7964FAA
Copy CRC C7964FAA
Track not present in AccurateRip database
Copy OK

Track 6

Filename C:\temp\06 - Walter Roland - Penniless Blues.wav

Peak level 78.9 %
Extraction speed 2.9 X
Track quality 99.9 %
Test CRC 362BB3ED
Copy CRC 362BB3ED
Track not present in AccurateRip database
Copy OK

Track 7

Filename C:\temp\07 - Bull City Red - I Saw The Light.wav

Peak level 84.0 %
Extraction speed 3.9 X
Track quality 100.0 %
Test CRC 78FE148D
Copy CRC 78FE148D
Track not present in AccurateRip database
Copy OK

Track 8

Filename C:\temp\08 - Roosevelt Sykes - Driving Wheel.wav

Peak level 87.6 %
Extraction speed 4.0 X
Track quality 100.0 %
Test CRC 56C7485E
Copy CRC 56C7485E
Track not present in AccurateRip database
Copy OK

Track 9

Filename C:\temp\09 - Peetie Wheatstraw - Coon Can Shorty.wav

Peak level 73.7 %
Extraction speed 3.2 X
Track quality 99.9 %
Test CRC 2DF6B8F8
Copy CRC 2DF6B8F8
Track not present in AccurateRip database
Copy OK

Track 10

Filename C:\temp\10 - Sam Montgomery - Mercy Mercy Blues.wav

Peak level 81.1 %
Extraction speed 3.1 X
Track quality 99.9 %
Test CRC 2A586A40
Copy CRC 2A586A40
Track not present in AccurateRip database
Copy OK

Track 11

Filename C:\temp\11 - Sleepy John Estes - Hobo Jungle Blues.wav

Peak level 77.5 %
Extraction speed 4.4 X
Track quality 100.0 %
Test CRC 8C506CAC
Copy CRC 8C506CAC
Track not present in AccurateRip database
Copy OK

Track 12

Filename C:\temp\12 - Charlie Pickett - Let Me Squeeze Your Lemon.wav

Peak level 94.2 %
Extraction speed 4.6 X
Track quality 100.0 %
Test CRC D0425A78
Copy CRC D0425A78
Track not present in AccurateRip database
Copy OK

Track 13

Filename C:\temp\13 - Rosetta Howard - If You're A Viper.wav

Peak level 67.4 %
Extraction speed 3.6 X
Track quality 99.9 %
Test CRC BF03B246
Copy CRC BF03B246
Track not present in AccurateRip database
Copy OK

Track 14

Filename C:\temp\14 - Pete Johnson - Roll 'Em Pete.wav

Peak level 71.2 %
Extraction speed 3.6 X
Track quality 99.9 %
Test CRC 79425722
Copy CRC 79425722
Track not present in AccurateRip database
Copy OK

Track 15

Filename C:\temp\15 - Blind Boy Fuller - Shake It, Baby.wav

Peak level 77.5 %
Extraction speed 4.8 X
Track quality 100.0 %
Test CRC B30A0F54
Copy CRC B30A0F54
Track not present in AccurateRip database
Copy OK

Track 16

Filename C:\temp\16 - Ollie Shepard - Throw This Dog A Bone.wav

Peak level 77.9 %
Extraction speed 3.6 X
Track quality 99.9 %
Test CRC CB2988B1
Copy CRC CB2988B1
Track not present in AccurateRip database
Copy OK

Track 17

Filename C:\temp\17 - Brownie McGhee - I'm A Black Woman's Man.wav

Peak level 100.0 %
Extraction speed 5.0 X
Track quality 100.0 %
Test CRC 6C9E9DBF
Copy CRC 6C9E9DBF
Track not present in AccurateRip database
Copy OK

Track 18

Filename C:\temp\18 - Gabriel Brown - You Ain't No Good.wav

Peak level 83.9 %
Extraction speed 5.2 X
Track quality 100.0 %
Test CRC A9B6CB36
Copy CRC A9B6CB36
Track not present in AccurateRip database
Copy OK

Track 19

Filename C:\temp\19 - Boy Green - Play My Jukebox.wav

Peak level 66.0 %
Extraction speed 5.3 X
Track quality 100.0 %
Test CRC AA027E52
Copy CRC AA027E52
Track not present in AccurateRip database
Copy OK

Track 20

Filename C:\temp\20 - Guitar Slim and Jelly Belly - No More Hard Times.wav

Peak level 73.0 %
Extraction speed 3.7 X
Track quality 99.9 %
Test CRC AD539AAE
Copy CRC AD539AAE
Track not present in AccurateRip database
Copy OK

Track 21

Filename C:\temp\21 - Little Boy Fuller (Rich Trice) - Bed Springs Blues.wav

Peak level 83.9 %
Extraction speed 5.4 X
Track quality 100.0 %
Test CRC 86A135CA
Copy CRC 86A135CA
Track not present in AccurateRip database
Copy OK

Track 22

Filename C:\temp\22 - Sonny Terry - Custard Pie Blues.wav

Peak level 100.0 %
Extraction speed 5.6 X
Track quality 100.0 %
Test CRC 12CA5BC2
Copy CRC 12CA5BC2
Track not present in AccurateRip database
Copy OK

Track 23

Filename C:\temp\23 - Hank Kilroy - Harlem Women.wav

Peak level 70.9 %
Extraction speed 5.8 X
Track quality 100.0 %
Test CRC 14914835
Copy CRC 14914835
Track not present in AccurateRip database
Copy OK

Track 24

Filename C:\temp\24 - Ralph Willis - Christmas Blues.wav

Peak level 64.5 %
Extraction speed 5.6 X
Track quality 100.0 %
Test CRC 15C020F2
Copy CRC 15C020F2
Track not present in AccurateRip database
Copy OK

Track 25

Filename C:\temp\25 - Johnny Moore's Three Blazers - How Blue Can You Get.wav

Peak level 56.7 %
Extraction speed 5.9 X
Track quality 100.0 %
Test CRC 063D9D3F
Copy CRC 063D9D3F
Track not present in AccurateRip database
Copy OK


None of the tracks are present in the AccurateRip database

No errors occurred

End of status report

==== Log checksum 2B4D03ECF0FDFD52BFD394043C1D288BF333356ECEE4320AA83F2AC81862B06B ====
Exact Audio Copy V1.0 beta 3 from 29. August 2011

EAC extraction logfile from 3. November 2012, 17:12

Various Artists / Let Me Tell You About the Blues, New York [Disc 3 of 3]

Used drive : HL-DT-STDVDRAM GT51N Adapter: 0 ID: 1

Read mode : Secure
Utilize accurate stream : Yes
Defeat audio cache : Yes
Make use of C2 pointers : No

Read offset correction : 103
Overread into Lead-In and Lead-Out : No
Fill up missing offset samples with silence : Yes
Delete leading and trailing silent blocks : No
Null samples used in CRC calculations : Yes
Used interface : Native Win32 interface for Win NT & 2000
Gap handling : Appended to previous track

Used output format : User Defined Encoder
Selected bitrate : 32 kBit/s
Quality : High
Add ID3 tag : No
Command line compressor : C:\Exact Audio Copy\FLAC\FLAC.EXE
Additional command line options : -5 -V -T "ARTIST=%artist%" -T "TITLE=%title%" -T "ALBUM=%albumtitle%" -T "DATE=%year%" -T "TRACKNUMBER=%tracknr%" -T "TOTALTRACKS=%numtracks%" -T "GENRE=%genre%" -T "ALBUM ARTIST=%albumartist%" -T "ALBUMARTIST=%albumartist%" -T "COMMENT=Secure Mode, Test and Copy, AccurateRip, FLAC -5" %source%


TOC of the extracted CD

Track | Start | Length | Start sector | End sector
––––––––––––––––––––––––––––-
1 | 0:00.00 | 2:57.29 | 0 | 13303
2 | 2:57.29 | 2:25.66 | 13304 | 24244
3 | 5:23.20 | 3:01.11 | 24245 | 37830
4 | 8:24.31 | 2:19.36 | 37831 | 48291
5 | 10:43.67 | 2:31.26 | 48292 | 59642
6 | 13:15.18 | 2:47.49 | 59643 | 72216
7 | 16:02.67 | 2:15.28 | 72217 | 82369
8 | 18:18.20 | 2:41.51 | 82370 | 94495
9 | 20:59.71 | 2:59.26 | 94496 | 107946
10 | 23:59.22 | 2:14.66 | 107947 | 118062
11 | 26:14.13 | 2:44.64 | 118063 | 130426
12 | 28:59.02 | 2:23.31 | 130427 | 141182
13 | 31:22.33 | 2:24.04 | 141183 | 151986
14 | 33:46.37 | 2:55.62 | 151987 | 165173
15 | 36:42.24 | 2:23.49 | 165174 | 175947
16 | 39:05.73 | 3:00.39 | 175948 | 189486
17 | 42:06.37 | 2:54.72 | 189487 | 202608
18 | 45:01.34 | 2:22.51 | 202609 | 213309
19 | 47:24.10 | 2:40.24 | 213310 | 225333
20 | 50:04.34 | 2:37.01 | 225334 | 237109
21 | 52:41.35 | 2:24.12 | 237110 | 247921
22 | 55:05.47 | 2:30.18 | 247922 | 259189
23 | 57:35.65 | 2:19.45 | 259190 | 269659
24 | 59:55.35 | 3:05.45 | 269660 | 283579
25 | 63:01.05 | 2:47.39 | 283580 | 296143


Track 1

Filename C:\temp\01 - Stick McGhee - Drank Up All The Wine Last Night.wav

Pre-gap length 0:00:02.00

Peak level 99.9 %
Extraction speed 2.8 X
Track quality 100.0 %
Test CRC 9C1C0E1E
Copy CRC 9C1C0E1E
Track not present in AccurateRip database
Copy OK

Track 2

Filename C:\temp\02 - Leroy Dallas - Your Sweet Man's Blues.wav

Peak level 100.0 %
Extraction speed 2.9 X
Track quality 100.0 %
Test CRC 22B38075
Copy CRC 22B38075
Track not present in AccurateRip database
Copy OK

Track 3

Filename C:\temp\03 - Grant Jones - They Call Me Mr Blues.wav

Peak level 74.4 %
Extraction speed 3.2 X
Track quality 100.0 %
Test CRC 7CF9D6C4
Copy CRC 7CF9D6C4
Track not present in AccurateRip database
Copy OK

Track 4

Filename C:\temp\04 - Duke Bayou and his Mystic Six - Rub A Little Boogie.wav

Peak level 60.7 %
Extraction speed 3.3 X
Track quality 100.0 %
Test CRC 53D7AE0A
Copy CRC 53D7AE0A
Track not present in AccurateRip database
Copy OK

Track 5

Filename C:\temp\05 - Curley Weaver - Some Rainy Day.wav

Peak level 76.6 %
Extraction speed 3.4 X
Track quality 100.0 %
Test CRC 5486D1C5
Copy CRC 5486D1C5
Track not present in AccurateRip database
Copy OK

Track 6

Filename C:\temp\06 - Brownie McGhee - I'm Gonna Move Cross The River.wav

Peak level 100.0 %
Extraction speed 2.8 X
Track quality 99.9 %
Test CRC 82F3CA7B
Copy CRC 82F3CA7B
Track not present in AccurateRip database
Copy OK

Track 7

Filename C:\temp\07 - H-Bomb Ferguson - Preachin' The Blues.wav

Peak level 72.9 %
Extraction speed 3.6 X
Track quality 100.0 %
Test CRC 88189EEC
Copy CRC 88189EEC
Track not present in AccurateRip database
Copy OK

Track 8

Filename C:\temp\08 - Danny 'Run Joe' Taylor - Coffee Daddy Blues.wav

Peak level 100.0 %
Extraction speed 2.9 X
Track quality 99.9 %
Test CRC 18D67E6D
Copy CRC 18D67E6D
Track not present in AccurateRip database
Copy OK

Track 9

Filename C:\temp\09 - Country Paul - Side Walk Boogie.wav

Peak level 77.8 %
Extraction speed 4.2 X
Track quality 100.0 %
Test CRC C979A3FD
Copy CRC C979A3FD
Track not present in AccurateRip database
Copy OK

Track 10

Filename C:\temp\10 - Bob Gaddy and his Alley Cats - I (Believe You Got A Side Kick).wav

Peak level 90.7 %
Extraction speed 4.0 X
Track quality 100.0 %
Test CRC BB0A3791
Copy CRC BB0A3791
Track not present in AccurateRip database
Copy OK

Track 11

Filename C:\temp\11 - Little Bobby Harris - Love, Love, Love.wav

Peak level 84.1 %
Extraction speed 4.3 X
Track quality 100.0 %
Test CRC 3445ECD6
Copy CRC 3445ECD6
Track not present in AccurateRip database
Copy OK

Track 12

Filename C:\temp\12 - Little Esther - Sit Back Down.wav

Peak level 83.3 %
Extraction speed 3.1 X
Track quality 99.9 %
Test CRC FC5D222D
Copy CRC FC5D222D
Track not present in AccurateRip database
Copy OK

Track 13

Filename C:\temp\13 - Square Walton - Pepper Head Woman.wav

Peak level 90.4 %
Extraction speed 3.2 X
Track quality 99.9 %
Test CRC 2473858B
Copy CRC 2473858B
Track not present in AccurateRip database
Copy OK

Track 14

Filename C:\temp\14 - Chuck Willis - I Feel So Bad.wav

Peak level 89.1 %
Extraction speed 4.6 X
Track quality 100.0 %
Test CRC 247E99E1
Copy CRC 247E99E1
Track not present in AccurateRip database
Copy OK

Track 15

Filename C:\temp\15 - Margie Day - Take Out Your False Teeth Daddy.wav

Peak level 68.1 %
Extraction speed 4.6 X
Track quality 100.0 %
Test CRC A5223F6A
Copy CRC A5223F6A
Track not present in AccurateRip database
Copy OK

Track 16

Filename C:\temp\16 - Larry Dale - Midnight Hours.wav

Peak level 47.0 %
Extraction speed 4.9 X
Track quality 100.0 %
Test CRC 3C8518D0
Copy CRC 3C8518D0
Track not present in AccurateRip database
Copy OK

Track 17

Filename C:\temp\17 - Big Maybelle - One Monkey Don't Stop No Show.wav

Peak level 63.6 %
Extraction speed 3.8 X
Track quality 99.9 %
Test CRC DFD12C64
Copy CRC DFD12C64
Track not present in AccurateRip database
Copy OK

Track 18

Filename C:\temp\18 - Tiny Kennedy - Country Boy.wav

Peak level 54.5 %
Extraction speed 4.9 X
Track quality 100.0 %
Test CRC DCC5992C
Copy CRC DCC5992C
Track not present in AccurateRip database
Copy OK

Track 19

Filename C:\temp\19 - Mr Bear and the Bearcats - I'm Gonna Keep My Good Eye On You.wav

Peak level 55.4 %
Extraction speed 3.8 X
Track quality 99.9 %
Test CRC 0B392252
Copy CRC 0B392252
Track not present in AccurateRip database
Copy OK

Track 20

Filename C:\temp\20 - Sonny Terry - Ride And Roll.wav

Peak level 78.6 %
Extraction speed 3.8 X
Track quality 99.9 %
Test CRC 1A7CA7E8
Copy CRC 1A7CA7E8
Track not present in AccurateRip database
Copy OK

Track 21

Filename C:\temp\21 - Big Connie - Mumbles Blues.wav

Peak level 47.6 %
Extraction speed 5.3 X
Track quality 100.0 %
Test CRC 85B6A2FE
Copy CRC 85B6A2FE
Track not present in AccurateRip database
Copy OK

Track 22

Filename C:\temp\22 - Screamin' Jay Hawkins - I Put A Spell On You.wav

Peak level 68.0 %
Extraction speed 5.1 X
Track quality 100.0 %
Test CRC 012369BF
Copy CRC 012369BF
Track not present in AccurateRip database
Copy OK

Track 23

Filename C:\temp\23 - Hurricane Harry - The Last Meal.wav

Peak level 100.0 %
Extraction speed 5.5 X
Track quality 100.0 %
Test CRC 1F1B3532
Copy CRC 1F1B3532
Track not present in AccurateRip database
Copy OK

Track 24

Filename C:\temp\24 - Champion Jack Dupree - Just Like A Woman.wav

Peak level 63.2 %
Extraction speed 3.9 X
Track quality 99.9 %
Test CRC 77AA138B
Copy CRC 77AA138B
Track not present in AccurateRip database
Copy OK

Track 25

Filename C:\temp\25 - Cousin Leroy - Waitin' At The Station.wav

Peak level 74.2 %
Extraction speed 4.9 X
Track quality 100.0 %
Test CRC ED2EF61D
Copy CRC ED2EF61D
Track not present in AccurateRip database
Copy OK


None of the tracks are present in the AccurateRip database

No errors occurred

End of status report

==== Log checksum C77F14B23A01E92F4216292FF5D039807D2633AF147723F75A7980B16BC9B772 ====


Various Artists - Let Me Tell You About The Blues - New York: The Evolution Of New York Blues (2009) {3 CD Box Set}


NEXT -> more Let Me Tell You About The Blues series on the way…

see more Let Me Tell You About The Blues Series…


===