Subcategories

VA - MOM: Music For Our Mother Ocean (1996)

Posted By: delpotro
VA - MOM: Music For Our Mother Ocean (1996)

VA - MOM: Music For Our Mother Ocean (1996)
EAC Rip | FLAC (tracks+log+.cue) | 01:12:27 | 482 Mb
Alternative Rock, Punk Rock | Label: Surfdog Records, Interscope Records

MOM: Music for Our Mother Ocean is a series of three compilations produced by Surfdog Records to benefit the Surfrider Foundation. The albums feature original songs as well as covers – many sharing a surfing or summer theme – by a range of popular artists.


A bizarre hodge-podge collection comprised of mid-'90s modern and alternative rockers, MOM: Music for Our Mother Ocean is a benefit album for the conservation society the Surfrider Foundation. Perhaps taking a cue from the organization it is intended to help, MOM isn't as sanctimonious or preachy as other benefit albums – it's good intentions are an undercurrent on the album, not the overriding concern. Some bands – particularly Pearl Jam, who tears through the surf/hot-rod obscurity, "Gremmie Out of Control" by the Silly Surfers – play for fun and laughs, while others – notably Helmet, who turn in a lunkheaded cover of Bjork's "Army of Me" – take things a bit too seriously. Still, MOM: Music for Our Mother Ocean is a fun listen, even if it isn't a memorable one.
Tracklist:
01 - The Chumash People - Intro (ancient dolphin dance)
02 - Sprung Monkey - Good Times
03 - Pearl Jam - Gremmie Out of Control
04 - Brian Setzer Orchestra - Honky Tonk
05 - Ramones - California Sun
06 - Porno For Pyros - Bali Eyes
07 - Pennywise - Surfin' USA
08 - Silverchair - Surfin' Bird
09 - Gary Hoey with Donavon Frankenreiter - Wipeout
10 - Common Sense - Never Give Up
11 - The Reverend Horton Heat - I Can't Surf
12 - Pato Banton and The Reggae Revolution - Mama Nature
13 - Primus - Mr. Know It All
14 - No Doubt - Sailin' On
15 - Helmet - Army of Me
16 - Soundgarden - My Wave
17 - Jewel - Quiet Warrior
18 - Everclear - Hateful
19 - 7 Mary 3 - Blackwing
20 - Beastie Boys - Netty's Girl
21 - Sublime - Bad Fish
22 - Blink-182 - Waggy
23 - Mikaele Opio - Mahalo Ke Akua (Closing)

Exact Audio Copy V1.0 beta 3 from 29. August 2011

EAC extraction logfile from 4. December 2016, 9:02

Various Artists / MOM - Music For Our Mother Ocean

Used drive : HP BD Combo 240d Adapter: 1 ID: 0

Read mode : Secure
Utilize accurate stream : Yes
Defeat audio cache : Yes
Make use of C2 pointers : No

Read offset correction : 6
Overread into Lead-In and Lead-Out : No
Fill up missing offset samples with silence : Yes
Delete leading and trailing silent blocks : No
Null samples used in CRC calculations : Yes
Used interface : Native Win32 interface for Win NT & 2000
Gap handling : Appended to previous track

Used output format : User Defined Encoder
Selected bitrate : 128 kBit/s
Quality : High
Add ID3 tag : No
Command line compressor : C:\Program Files (x86)\Exact Audio Copy\Flac\flac.exe
Additional command line options : -8 -e -p -V -T "ARTIST=%artist%" -T "TITLE=%title%" -T "ALBUM=%albumtitle%" -T "DATE=%year%" -T "TRACKNUMBER=%tracknr%" -T "GENRE=%genre%" -T "PERFORMER=%albuminterpret%" -T "COMPOSER=%composer%" %haslyrics%–tag-from-file=LYRICS="%lyricsfile%"%haslyrics% -T "ALBUMARTIST=%albumartist%" -T "DISCNUMBER=%cdnumber%" -T "TOTALDISCS=%totalcds%" -T "TOTALTRACKS=%numtracks%" -T "COMMENT=%comment%" %source% -o %dest%


TOC of the extracted CD

Track | Start | Length | Start sector | End sector
––––––––––––––––––––––––––––-
1 | 0:00.00 | 0:18.52 | 0 | 1401
2 | 0:18.52 | 2:56.18 | 1402 | 14619
3 | 3:14.70 | 2:24.50 | 14620 | 25469
4 | 5:39.45 | 4:29.32 | 25470 | 45676
5 | 10:09.02 | 1:47.45 | 45677 | 53746
6 | 11:56.47 | 3:26.48 | 53747 | 69244
7 | 15:23.20 | 1:44.25 | 69245 | 77069
8 | 17:07.45 | 2:20.52 | 77070 | 87621
9 | 19:28.22 | 3:30.65 | 87622 | 103436
10 | 22:59.12 | 4:17.70 | 103437 | 122781
11 | 27:17.07 | 2:40.25 | 122782 | 134806
12 | 29:57.32 | 4:28.50 | 134807 | 154956
13 | 34:26.07 | 4:23.03 | 154957 | 174684
14 | 38:49.10 | 3:35.15 | 174685 | 190824
15 | 42:24.25 | 4:28.52 | 190825 | 210976
16 | 46:53.02 | 5:11.70 | 210977 | 234371
17 | 52:04.72 | 4:07.50 | 234372 | 252946
18 | 56:12.47 | 1:36.38 | 252947 | 260184
19 | 57:49.10 | 3:47.40 | 260185 | 277249
20 | 61:36.50 | 3:29.00 | 277250 | 292924
21 | 65:05.50 | 3:05.62 | 292925 | 306861
22 | 68:11.37 | 2:54.23 | 306862 | 319934
23 | 71:05.60 | 1:21.35 | 319935 | 326044


Track 1

Filename C:\Music\Various Artists\1996 - Various Artists - MOM- Music For Our Mother Ocean [FLAC]\01 - The Chumash People - Intro (ancient dolphin dance).wav

Pre-gap length 0:00:02.00

Peak level 38.0 %
Extraction speed 1.5 X
Track quality 100.0 %
Test CRC 7711305F
Copy CRC 7711305F
Accurately ripped (confidence 3) [9BE4F25E] (AR v2)
Copy OK

Track 2

Filename C:\Music\Various Artists\1996 - Various Artists - MOM- Music For Our Mother Ocean [FLAC]\02 - Sprung Monkey - Good Times.wav

Peak level 100.0 %
Extraction speed 3.8 X
Track quality 100.0 %
Test CRC 72663358
Copy CRC 72663358
Accurately ripped (confidence 3) [A04C80F2] (AR v2)
Copy OK

Track 3

Filename C:\Music\Various Artists\1996 - Various Artists - MOM- Music For Our Mother Ocean [FLAC]\03 - Pearl Jam - Gremmie Out of Control.wav

Peak level 94.4 %
Extraction speed 3.9 X
Track quality 100.0 %
Test CRC D81136E5
Copy CRC D81136E5
Accurately ripped (confidence 3) [519FDDDC] (AR v2)
Copy OK

Track 4

Filename C:\Music\Various Artists\1996 - Various Artists - MOM- Music For Our Mother Ocean [FLAC]\04 - Brian Setzer Orchestra - Honky Tonk.wav

Peak level 97.7 %
Extraction speed 4.5 X
Track quality 100.0 %
Test CRC E7A3FCC3
Copy CRC E7A3FCC3
Accurately ripped (confidence 3) [DA6B4A79] (AR v2)
Copy OK

Track 5

Filename C:\Music\Various Artists\1996 - Various Artists - MOM- Music For Our Mother Ocean [FLAC]\05 - Ramones - California Sun.wav

Peak level 97.6 %
Extraction speed 4.1 X
Track quality 100.0 %
Test CRC 4B77628E
Copy CRC 4B77628E
Accurately ripped (confidence 3) [CB08354F] (AR v2)
Copy OK

Track 6

Filename C:\Music\Various Artists\1996 - Various Artists - MOM- Music For Our Mother Ocean [FLAC]\06 - Porno For Pyros - Bali Eyes.wav

Peak level 97.7 %
Extraction speed 4.8 X
Track quality 100.0 %
Test CRC A4C94515
Copy CRC A4C94515
Accurately ripped (confidence 3) [691AC85F] (AR v2)
Copy OK

Track 7

Filename C:\Music\Various Artists\1996 - Various Artists - MOM- Music For Our Mother Ocean [FLAC]\07 - Pennywise - Surfin' USA.wav

Peak level 95.4 %
Extraction speed 4.4 X
Track quality 100.0 %
Test CRC 6D49EC2D
Copy CRC 6D49EC2D
Accurately ripped (confidence 3) [F269ED9D] (AR v2)
Copy OK

Track 8

Filename C:\Music\Various Artists\1996 - Various Artists - MOM- Music For Our Mother Ocean [FLAC]\08 - Silverchair - Surfin' Bird.wav

Peak level 92.2 %
Extraction speed 4.8 X
Track quality 100.0 %
Test CRC AE912E5D
Copy CRC AE912E5D
Accurately ripped (confidence 3) [D77B4538] (AR v2)
Copy OK

Track 9

Filename C:\Music\Various Artists\1996 - Various Artists - MOM- Music For Our Mother Ocean [FLAC]\09 - Gary Hoey with Donavon Frankenreiter - Wipeout.wav

Peak level 96.6 %
Extraction speed 5.4 X
Track quality 100.0 %
Test CRC D9F1CB13
Copy CRC D9F1CB13
Accurately ripped (confidence 3) [8CFF8CAD] (AR v2)
Copy OK

Track 10

Filename C:\Music\Various Artists\1996 - Various Artists - MOM- Music For Our Mother Ocean [FLAC]\10 - Common Sense - Never Give Up.wav

Peak level 93.0 %
Extraction speed 5.2 X
Track quality 99.9 %
Test CRC 13454BB0
Copy CRC 13454BB0
Accurately ripped (confidence 3) [D3EA084A] (AR v2)
Copy OK

Track 11

Filename C:\Music\Various Artists\1996 - Various Artists - MOM- Music For Our Mother Ocean [FLAC]\11 - The Reverend Horton Heat - I Can't Surf.wav

Peak level 94.4 %
Extraction speed 4.8 X
Track quality 99.9 %
Test CRC 8E9D1F93
Copy CRC 8E9D1F93
Accurately ripped (confidence 3) [814BCEAC] (AR v2)
Copy OK

Track 12

Filename C:\Music\Various Artists\1996 - Various Artists - MOM- Music For Our Mother Ocean [FLAC]\12 - Pato Banton and The Reggae Revolution - Mama Nature.wav

Peak level 97.7 %
Extraction speed 6.3 X
Track quality 100.0 %
Test CRC 02E47700
Copy CRC 02E47700
Accurately ripped (confidence 3) [E4F00DB7] (AR v2)
Copy OK

Track 13

Filename C:\Music\Various Artists\1996 - Various Artists - MOM- Music For Our Mother Ocean [FLAC]\13 - Primus - Mr. Know It All.wav

Peak level 92.2 %
Extraction speed 6.5 X
Track quality 100.0 %
Test CRC 1AB80E66
Copy CRC 1AB80E66
Accurately ripped (confidence 3) [AF3B4F58] (AR v2)
Copy OK

Track 14

Filename C:\Music\Various Artists\1996 - Various Artists - MOM- Music For Our Mother Ocean [FLAC]\14 - No Doubt - Sailin' On.wav

Peak level 92.2 %
Extraction speed 6.5 X
Track quality 100.0 %
Test CRC 87ACD2AC
Copy CRC 87ACD2AC
Accurately ripped (confidence 3) [064E0496] (AR v2)
Copy OK

Track 15

Filename C:\Music\Various Artists\1996 - Various Artists - MOM- Music For Our Mother Ocean [FLAC]\15 - Helmet - Army of Me.wav

Peak level 92.2 %
Extraction speed 6.0 X
Track quality 99.9 %
Test CRC A25CC3AC
Copy CRC A25CC3AC
Cannot be verified as accurate (confidence 8) [F9188C52], AccurateRip returned [8FC84F8E] (AR v2)
Copy OK

Track 16

Filename C:\Music\Various Artists\1996 - Various Artists - MOM- Music For Our Mother Ocean [FLAC]\16 - Soundgarden - My Wave.wav

Peak level 97.6 %
Extraction speed 7.4 X
Track quality 100.0 %
Test CRC 27A75048
Copy CRC 27A75048
Accurately ripped (confidence 3) [1CC7125E] (AR v2)
Copy OK

Track 17

Filename C:\Music\Various Artists\1996 - Various Artists - MOM- Music For Our Mother Ocean [FLAC]\17 - Jewel - Quiet Warrior.wav

Peak level 97.7 %
Extraction speed 6.6 X
Track quality 99.9 %
Test CRC 97F4F615
Copy CRC 97F4F615
Accurately ripped (confidence 3) [713EF15C] (AR v2)
Copy OK

Track 18

Filename C:\Music\Various Artists\1996 - Various Artists - MOM- Music For Our Mother Ocean [FLAC]\18 - Everclear - Hateful.wav

Peak level 92.2 %
Extraction speed 6.1 X
Track quality 100.0 %
Test CRC 6E94F1E7
Copy CRC 6E94F1E7
Accurately ripped (confidence 3) [49C73890] (AR v2)
Copy OK

Track 19

Filename C:\Music\Various Artists\1996 - Various Artists - MOM- Music For Our Mother Ocean [FLAC]\19 - 7 Mary 3 - Blackwing.wav

Peak level 92.2 %
Extraction speed 7.5 X
Track quality 100.0 %
Test CRC B549AABD
Copy CRC B549AABD
Accurately ripped (confidence 3) [7E1429BD] (AR v2)
Copy OK

Track 20

Filename C:\Music\Various Artists\1996 - Various Artists - MOM- Music For Our Mother Ocean [FLAC]\20 - Beastie Boys - Netty's Girl.wav

Peak level 97.7 %
Extraction speed 7.6 X
Track quality 100.0 %
Test CRC DD5CB734
Copy CRC DD5CB734
Accurately ripped (confidence 3) [134B1528] (AR v2)
Copy OK

Track 21

Filename C:\Music\Various Artists\1996 - Various Artists - MOM- Music For Our Mother Ocean [FLAC]\21 - Sublime - Bad Fish.wav

Peak level 89.2 %
Extraction speed 7.6 X
Track quality 100.0 %
Test CRC C280D7C0
Copy CRC C280D7C0
Accurately ripped (confidence 3) [95C2FACC] (AR v2)
Copy OK

Track 22

Filename C:\Music\Various Artists\1996 - Various Artists - MOM- Music For Our Mother Ocean [FLAC]\22 - Blink-182 - Waggy.wav

Peak level 92.2 %
Extraction speed 6.5 X
Track quality 99.9 %
Test CRC F63A242A
Copy CRC F63A242A
Accurately ripped (confidence 3) [F96199FE] (AR v2)
Copy OK

Track 23

Filename C:\Music\Various Artists\1996 - Various Artists - MOM- Music For Our Mother Ocean [FLAC]\23 - Mikaele Opio - Mahalo Ke Akua (Closing).wav

Pre-gap length 0:00:01.30

Peak level 38.6 %
Extraction speed 6.3 X
Track quality 100.0 %
Test CRC 3C98B0AA
Copy CRC 3C98B0AA
Accurately ripped (confidence 3) [D74B3DBC] (AR v2)
Copy OK


22 track(s) accurately ripped
1 track(s) could not be verified as accurate

Some tracks could not be verified as accurate

No errors occurred

End of status report

–– CUETools DB Plugin V2.1.3

[CTDB TOCID: Osa7H.l1osO2rf.2hEVev0hSe4w-] found, Submit result: Osa7H.l1osO2rf.2hEVev0hSe4w- has been submitted
[e3664d94] (08/10) Differs in 1064 samples @20:53:21-20:53:23,43:23:19-43:23:20
[3b19da0e] (01/10) No match
[ca9a2ff5] (01/10) No match
You can use CUETools to repair this rip.


==== Log checksum 72B1E635BEFB3F367E21DAB1FAF41ECF52EC97FF17F2CBDA7A3AD9E361E985D6 ====

Thanks to the Original ripper Creator !