Subcategories

VA - The Mother Of All Flagpole Christmas Albums (1992)

Posted By: delpotro
VA - The Mother Of All Flagpole Christmas Albums (1992)

VA - The Mother Of All Flagpole Christmas Albums (1992)
EAC Rip | FLAC (tracks+log+.cue) | 01:14:21 | 459 Mb
Alternative Rock, Pop Rock, Pop, Xmas | Label: Long Play Records

Culled from three Christmas tapes released by Flagpole magazine, this CD includes performances recorded between 1990-92 by 21 Atlanta, and Athens, GA. bands. Most of the songs are diverse "alternative" originals, but there's also a bizarre guitar/sax duet of "Jingle Bells" from The Flat Duo Jets, a cover of Spinal Tap's "Christmas with the Devil" by Allgood, an okay version of The Sonics' "Santa Claus" by The Woggles, "You're a Mean One, Mr. Grinch" from The La Brea Stompers, and more spotty fun.
Tracklist:
1 Deacon Lunchbox -Introduction
2 Follow For Now -Santa's Hard
3 Kevn Kinney -Thomas Tinsel's Holiday
4 Bliss -Santa Vs Magneto
5 Michelle Malone -Santa Baby
6 The Woggles -Santa Claus
7 Flat Duo Jets -Jingle Bells
8 Dreams So Real -Learn To Love Again
9 Widespread Panic -Papa's Home
10 Daisy -Here Comes Christmas
11 Labrea Stompers -You're A Mean One Mr. Grinch
12 Seersucker - Santa Claus, Go Straight To The Ghetto
13 Hear It Love It Dance It -Snowflakes Are Falling
14 BloodKin -Christmas In August
15 Five Eight -Just Think About Christmas (And Sing What You Want)
16 Bill Taft -O Magnum Mysterium
17 Marlee MacLeod -No Vacancy
18 Opal Foxx -On Christmas Day
19 Hetch Hetchy -Candles And Miracles
20 Porn Orchard -This Holiday Season
21 Allgood -Christmas With The Devil
22 Vic Chesnutt -White Christmas

Exact Audio Copy V1.0 beta 3 from 29. August 2011

EAC extraction logfile from 10. April 2015, 20:58

Various / The Mother Of All Flagpole Christmas Albums

Used drive : PBDS CD-ROM DH-48N1S Adapter: 3 ID: 0

Read mode : Secure
Utilize accurate stream : Yes
Defeat audio cache : Yes
Make use of C2 pointers : No

Read offset correction : 6
Overread into Lead-In and Lead-Out : No
Fill up missing offset samples with silence : Yes
Delete leading and trailing silent blocks : No
Null samples used in CRC calculations : Yes
Used interface : Native Win32 interface for Win NT & 2000
Gap handling : Appended to previous track

Used output format : User Defined Encoder
Selected bitrate : 768 kBit/s
Quality : High
Add ID3 tag : No
Command line compressor : C:\Program Files (x86)\Exact Audio Copy\FLAC\FLAC.EXE
Additional command line options : -8 -V -T "ARTIST=%artist%" -T "TITLE=%title%" -T "ALBUM=%albumtitle%" -T "DATE=%year%" -T "TRACKNUMBER=%tracknr%" -T "GENRE=%genre%" -T "COMMENT=%comment%" -T "BAND=%albuminterpret%" -T "ALBUMARTIST=%albuminterpret%" -T "COMPOSER=%composer%" %haslyrics%–tag-from-file=LYRICS="%lyricsfile%"%haslyrics% -T "DISCNUMBER=%cdnumber%" -T "TOTALDISCS=%totalcds%" -T "TOTALTRACKS=%numtracks%" %hascover%–picture="%coverfile%"%hascover% %source% -o %dest%


TOC of the extracted CD

Track | Start | Length | Start sector | End sector
––––––––––––––––––––––––––––-
1 | 0:00.00 | 0:55.15 | 0 | 4139
2 | 0:55.15 | 3:28.25 | 4140 | 19764
3 | 4:23.40 | 2:16.02 | 19765 | 29966
4 | 6:39.42 | 4:42.30 | 29967 | 51146
5 | 11:21.72 | 2:51.23 | 51147 | 63994
6 | 14:13.20 | 2:50.25 | 63995 | 76769
7 | 17:03.45 | 2:35.17 | 76770 | 88411
8 | 19:38.62 | 3:33.10 | 88412 | 104396
9 | 23:11.72 | 5:05.28 | 104397 | 127299
10 | 28:17.25 | 3:35.17 | 127300 | 143441
11 | 31:52.42 | 4:56.65 | 143442 | 165706
12 | 36:49.32 | 3:18.48 | 165707 | 180604
13 | 40:08.05 | 3:41.30 | 180605 | 197209
14 | 43:49.35 | 2:55.50 | 197210 | 210384
15 | 46:45.10 | 3:34.62 | 210385 | 226496
16 | 50:19.72 | 1:47.65 | 226497 | 234586
17 | 52:07.62 | 4:12.43 | 234587 | 253529
18 | 56:20.30 | 4:19.25 | 253530 | 272979
19 | 60:39.55 | 2:12.15 | 272980 | 282894
20 | 62:51.70 | 4:03.50 | 282895 | 301169
21 | 66:55.45 | 3:21.12 | 301170 | 316256
22 | 70:16.57 | 4:04.48 | 316257 | 334604


Track 1

Filename C:\EACrips\01 - Deacon Lunchbox - Introduction.wav

Pre-gap length 0:00:02.00

Peak level 70.6 %
Extraction speed 1.3 X
Track quality 100.0 %
Test CRC 5690EC4D
Copy CRC 5690EC4D
Accurately ripped (confidence 1) [791C3331] (AR v2)
Copy OK

Track 2

Filename C:\EACrips\02 - Follow For Now - Santa's Hard.wav

Peak level 93.3 %
Extraction speed 1.9 X
Track quality 100.0 %
Test CRC 2B6C9865
Copy CRC 2B6C9865
Accurately ripped (confidence 1) [C7F0E788] (AR v2)
Copy OK

Track 3

Filename C:\EACrips\03 - Kevn Kinney - Thomas Tinsel's Holiday.wav

Peak level 78.9 %
Extraction speed 1.9 X
Track quality 100.0 %
Test CRC 7035E439
Copy CRC 7035E439
Accurately ripped (confidence 1) [A523CE65] (AR v2)
Copy OK

Track 4

Filename C:\EACrips\04 - Bliss - Santa vs. Magneto.wav

Peak level 94.4 %
Extraction speed 2.3 X
Track quality 100.0 %
Test CRC 6CC24332
Copy CRC 6CC24332
Accurately ripped (confidence 1) [522B3D37] (AR v2)
Copy OK

Track 5

Filename C:\EACrips\05 - Michelle Malone - Santa Baby.wav

Pre-gap length 0:00:01.00

Peak level 82.7 %
Extraction speed 1.9 X
Track quality 99.9 %
Test CRC 67FFBC96
Copy CRC 67FFBC96
Accurately ripped (confidence 1) [1F214DD4] (AR v2)
Copy OK

Track 6

Filename C:\EACrips\06 - The Woggles - Santa Claus.wav

Pre-gap length 0:00:01.26

Peak level 94.4 %
Extraction speed 2.0 X
Track quality 99.9 %
Test CRC 721B2926
Copy CRC 721B2926
Accurately ripped (confidence 1) [BE224904] (AR v2)
Copy OK

Track 7

Filename C:\EACrips\07 - Flat Duo Jets - Jingle Bells.wav

Pre-gap length 0:00:00.60

Peak level 94.4 %
Extraction speed 2.4 X
Track quality 100.0 %
Test CRC 07FE5CFC
Copy CRC 07FE5CFC
Accurately ripped (confidence 1) [E836194C] (AR v2)
Copy OK

Track 8

Filename C:\EACrips\08 - Dreams So Real - Learn To Love Again.wav

Peak level 94.4 %
Extraction speed 2.3 X
Track quality 99.9 %
Test CRC 4B1E474F
Copy CRC 4B1E474F
Accurately ripped (confidence 1) [75270343] (AR v2)
Copy OK

Track 9

Filename C:\EACrips\09 - Widespread Panic - Papa's Home.wav

Pre-gap length 0:00:01.62

Peak level 94.4 %
Extraction speed 3.0 X
Track quality 100.0 %
Test CRC 177F8DCD
Copy CRC 177F8DCD
Accurately ripped (confidence 1) [1E85D26E] (AR v2)
Copy OK

Track 10

Filename C:\EACrips\10 - Daisy - Here Comes Christmas.wav

Peak level 94.4 %
Extraction speed 2.9 X
Track quality 100.0 %
Test CRC 551DB864
Copy CRC 551DB864
Accurately ripped (confidence 1) [2355968B] (AR v2)
Copy OK

Track 11

Filename C:\EACrips\11 - Labrea Stompers - You're A Mean One, Mr. Grinch.wav

Pre-gap length 0:00:01.22

Peak level 94.4 %
Extraction speed 3.2 X
Track quality 100.0 %
Test CRC E757FD8E
Copy CRC E757FD8E
Accurately ripped (confidence 1) [67F8F5A9] (AR v2)
Copy OK

Track 12

Filename C:\EACrips\12 - Seersucker - Santa Claus, Go Straight To The Ghetto.wav

Peak level 89.1 %
Extraction speed 3.2 X
Track quality 100.0 %
Test CRC BF310462
Copy CRC BF310462
Accurately ripped (confidence 1) [3D191654] (AR v2)
Copy OK

Track 13

Filename C:\EACrips\13 - Hear It Love It Dance It - Snowflakes Are Falling.wav

Peak level 89.1 %
Extraction speed 2.9 X
Track quality 99.9 %
Test CRC CE8A1006
Copy CRC CE8A1006
Accurately ripped (confidence 1) [9487EA79] (AR v2)
Copy OK

Track 14

Filename C:\EACrips\14 - Bloodkin - Christmas In August.wav

Pre-gap length 0:00:00.64

Peak level 94.4 %
Extraction speed 3.3 X
Track quality 100.0 %
Test CRC 4F84211C
Copy CRC 4F84211C
Accurately ripped (confidence 1) [496DB82B] (AR v2)
Copy OK

Track 15

Filename C:\EACrips\15 - Five-Eight - Just Think About Christmas.wav

Peak level 94.4 %
Extraction speed 3.4 X
Track quality 100.0 %
Test CRC 890F4378
Copy CRC 890F4378
Accurately ripped (confidence 1) [0C6FA9DA] (AR v2)
Copy OK

Track 16

Filename C:\EACrips\16 - Bill Taft & Kelly Hogan - O Magnum Mysterium.wav

Pre-gap length 0:00:01.29

Peak level 90.6 %
Extraction speed 2.4 X
Track quality 99.9 %
Test CRC 1A807115
Copy CRC 1A807115
Accurately ripped (confidence 1) [FC789DE7] (AR v2)
Copy OK

Track 17

Filename C:\EACrips\17 - Marlee MacLeod - No Vancancy.wav

Peak level 94.4 %
Extraction speed 3.7 X
Track quality 100.0 %
Test CRC FCA54B25
Copy CRC FCA54B25
Accurately ripped (confidence 1) [44700B18] (AR v2)
Copy OK

Track 18

Filename C:\EACrips\18 - The Opal Foxx Quartet - On Christmas Day.wav

Peak level 94.4 %
Extraction speed 3.8 X
Track quality 100.0 %
Test CRC 8DD904D4
Copy CRC 8DD904D4
Accurately ripped (confidence 1) [2E05E498] (AR v2)
Copy OK

Track 19

Filename C:\EACrips\19 - Hetch Hetchy - Candles And Miracles.wav

Pre-gap length 0:00:01.00

Peak level 67.4 %
Extraction speed 3.4 X
Track quality 100.0 %
Test CRC 42799C21
Copy CRC 42799C21
Accurately ripped (confidence 1) [09A04AF5] (AR v2)
Copy OK

Track 20

Filename C:\EACrips\20 - Porn Orchard - This Holiday Season.wav

Peak level 92.9 %
Extraction speed 3.5 X
Track quality 99.9 %
Test CRC 728BFD3B
Copy CRC 728BFD3B
Accurately ripped (confidence 1) [4E20CB9B] (AR v2)
Copy OK

Track 21

Filename C:\EACrips\21 - Allgood - Christmas With The Devil.wav

Peak level 94.4 %
Extraction speed 3.4 X
Track quality 99.9 %
Test CRC C720FB59
Copy CRC C720FB59
Accurately ripped (confidence 1) [1B6325EF] (AR v2)
Copy OK

Track 22

Filename C:\EACrips\22 - Vic Chestnutt - White Christmas.wav

Peak level 94.4 %
Extraction speed 4.1 X
Track quality 100.0 %
Test CRC 6D2B43E0
Copy CRC 6D2B43E0
Accurately ripped (confidence 1) [15FB196D] (AR v2)
Copy OK


All tracks accurately ripped

No errors occurred

End of status report

==== Log checksum E99789592B4031A179C822028FC0F376BC630CB329315C51D7780E1B698CA151 ====

Thanks to the Original ripper leontrotsky !