Subcategories

VA - Now That's What I Call Music! 65 (U.S. series) (2018)

Posted By: delpotro
VA - Now That's What I Call Music! 65 (U.S. series) (2018)

VA - Now That's What I Call Music! 65 (U.S. series) (2018)
EAC Rip | FLAC (tracks+log+.cue) | 01:17:06 | 533 Mb
Pop, Electronic | Label: Universal Music, Sony Music

Now That's What I Call Music! 65 is the 65th edition of the Now That's What I Call Music series in the United States which was released on February 2, 2018, through Universal Music Group and Sony Music Entertainment. The album debuted at number 10 on the US Billboard 200 with 25,000 pure album sales.
Tracklist:
1. Taylor Swift – …Ready for It? (03:26)
2. Demi Lovato – Sorry Not Sorry (03:19)
3. Camila Cabello – Havana (No Rap Version) (02:54)
4. J Balvin & Willy William – Mi Gente (feat. Beyoncé) (03:29)
5. Sofi Tukker – Best Friend (feat. NERVO, The Knocks & Alisa Ueno) (03:01)
6. G-Eazy – No Limit (feat. A$AP Rocky & Cardi B) (04:02)
7. NF – Let You Down (03:23)
8. Post Malone – I Fall Apart (03:40)
9. Khalid – Young Dumb & Broke (03:19)
10. Calvin Harris – Faking It (feat. Kehlani & Lil Yachty) (03:46)
11. Selena Gomez – Wolves (feat. Marshmello) (03:15)
12. Niall Horan – Too Much to Ask (03:41)
13. P!nk – Beautiful Trauma (04:10)
14. Hailee Steinfeld & Alesso – Let Me Go (feat. Florida Georgia Line & watt) (02:54)
15. MAX & gnash – Lights Down Low (03:43)
16. Marshmello – Silence (feat. Khalid) (03:00)
17. Sidibe – Unreachable (NOW What's Next!) (03:52)
18. Jacob Sartorius – Skateboard (NOW What's Next!) (02:47)
19. Olivia Noelle – Made of Gold (NOW What's Next!) (03:28)
20. Eves Karydas – There for You (NOW What's Next!) (04:09)
21. Phantoms – Just a Feeling (NOW What's Next!) [feat. VÉRITÉ] (04:44)
22. Indian Trap – Look Like Monayyy (NOW What's Next!) [feat. Kreszenzia] (02:51)

Exact Audio Copy V1.3 from 2. September 2016

EAC extraction logfile from 3. March 2018, 18:57

Various Artists / Now That's What I Call Music 65

Used drive : HL-DT-STBD-RE WH16NS40 Adapter: 1 ID: 0

Read mode : Secure
Utilize accurate stream : Yes
Defeat audio cache : Yes
Make use of C2 pointers : No

Read offset correction : 6
Overread into Lead-In and Lead-Out : No
Fill up missing offset samples with silence : Yes
Delete leading and trailing silent blocks : No
Null samples used in CRC calculations : Yes
Used interface : Native Win32 interface for Win NT & 2000
Gap handling : Appended to previous track

Used output format : User Defined Encoder
Selected bitrate : 128 kBit/s
Quality : High
Add ID3 tag : No
Command line compressor : G:\Program Files\Exact Audio Copy\Flac\flac.exe
Additional command line options : -8 -e -V -T "ARTIST=%artist%" -T "TITLE=%title%" -T "ALBUM=%albumtitle%" -T "DATE=%year%" -T "TRACKNUMBER=%tracknr%" -T "GENRE=%genre%" -T "PERFORMER=%albuminterpret%" -T "COMPOSER=%composer%" %haslyrics%–tag-from-file=LYRICS="%lyricsfile%"%haslyrics% -T "ALBUMARTIST=%albumartist%" -T "DISCNUMBER=%cdnumber%" -T "TOTALDISCS=%totalcds%" -T "TOTALTRACKS=%numtracks%" -T "COMMENT=%comment%" %source% -o %dest%


TOC of the extracted CD

Track | Start | Length | Start sector | End sector
––––––––––––––––––––––––––––-
1 | 0:00.00 | 3:26.00 | 0 | 15449
2 | 3:26.00 | 3:19.41 | 15450 | 30415
3 | 6:45.41 | 2:54.56 | 30416 | 43521
4 | 9:40.22 | 3:29.28 | 43522 | 59224
5 | 13:09.50 | 3:01.38 | 59225 | 72837
6 | 16:11.13 | 4:02.03 | 72838 | 90990
7 | 20:13.16 | 3:23.02 | 90991 | 106217
8 | 23:36.18 | 3:40.53 | 106218 | 122770
9 | 27:16.71 | 3:19.58 | 122771 | 137753
10 | 30:36.54 | 3:46.04 | 137754 | 154707
11 | 34:22.58 | 3:15.27 | 154708 | 169359
12 | 37:38.10 | 3:41.38 | 169360 | 185972
13 | 41:19.48 | 4:10.40 | 185973 | 204762
14 | 45:30.13 | 2:54.62 | 204763 | 217874
15 | 48:25.00 | 3:43.56 | 217875 | 234655
16 | 52:08.56 | 3:03.70 | 234656 | 248450
17 | 55:12.51 | 3:52.66 | 248451 | 265916
18 | 59:05.42 | 2:47.13 | 265917 | 278454
19 | 61:52.55 | 3:28.43 | 278455 | 294097
20 | 65:21.23 | 4:09.24 | 294098 | 312796
21 | 69:30.47 | 4:44.16 | 312797 | 334112
22 | 74:14.63 | 2:51.69 | 334113 | 347006


Track 1

Filename G:\EACRiPS\VA-Now That's What I Call Music 65-2018-FLAC\01 - Taylor Swift - Ready For It.wav

Pre-gap length 0:00:02.00

Peak level 99.8 %
Extraction speed 3.6 X
Track quality 100.0 %
Test CRC B4B9823D
Copy CRC B4B9823D
Accurately ripped (confidence 2) [BB58F1F6] (AR v2)
Copy OK

Track 2

Filename G:\EACRiPS\VA-Now That's What I Call Music 65-2018-FLAC\02 - Demi Lovato - Sorry Not Sorry.wav

Peak level 99.8 %
Extraction speed 2.4 X
Track quality 99.9 %
Test CRC 5EDEA475
Copy CRC 5EDEA475
Accurately ripped (confidence 2) [15E82E48] (AR v2)
Copy OK

Track 3

Filename G:\EACRiPS\VA-Now That's What I Call Music 65-2018-FLAC\03 - Camila Cabello - Havana.wav

Peak level 99.8 %
Extraction speed 2.3 X
Track quality 100.0 %
Test CRC CBB54F22
Copy CRC CBB54F22
Accurately ripped (confidence 2) [C59B6C9E] (AR v2)
Copy OK

Track 4

Filename G:\EACRiPS\VA-Now That's What I Call Music 65-2018-FLAC\04 - J Balvin & Willy William - Mi Gente (feat. Beyonce).wav

Peak level 98.8 %
Extraction speed 1.4 X
Track quality 100.0 %
Test CRC 408BCEA1
Copy CRC 408BCEA1
Accurately ripped (confidence 2) [BA67EE0B] (AR v2)
Copy OK

Track 5

Filename G:\EACRiPS\VA-Now That's What I Call Music 65-2018-FLAC\05 - Sofi Tukker - Best Friend (feat. Nervo, The Knocks & Alisa Ueno).wav

Peak level 99.8 %
Extraction speed 1.4 X
Track quality 100.0 %
Test CRC E9139658
Copy CRC E9139658
Accurately ripped (confidence 2) [BB8D9633] (AR v2)
Copy OK

Track 6

Filename G:\EACRiPS\VA-Now That's What I Call Music 65-2018-FLAC\06 - G-Eazy - No Limit (feat. A$AP Rocky & Cardi B).wav

Peak level 99.8 %
Extraction speed 1.4 X
Track quality 99.9 %
Test CRC CAD2EB9E
Copy CRC CAD2EB9E
Accurately ripped (confidence 2) [D1ED951B] (AR v2)
Copy OK

Track 7

Filename G:\EACRiPS\VA-Now That's What I Call Music 65-2018-FLAC\07 - NF - Let You Down.wav

Peak level 98.5 %
Extraction speed 1.6 X
Track quality 100.0 %
Test CRC E6579027
Copy CRC E6579027
Accurately ripped (confidence 2) [05FEF55F] (AR v2)
Copy OK

Track 8

Filename G:\EACRiPS\VA-Now That's What I Call Music 65-2018-FLAC\08 - Post Malone - I Fall Apart.wav

Peak level 99.9 %
Extraction speed 1.7 X
Track quality 100.0 %
Test CRC 1DE60712
Copy CRC 1DE60712
Accurately ripped (confidence 2) [B7D0E299] (AR v2)
Copy OK

Track 9

Filename G:\EACRiPS\VA-Now That's What I Call Music 65-2018-FLAC\09 - Khalid - Young Dumb & Broke.wav

Peak level 100.0 %
Extraction speed 1.7 X
Track quality 100.0 %
Test CRC 52B3B2E4
Copy CRC 52B3B2E4
Accurately ripped (confidence 2) [562E30F4] (AR v2)
Copy OK

Track 10

Filename G:\EACRiPS\VA-Now That's What I Call Music 65-2018-FLAC\10 - Calvin Harris - Faking It (feat. Kehlani & Lil Yachty).wav

Peak level 97.7 %
Extraction speed 1.9 X
Track quality 100.0 %
Test CRC A8AECCA4
Copy CRC A8AECCA4
Accurately ripped (confidence 2) [C7633CCB] (AR v2)
Copy OK

Track 11

Filename G:\EACRiPS\VA-Now That's What I Call Music 65-2018-FLAC\11 - Selena Gomez X Marshmello - Wolves.wav

Peak level 99.9 %
Extraction speed 1.8 X
Track quality 100.0 %
Test CRC B0CF754D
Copy CRC B0CF754D
Accurately ripped (confidence 2) [8238DC97] (AR v2)
Copy OK

Track 12

Filename G:\EACRiPS\VA-Now That's What I Call Music 65-2018-FLAC\12 - Niall Horan - Too Much To Ask.wav

Peak level 99.0 %
Extraction speed 2.0 X
Track quality 100.0 %
Test CRC C79666A2
Copy CRC C79666A2
Accurately ripped (confidence 2) [FB9DD8FC] (AR v2)
Copy OK

Track 13

Filename G:\EACRiPS\VA-Now That's What I Call Music 65-2018-FLAC\13 - P!nk - Beautiful Trauma.wav

Peak level 99.9 %
Extraction speed 2.1 X
Track quality 100.0 %
Test CRC 5806674A
Copy CRC 5806674A
Accurately ripped (confidence 2) [263B2F04] (AR v2)
Copy OK

Track 14

Filename G:\EACRiPS\VA-Now That's What I Call Music 65-2018-FLAC\14 - Hailee Steinfeld & Alesso - Let Me Go (feat. Florida Georgia Line & watt).wav

Pre-gap length 0:00:00.46

Peak level 94.3 %
Extraction speed 2.0 X
Track quality 100.0 %
Test CRC 8FA8E725
Copy CRC 8FA8E725
Accurately ripped (confidence 2) [431004D1] (AR v2)
Copy OK

Track 15

Filename G:\EACRiPS\VA-Now That's What I Call Music 65-2018-FLAC\15 - MAX - Lights Down Low (feat. gnash).wav

Peak level 99.8 %
Extraction speed 1.8 X
Track quality 99.9 %
Test CRC 95713335
Copy CRC 95713335
Accurately ripped (confidence 2) [D091C5D6] (AR v2)
Copy OK

Track 16

Filename G:\EACRiPS\VA-Now That's What I Call Music 65-2018-FLAC\16 - Marshmello - Silence (feat. Khalid).wav

Pre-gap length 0:00:00.33

Peak level 99.8 %
Extraction speed 1.8 X
Track quality 99.9 %
Test CRC 7DEA8414
Copy CRC 7DEA8414
Accurately ripped (confidence 2) [5F230E0E] (AR v2)
Copy OK

Track 17

Filename G:\EACRiPS\VA-Now That's What I Call Music 65-2018-FLAC\17 - Sidibe - Unreachable.wav

Pre-gap length 0:00:03.10

Peak level 99.8 %
Extraction speed 2.3 X
Track quality 100.0 %
Test CRC F89A102C
Copy CRC F89A102C
Accurately ripped (confidence 2) [1D422B83] (AR v2)
Copy OK

Track 18

Filename G:\EACRiPS\VA-Now That's What I Call Music 65-2018-FLAC\18 - Jacob Sartorius - Skateboard.wav

Peak level 99.8 %
Extraction speed 2.2 X
Track quality 100.0 %
Test CRC 1087A563
Copy CRC 1087A563
Accurately ripped (confidence 2) [4AAABA28] (AR v2)
Copy OK

Track 19

Filename G:\EACRiPS\VA-Now That's What I Call Music 65-2018-FLAC\19 - Olivia Noelle - Made Of Gold.wav

Peak level 97.7 %
Extraction speed 2.3 X
Track quality 100.0 %
Test CRC 42CF2D38
Copy CRC 42CF2D38
Accurately ripped (confidence 2) [4CB38622] (AR v2)
Copy OK

Track 20

Filename G:\EACRiPS\VA-Now That's What I Call Music 65-2018-FLAC\20 - Eves Karydas - There For You.wav

Peak level 99.8 %
Extraction speed 2.1 X
Track quality 99.9 %
Test CRC 019E20C3
Copy CRC 019E20C3
Accurately ripped (confidence 2) [0EF2C737] (AR v2)
Copy OK

Track 21

Filename G:\EACRiPS\VA-Now That's What I Call Music 65-2018-FLAC\21 - Phantoms - Just A Feeling (feat. Verite).wav

Peak level 97.1 %
Extraction speed 2.2 X
Track quality 99.9 %
Test CRC 73B8CE8F
Copy CRC 73B8CE8F
Accurately ripped (confidence 2) [424A4F6E] (AR v2)
Copy OK

Track 22

Filename G:\EACRiPS\VA-Now That's What I Call Music 65-2018-FLAC\22 - Indian Trap - Look Like Monayyy (feat. Kreszenzia).wav

Peak level 97.7 %
Extraction speed 2.4 X
Track quality 100.0 %
Test CRC D81139B5
Copy CRC D81139B5
Accurately ripped (confidence 2) [639FCC11] (AR v2)
Copy OK


All tracks accurately ripped

No errors occurred

End of status report

–– CUETools DB Plugin V2.1.6

[CTDB TOCID: kLeRZ4GBsIQX6SRzOREz62.2_zU-] found
Submit result: kLeRZ4GBsIQX6SRzOREz62.2_zU- has been confirmed
Track | CTDB Status
1 | (21/21) Accurately ripped
2 | (21/21) Accurately ripped
3 | (21/21) Accurately ripped
4 | (21/21) Accurately ripped
5 | (21/21) Accurately ripped
6 | (21/21) Accurately ripped
7 | (21/21) Accurately ripped
8 | (21/21) Accurately ripped
9 | (21/21) Accurately ripped
10 | (21/21) Accurately ripped
11 | (21/21) Accurately ripped
12 | (21/21) Accurately ripped
13 | (21/21) Accurately ripped
14 | (21/21) Accurately ripped
15 | (21/21) Accurately ripped
16 | (21/21) Accurately ripped
17 | (21/21) Accurately ripped
18 | (21/21) Accurately ripped
19 | (21/21) Accurately ripped
20 | (21/21) Accurately ripped
21 | (21/21) Accurately ripped
22 | (21/21) Accurately ripped


==== Log checksum 922C81E897A5BFA0BD4F7CC3278700CA0A430529426728E0D418A623E9B4AAD6 ====

Thanks to the Original ripper MrBonesHOK !