Subcategories

Various Artists - On The Detroit Beat! Motor City Soul - UK Style 1963-67 (2019) {Ace CDTOP 1539}

Posted By: ruskaval
Various Artists - On The Detroit Beat! Motor City Soul - UK Style 1963-67 (2019) {Ace CDTOP 1539}

Various Artists - On The Detroit Beat! Motor City Soul - UK Style 1963-67 (2019) {Ace CDTOP 1539}
EAC rip (secure mode) | FLAC (tracks)+CUE+LOG -> 263 Mb | MP3 @320 -> 153 Mb
Full Artwork @ 300 dpi (jpg) -> 10 Mb | 5% repair rar
© 1963-67, 2019 Ace Records | CDTOP 1539
Pop / Rhythm & Blues / Beat

The Motown Sound gets a distinctly 60s UK makeover. It may seem unbelievable in 2019 but there was a time when Motown was not a household name in the UK. Around 40 Motown singles were released here between 1959 and 1964, not one making a dent in our charts until Mary Wells scored a Top 10 hit with ‘My Guy’. After that Berry Gordy’s company began to slowly make a greater impression on British pop fans but even then a full three years went by before Motown’s flagship acts routinely made the UK Top 20.
Various Artists - On The Detroit Beat! Motor City Soul - UK Style 1963-67 (2019) {Ace CDTOP 1539}

However, all but ignored by the public at large, Motown songs quickly won a place in the collective heart of British beat merchants, particularly after the Beatles recorded three Motown songs on their second UK album. Soon it was open season on their catalogue, with all manner of artists coming up with covers of songs that had flopped for the original artists. The Motown sound was difficult to replicate, so most who covered the songs went their own way with them. Not all covers were musically successful but this new Ace project selects two dozen that were.

Various Artists - On The Detroit Beat! Motor City Soul - UK Style 1963-67 (2019) {Ace CDTOP 1539}


Most of our selections cover songs from Motown’s early years. Once the hits started coming regularly, there was little point in going up against the originals, so artists started to cover B-sides and singles that had not been issued here at the time. By 1967 there was virtually no point in trying to steal Motown’s thunder, and thus our compilation goes no further than that year. But there’s a lot of great stuff here that stands up well in comparison with the originals, and there are plenty of highlights to savour, from avowed Motown fan Dusty Springfield taking on an early Supremes classic to a certain Liverpool icon reminding us of her R&B roots as Swinging Cilla as she launches herself into Jr Walker’s ‘Shotgun’.

The singers might get the odd word wrong but their commitment to each song can’t be faulted. They may not have been able to replicate the Motown sound but they surely knew how to get “On The Detroit Beat”.
Various Artists - On The Detroit Beat! Motor City Soul - UK Style 1963-67 (2019) {Ace CDTOP 1539}


Tracklisting & personnel
1. The Hollies – Mickey's Monkey
2. Julie Grant – As Long as I Know He's Mine
3. The Undertakers – Money (That's What I Want)
4. John Leyton and the Leroys – I Want a Love I Can See
5. Georgie Fame – Sweet Thing
6. Billy J. Kramer & the Dakotas – I'll Be Doggone
7. Louise Cordet – Two Lovers
8. Bern Elliott & the Fenmen – Shake Sherry Shake
9. Small Faces – You Really Got a Hold on Me
10. Elkie Brooks – The Way You Do the Things You Do
11. Bill Kenwrigth & The Runaways – I Want to Go Back There Again
12. Dusty Springfield – When the Lovelight Stars Shining Through His Eyes
13. Guy Darrell – One of These Days
14. Beverley Jones & The Prestons – (Love Is Like A) Heat Wave
15. Herbie Goins & the Night-Timers – Number One in Your Heart
16. The Spencer Davis Group – Every Little Bit Hurts
17. The Roulettes – Stubborn Kind of Fellow
18. Helen Shapiro – You're My Remedy
19. The Birds – No Good Without You
20. Truly Smith – My Smile Is Just a Frown (Turned Upside Down)
21. Tony Jackson & The Vibrations – Never Leave Your Baby's Side
22. Beryl Marsden – Let's Go Somewhere
23. The Action – In My Lonely Room
24. Cilla Black & Sounds Incorporated – Shotgun

Exact Audio Copy V1.3 from 2. September 2016

EAC extraction logfile from 13. April 2019, 0:05

Unknown Artist / On the Detroit beat - Motor City Soul - UK Style 1963-67

Used drive : TSSTcorpDVD-ROM SN-108BB Adapter: 1 ID: 0

Read mode : Secure
Utilize accurate stream : Yes
Defeat audio cache : Yes
Make use of C2 pointers : No

Read offset correction : 6
Overread into Lead-In and Lead-Out : No
Fill up missing offset samples with silence : Yes
Delete leading and trailing silent blocks : No
Null samples used in CRC calculations : Yes
Used interface : Native Win32 interface for Win NT & 2000
Gap handling : Appended to previous track

Used output format : User Defined Encoder
Selected bitrate : 32 kBit/s
Quality : High
Add ID3 tag : No
Command line compressor : C:\Program Files (x86)\FLAC Frontend\tools\flac.exe
Additional command line options : -8 -V -T "ARTIST=%artist%" -T "TITLE=%title%" -T "ALBUM=%albumtitle%" -T "DATE=%year%" -T "TRACKNUMBER=%tracknr%" -T "GENRE=%genre%" -T "PERFORMER=%albuminterpret%" -T "COMPOSER=%composer%" %haslyrics%–tag-from-file=LYRICS="%lyricsfile%"%haslyrics% -T "ALBUMARTIST=%albumartist%" -T "DISCNUMBER=%cdnumber%" -T "TOTALDISCS=%totalcds%" -T "TOTALTRACKS=%numtracks%" -T "COMMENT=%comment%" %source% -o %dest%


TOC of the extracted CD

Track | Start | Length | Start sector | End sector
––––––––––––––––––––––––––––-
1 | 0:00.00 | 2:29.72 | 0 | 11246
2 | 2:29.72 | 2:30.44 | 11247 | 22540
3 | 5:00.41 | 2:52.27 | 22541 | 35467
4 | 7:52.68 | 2:29.22 | 35468 | 46664
5 | 10:22.15 | 2:33.53 | 46665 | 58192
6 | 12:55.68 | 2:58.13 | 58193 | 71555
7 | 15:54.06 | 2:30.06 | 71556 | 82811
8 | 18:24.12 | 2:16.43 | 82812 | 93054
9 | 20:40.55 | 3:18.08 | 93055 | 107912
10 | 23:58.63 | 2:42.31 | 107913 | 120093
11 | 26:41.19 | 2:41.46 | 120094 | 132214
12 | 29:22.65 | 3:06.12 | 132215 | 146176
13 | 32:29.02 | 2:59.49 | 146177 | 159650
14 | 35:28.51 | 2:10.47 | 159651 | 169447
15 | 37:39.23 | 2:43.51 | 169448 | 181723
16 | 40:22.74 | 3:26.30 | 181724 | 197203
17 | 43:49.29 | 2:37.17 | 197204 | 208995
18 | 46:26.46 | 2:58.13 | 208996 | 222358
19 | 49:24.59 | 2:38.53 | 222359 | 234261
20 | 52:03.37 | 2:44.69 | 234262 | 246630
21 | 54:48.31 | 2:14.61 | 246631 | 256741
22 | 57:03.17 | 2:42.15 | 256742 | 268906
23 | 59:45.32 | 2:41.21 | 268907 | 281002
24 | 62:26.53 | 2:31.66 | 281003 | 292393


Track 1

Filename C:\Users\Utilisateur\rips\Nouveau dossier (4)\01 Track01.wav

Pre-gap length 0:00:02.00

Peak level 68.4 %
Extraction speed 2.5 X
Track quality 100.0 %
Test CRC 7FEDCB09
Copy CRC 7FEDCB09
Track not present in AccurateRip database
Copy OK

Track 2

Filename C:\Users\Utilisateur\rips\Nouveau dossier (4)\02 Track02.wav

Pre-gap length 0:00:01.85

Peak level 80.0 %
Extraction speed 2.7 X
Track quality 100.0 %
Test CRC 46FD5143
Copy CRC 46FD5143
Track not present in AccurateRip database
Copy OK

Track 3

Filename C:\Users\Utilisateur\rips\Nouveau dossier (4)\03 Track03.wav

Pre-gap length 0:00:01.77

Peak level 93.7 %
Extraction speed 2.9 X
Track quality 100.0 %
Test CRC BE1DC0AA
Copy CRC BE1DC0AA
Track not present in AccurateRip database
Copy OK

Track 4

Filename C:\Users\Utilisateur\rips\Nouveau dossier (4)\04 Track04.wav

Pre-gap length 0:00:01.72

Peak level 95.4 %
Extraction speed 3.0 X
Track quality 100.0 %
Test CRC 990AAC60
Copy CRC 990AAC60
Track not present in AccurateRip database
Copy OK

Track 5

Filename C:\Users\Utilisateur\rips\Nouveau dossier (4)\05 Track05.wav

Pre-gap length 0:00:01.86

Peak level 91.6 %
Extraction speed 2.4 X
Track quality 99.9 %
Test CRC CAB28A8E
Copy CRC CAB28A8E
Track not present in AccurateRip database
Copy OK

Track 6

Filename C:\Users\Utilisateur\rips\Nouveau dossier (4)\06 Track06.wav

Pre-gap length 0:00:01.84

Peak level 95.4 %
Extraction speed 3.4 X
Track quality 100.0 %
Test CRC 99AE0EAD
Copy CRC 99AE0EAD
Track not present in AccurateRip database
Copy OK

Track 7

Filename C:\Users\Utilisateur\rips\Nouveau dossier (4)\07 Track07.wav

Pre-gap length 0:00:01.86

Peak level 93.1 %
Extraction speed 2.5 X
Track quality 99.9 %
Test CRC 8680D384
Copy CRC 8680D384
Track not present in AccurateRip database
Copy OK

Track 8

Filename C:\Users\Utilisateur\rips\Nouveau dossier (4)\08 Track08.wav

Pre-gap length 0:00:01.80

Peak level 95.4 %
Extraction speed 3.5 X
Track quality 100.0 %
Test CRC 5AB6A757
Copy CRC 5AB6A757
Track not present in AccurateRip database
Copy OK

Track 9

Filename C:\Users\Utilisateur\rips\Nouveau dossier (4)\09 Track09.wav

Pre-gap length 0:00:02.00

Peak level 90.8 %
Extraction speed 3.8 X
Track quality 100.0 %
Test CRC DD01B484
Copy CRC DD01B484
Track not present in AccurateRip database
Copy OK

Track 10

Filename C:\Users\Utilisateur\rips\Nouveau dossier (4)\10 Track10.wav

Pre-gap length 0:00:01.80

Peak level 87.2 %
Extraction speed 3.8 X
Track quality 100.0 %
Test CRC C4749CC7
Copy CRC C4749CC7
Track not present in AccurateRip database
Copy OK

Track 11

Filename C:\Users\Utilisateur\rips\Nouveau dossier (4)\11 Track11.wav

Pre-gap length 0:00:01.88

Peak level 85.2 %
Extraction speed 3.9 X
Track quality 100.0 %
Test CRC 99C4C6DD
Copy CRC 99C4C6DD
Track not present in AccurateRip database
Copy OK

Track 12

Filename C:\Users\Utilisateur\rips\Nouveau dossier (4)\12 Track12.wav

Pre-gap length 0:00:02.01

Peak level 95.1 %
Extraction speed 4.2 X
Track quality 100.0 %
Test CRC 8F1AE758
Copy CRC 8F1AE758
Track not present in AccurateRip database
Copy OK

Track 13

Filename C:\Users\Utilisateur\rips\Nouveau dossier (4)\13 Track13.wav

Pre-gap length 0:00:01.94

Peak level 91.0 %
Extraction speed 4.3 X
Track quality 100.0 %
Test CRC 6350D197
Copy CRC 6350D197
Track not present in AccurateRip database
Copy OK

Track 14

Filename C:\Users\Utilisateur\rips\Nouveau dossier (4)\14 Track14.wav

Pre-gap length 0:00:02.00

Peak level 85.7 %
Extraction speed 4.1 X
Track quality 100.0 %
Test CRC B5086F7A
Copy CRC B5086F7A
Track not present in AccurateRip database
Copy OK

Track 15

Filename C:\Users\Utilisateur\rips\Nouveau dossier (4)\15 Track15.wav

Pre-gap length 0:00:01.94

Peak level 81.4 %
Extraction speed 3.3 X
Track quality 99.9 %
Test CRC C65AB252
Copy CRC C65AB252
Track not present in AccurateRip database
Copy OK

Track 16

Filename C:\Users\Utilisateur\rips\Nouveau dossier (4)\16 Track16.wav

Pre-gap length 0:00:01.90

Peak level 95.4 %
Extraction speed 4.7 X
Track quality 100.0 %
Test CRC 6E44E24D
Copy CRC 6E44E24D
Track not present in AccurateRip database
Copy OK

Track 17

Filename C:\Users\Utilisateur\rips\Nouveau dossier (4)\17 Track17.wav

Pre-gap length 0:00:01.88

Peak level 95.4 %
Extraction speed 4.6 X
Track quality 100.0 %
Test CRC 606D3581
Copy CRC 606D3581
Track not present in AccurateRip database
Copy OK

Track 18

Filename C:\Users\Utilisateur\rips\Nouveau dossier (4)\18 Track18.wav

Pre-gap length 0:00:01.86

Peak level 77.9 %
Extraction speed 4.8 X
Track quality 100.0 %
Test CRC 2A1FF0B6
Copy CRC 2A1FF0B6
Track not present in AccurateRip database
Copy OK

Track 19

Filename C:\Users\Utilisateur\rips\Nouveau dossier (4)\19 Track19.wav

Pre-gap length 0:00:01.82

Peak level 83.8 %
Extraction speed 3.6 X
Track quality 99.9 %
Test CRC CB997189
Copy CRC CB997189
Track not present in AccurateRip database
Copy OK

Track 20

Filename C:\Users\Utilisateur\rips\Nouveau dossier (4)\20 Track20.wav

Pre-gap length 0:00:01.76

Peak level 88.1 %
Extraction speed 5.0 X
Track quality 100.0 %
Test CRC A11855B4
Copy CRC A11855B4
Track not present in AccurateRip database
Copy OK

Track 21

Filename C:\Users\Utilisateur\rips\Nouveau dossier (4)\21 Track21.wav

Pre-gap length 0:00:01.88

Peak level 74.4 %
Extraction speed 4.6 X
Track quality 100.0 %
Test CRC 3A6FF9E6
Copy CRC 3A6FF9E6
Track not present in AccurateRip database
Copy OK

Track 22

Filename C:\Users\Utilisateur\rips\Nouveau dossier (4)\22 Track22.wav

Pre-gap length 0:00:01.98

Peak level 72.8 %
Extraction speed 5.0 X
Track quality 100.0 %
Test CRC EF91B064
Copy CRC EF91B064
Track not present in AccurateRip database
Copy OK

Track 23

Filename C:\Users\Utilisateur\rips\Nouveau dossier (4)\23 Track23.wav

Pre-gap length 0:00:01.76

Peak level 89.8 %
Extraction speed 5.0 X
Track quality 100.0 %
Test CRC 394AC5DD
Copy CRC 394AC5DD
Track not present in AccurateRip database
Copy OK

Track 24

Filename C:\Users\Utilisateur\rips\Nouveau dossier (4)\24 Track24.wav

Pre-gap length 0:00:02.16

Peak level 95.5 %
Extraction speed 5.1 X
Track quality 100.0 %
Test CRC F014C3D6
Copy CRC F014C3D6
Track not present in AccurateRip database
Copy OK


None of the tracks are present in the AccurateRip database

No errors occurred

End of status report

–– CUETools DB Plugin V2.1.6

[CTDB TOCID: F8GmOT_K9iT04BDlUCuZr2oSFHU-] found
Submit result: F8GmOT_K9iT04BDlUCuZr2oSFHU- has been confirmed
Track | CTDB Status
1 | (1/1) Accurately ripped
2 | (1/1) Accurately ripped
3 | (1/1) Accurately ripped
4 | (1/1) Accurately ripped
5 | (1/1) Accurately ripped
6 | (1/1) Accurately ripped
7 | (1/1) Accurately ripped
8 | (1/1) Accurately ripped
9 | (1/1) Accurately ripped
10 | (1/1) Accurately ripped
11 | (1/1) Accurately ripped
12 | (1/1) Accurately ripped
13 | (1/1) Accurately ripped
14 | (1/1) Accurately ripped
15 | (1/1) Accurately ripped
16 | (1/1) Accurately ripped
17 | (1/1) Accurately ripped
18 | (1/1) Accurately ripped
19 | (1/1) Accurately ripped
20 | (1/1) Accurately ripped
21 | (1/1) Accurately ripped
22 | (1/1) Accurately ripped
23 | (1/1) Accurately ripped
24 | (1/1) Accurately ripped


==== Log checksum 32495C4500E21CDDEE6CBD6724B378ED598901938402911A5CE4310C119C9215 ====


Various Artists - On The Detroit Beat! Motor City Soul - UK Style 1963-67 (2019) {Ace CDTOP 1539}



===