VA - Polish Radio Experimental Studio (1957-2003) (2017)

Posted By: delpotro
VA - Polish Radio Experimental Studio (1957-2003) (2017)

VA - Polish Radio Experimental Studio (1957-2003) (2017)
EAC Rip | FLAC (tracks+log+.cue) | 01:13:59 | 325 Mb
Experimental, Electronic, Modern Classical, Electroacoustic | Label: Polskie Radio, Wire magazine

Polish Radio Experimental Studio at Warszawa was founded in October 1957 by Jozef Patkowski who conducted the Studio till 1985. More then 200 autonomous compositions produced. Several hundreds titles for film, theatre, TV, radio and various exhibi¬tions came out from the Studio.

In the 60s the main persons of Polish electro-acoustic music were Krzysztof Penderecki, Boguslaw Schaeffer, Wlodzimierz Kotonski, Andrzej Dobrowolski, Zbigniew Wiszniewski, Tomasz Sikorski. In the 70s new generation: Krzysztof Knittel, Elzbieta Sikora, Andrzej Biezan, Pawel Szymanski, Andrzej Dutkiewicz, Ryszard Szeremeta and others. The 80s and 90s that's Marek Choloniewski, Jan Oleszkowicz, Barbara Zawadzka and Anna Zawadzka, Jaroslaw Kapuscinski, Edward Sielicki, Magdalena Dlugosz, Jacek Grudzien and others. Last but not least one must mention of two tonmeisters (sound engineers) Eugeniusz Rudnik and Bohdan Mazurek who while assisting many composers became composers as well.

*Given away to subscribers of The Wire issue 406 Dec 2017. Not for sale.
*The PRES project is organised by the Adam Mickiewicz Institute operating under the Culture.pl brand within the international cultural programme accompanying Poland's centenary of regaining independence - POLSKA 100.
Tracklist:
01. Eugeniusz Rudnik - Dixi (1967) (04:47)
02. Włodzimierz Kotoński - Microstructures (1963) (05:19)
03. Krzysztof Knittel - The Conqueror Worm [excerpt] (1976) (08:09)
04. Eugeniusz Rudnik - Ready Made '77 (1977) (07:37)
05. Bogusław Schaeffer - Heraklitiana [excerpt] (1970) (07:15)
06. Bohdan Mazurek - Esperienza (1968) (03:34)
07. Krzysztof Penderecki - Psalmus (1961) (05:07)
08. Elżbieta Sikora - Rhapsody for the Death of the Republic [excerpt] (1979) (07:22)
09. Eugeniusz Rudnik - Guillotine DG [excerpt] (1989) (04:44)
10. Krzysztof Knittel - Lapis [excerpt] (1985) (05:44)
11. Bohdan Mazurek - Daisy Story [excerpt] (1979) (07:58)
12. Arne Nordheim - Ode to Light (Sculpture) [excerpt] (1968) (06:31)

Exact Audio Copy V1.0 beta 3 from 29. August 2011

EAC extraction logfile from 13. November 2017, 17:17

Various / Polish Radio Experimental Studio (1957-2003)

Used drive : ASUS BW-16D1HT Adapter: 0 ID: 0

Read mode : Secure
Utilize accurate stream : Yes
Defeat audio cache : Yes
Make use of C2 pointers : No

Read offset correction : 6
Overread into Lead-In and Lead-Out : No
Fill up missing offset samples with silence : Yes
Delete leading and trailing silent blocks : No
Null samples used in CRC calculations : Yes
Used interface : Native Win32 interface for Win NT & 2000
Gap handling : Appended to previous track

Used output format : User Defined Encoder
Selected bitrate : 1024 kBit/s
Quality : High
Add ID3 tag : No
Command line compressor : C:\Program Files (x86)\Exact Audio Copy\Flac\flac.exe
Additional command line options : -8 -e -p -V -T "ARTIST=%artist%" -T "TITLE=%title%" -T "ALBUM=%albumtitle%" -T "DATE=%year%" -T "TRACKNUMBER=%tracknr%" -T "GENRE=%genre%" -T "PERFORMER=%albuminterpret%" -T "COMPOSER=%composer%" %haslyrics%–tag-from-file=LYRICS="%lyricsfile%"%haslyrics% -T "ALBUMARTIST=%albumartist%" -T "DISCNUMBER=%cdnumber%" -T "TOTALDISCS=%totalcds%" -T "TOTALTRACKS=%numtracks%" -T "COMMENT=%comment%" %source% -o %dest%


TOC of the extracted CD

Track | Start | Length | Start sector | End sector
––––––––––––––––––––––––––––-
1 | 0:00.00 | 4:46.31 | 0 | 21480
2 | 4:46.31 | 5:18.70 | 21481 | 45400
3 | 10:05.26 | 8:08.51 | 45401 | 82051
4 | 18:14.02 | 7:36.29 | 82052 | 116280
5 | 25:50.31 | 7:14.30 | 116281 | 148860
6 | 33:04.61 | 3:33.01 | 148861 | 164836
7 | 36:37.62 | 5:06.02 | 164837 | 187788
8 | 41:43.64 | 7:21.20 | 187789 | 220883
9 | 49:05.09 | 4:43.25 | 220884 | 242133
10 | 53:48.34 | 5:43.53 | 242134 | 267911
11 | 59:32.12 | 7:57.04 | 267912 | 303690
12 | 67:29.16 | 6:30.38 | 303691 | 332978


Track 1

Filename C:\EAC RIPS\01 - Dixi (1967).wav

Pre-gap length 0:00:02.00

Peak level 44.5 %
Extraction speed 4.8 X
Track quality 100.0 %
Test CRC 296868FE
Copy CRC 296868FE
Track not present in AccurateRip database
Copy OK

Track 2

Filename C:\EAC RIPS\02 - Microstructures (1963).wav

Peak level 47.7 %
Extraction speed 5.4 X
Track quality 100.0 %
Test CRC 44E35F1C
Copy CRC 44E35F1C
Track not present in AccurateRip database
Copy OK

Track 3

Filename C:\EAC RIPS\03 - The Conqueror Worm (1976).wav

Peak level 67.8 %
Extraction speed 5.7 X
Track quality 99.9 %
Test CRC 92F60DB1
Copy CRC 92F60DB1
Track not present in AccurateRip database
Copy OK

Track 4

Filename C:\EAC RIPS\04 - Ready made '77 (1977).wav

Peak level 56.8 %
Extraction speed 6.9 X
Track quality 100.0 %
Test CRC BA2C9934
Copy CRC BA2C9934
Track not present in AccurateRip database
Copy OK

Track 5

Filename C:\EAC RIPS\05 - Heraklitiana (1970).wav

Peak level 80.7 %
Extraction speed 7.4 X
Track quality 100.0 %
Test CRC 7BDCF815
Copy CRC 7BDCF815
Track not present in AccurateRip database
Copy OK

Track 6

Filename C:\EAC RIPS\06 - Esperienza (1968).wav

Peak level 44.8 %
Extraction speed 7.2 X
Track quality 100.0 %
Test CRC 59FD65A2
Copy CRC 59FD65A2
Track not present in AccurateRip database
Copy OK

Track 7

Filename C:\EAC RIPS\07 - Psalmus (1961).wav

Peak level 79.5 %
Extraction speed 7.9 X
Track quality 100.0 %
Test CRC 68C76E06
Copy CRC 68C76E06
Track not present in AccurateRip database
Copy OK

Track 8

Filename C:\EAC RIPS\08 - Rhapsody for the Death of the Republic (1979).wav

Peak level 71.1 %
Extraction speed 8.6 X
Track quality 100.0 %
Test CRC 90D92C37
Copy CRC 90D92C37
Track not present in AccurateRip database
Copy OK

Track 9

Filename C:\EAC RIPS\09 - Guillotine DG (1989).wav

Peak level 64.3 %
Extraction speed 8.5 X
Track quality 100.0 %
Test CRC F40A436C
Copy CRC F40A436C
Track not present in AccurateRip database
Copy OK

Track 10

Filename C:\EAC RIPS\10 - Lapis (1985).wav

Peak level 64.3 %
Extraction speed 8.9 X
Track quality 100.0 %
Test CRC DB4EEB4F
Copy CRC DB4EEB4F
Track not present in AccurateRip database
Copy OK

Track 11

Filename C:\EAC RIPS\11 - Daisy Story (1979).wav

Peak level 64.2 %
Extraction speed 8.6 X
Track quality 99.9 %
Test CRC 6F50DCBD
Copy CRC 6F50DCBD
Track not present in AccurateRip database
Copy OK

Track 12

Filename C:\EAC RIPS\12 - Ode to Light (Sculpture) (1968).wav

Peak level 44.3 %
Extraction speed 9.8 X
Track quality 100.0 %
Test CRC 173BE878
Copy CRC 173BE878
Track not present in AccurateRip database
Copy OK


None of the tracks are present in the AccurateRip database

No errors occurred

End of status report

–– CUETools DB Plugin V2.1.3

[CTDB TOCID: PVsYsyUyeePOJaqONYlco.2wNfk-] disk not present in database, Submit result: PVsYsyUyeePOJaqONYlco.2wNfk- has been uploaded


==== Log checksum 61FA2C82288E587198FED06856D64B684A25BDE581A20B8898A4FBB5BB081A7A ====

Thanks to the Original ripper Vldmar74 !