Subcategories

VA - Psychobilly Outlaws - A Tribute To The Meantraitors (2014)

Posted By: delpotro
VA - Psychobilly Outlaws - A Tribute To The Meantraitors (2014)

VA - Psychobilly Outlaws - A Tribute To The Meantraitors (2014)
EAC Rip | FLAC (tracks+log+.cue) - 533 Mb | MP3 CBR 320 kbps - 176 Mb | 01:16:51
Psychobilly | Label: Rude Runner Records

30 tracks from international psychobilly bands covering the songs of Russia's Meantraitors. Featured bands include The Magnetix, The Stockmen, Stressor, The Beat Devils, The Hellstompers, Evil Jokers, Mental Bait, The Grims, The Spoilers, The Chainsaw Charlies, Mosquito, The Squidbillys, Dice For Lights and many others.
Tracklist:
1. The Stockmen – Rocker By Law (02:53)
2. Stressor – In Your Sky (02:10)
3. The Beat Devils – Titanic (03:00)
4. Evil Jockers – Crush Of The Creepers (01:44)
5. Hellstompers – Black Hole (02:05)
6. The Magnetix – Amber (02:10)
7. Bombat Belus – When I Lose (02:25)
8. Dice For Lights – I Make House (02:03)
9. Coffin Wheels – Transsiberian Express (02:35)
10. Mystification – Way To The End (When The Corpses Wake Up) (02:41)
11. Drossabilly Buzz – We`re Going Wild Tonight (02:54)
12. Mosquito – Moonlight (02:12)
13. The Squidbillys – Possibility Of The Treason (02:42)
14. The Dodgers – Sinners Dance (01:47)
15. Hobot&Co – I Remember (02:14)
16. The Grims – Broken Nail (02:24)
17. Andrew Chainy – Freezeman (01:57)
18. Booze Boyz – 50th Years Are Go (02:38)
19. Lucky '12 – Boys Will Be Boys (02:43)
20. Mental Bait – Last Chance (01:53)
21. Nitkie – We Fly Together Fly My Life (02:32)
22. Hellfire Sox – Angry Heart (03:49)
23. Mystification – Scooter Song (feat. Anny Funtanna) (03:45)
24. Spoilers – Man With The Scar (04:00)
25. Chainsaw Charlie`s – Crush Of The Creepers (01:58)
26. Stone Faces – I Sit In A Bad Company (01:51)
27. Outer Space – Straight On (02:31)
28. Zorro – Sleepin` Flower (01:47)
29. Brem Stokers – Bad Mouthin`Man (Bonus Track) (04:28)
30. Banana Gang – Possibility Of The Treason (Ska Punk Version) (Bonus Track) (03:01)

Exact Audio Copy V1.3 from 2. September 2016

EAC extraction logfile from 9. June 2018, 9:16

Various / Psychobilly Outlaws A Tribute To The Meantraitors (2014) [192khz 24bit]

Used drive : PIONEER BD-RW BDR-XD05 Adapter: 1 ID: 0

Read mode : Secure
Utilize accurate stream : Yes
Defeat audio cache : Yes
Make use of C2 pointers : No

Read offset correction : 667
Overread into Lead-In and Lead-Out : No
Fill up missing offset samples with silence : Yes
Delete leading and trailing silent blocks : No
Null samples used in CRC calculations : Yes
Used interface : Native Win32 interface for Win NT & 2000
Gap handling : Appended to previous track

Used output format : User Defined Encoder
Selected bitrate : 1024 kBit/s
Quality : High
Add ID3 tag : No
Command line compressor : C:\Program Files (x86)\Exact Audio Copy\Flac\flac.exe
Additional command line options : -8 -e -V -T "ARTIST=%artist%" -T "TITLE=%title%" -T "ALBUM=%albumtitle%" -T "DATE=%year%" -T "TRACKNUMBER=%tracknr%" -T "GENRE=%genre%" -T "PERFORMER=%albuminterpret%" -T "COMPOSER=%composer%" %haslyrics%–tag-from-file=LYRICS="%lyricsfile%"%haslyrics% -T "ALBUMARTIST=%albumartist%" -T "DISCNUMBER=%cdnumber%" -T "TOTALDISCS=%totalcds%" -T "TOTALTRACKS=%numtracks%" -T "COMMENT=%comment%" %source% -o %dest%


TOC of the extracted CD

Track | Start | Length | Start sector | End sector
––––––––––––––––––––––––––––-
1 | 0:00.00 | 2:52.38 | 0 | 12937
2 | 2:52.38 | 2:09.38 | 12938 | 22650
3 | 5:02.01 | 3:00.30 | 22651 | 36180
4 | 8:02.31 | 1:44.08 | 36181 | 43988
5 | 9:46.39 | 2:04.45 | 43989 | 53333
6 | 11:51.09 | 2:10.15 | 53334 | 63098
7 | 14:01.24 | 2:25.30 | 63099 | 74003
8 | 16:26.54 | 2:02.53 | 74004 | 83206
9 | 18:29.32 | 2:35.31 | 83207 | 94862
10 | 21:04.63 | 2:41.23 | 94863 | 106960
11 | 23:46.11 | 2:54.30 | 106961 | 120040
12 | 26:40.41 | 2:11.38 | 120041 | 129903
13 | 28:52.04 | 2:42.00 | 129904 | 142053
14 | 31:34.04 | 1:47.08 | 142054 | 150086
15 | 33:21.12 | 2:14.08 | 150087 | 160144
16 | 35:35.20 | 2:24.15 | 160145 | 170959
17 | 37:59.35 | 1:56.53 | 170960 | 179712
18 | 39:56.13 | 2:38.15 | 179713 | 191577
19 | 42:34.28 | 2:42.68 | 191578 | 203795
20 | 45:17.21 | 1:52.45 | 203796 | 212240
21 | 47:09.66 | 2:31.45 | 212241 | 223610
22 | 49:41.36 | 3:48.60 | 223611 | 240770
23 | 53:30.21 | 3:44.60 | 240771 | 257630
24 | 57:15.06 | 3:59.53 | 257631 | 275608
25 | 61:14.59 | 1:58.23 | 275609 | 284481
26 | 63:13.07 | 1:51.08 | 284482 | 292814
27 | 65:04.15 | 2:31.30 | 292815 | 304169
28 | 67:35.45 | 1:47.08 | 304170 | 312202
29 | 69:22.53 | 4:27.68 | 312203 | 332295
30 | 73:50.46 | 3:00.38 | 332296 | 345833


Track 1

Filename C:\Users\Public\Psychobilly Outlaws - A Tribute To The Meantraitors EAC FLAC\01 Rocker By Law.wav

Pre-gap length 0:00:02.00

Peak level 96.4 %
Extraction speed 2.9 X
Track quality 100.0 %
Test CRC CA4DFC80
Copy CRC CA4DFC80
Accurately ripped (confidence 2) [2DB76290] (AR v2)
Copy OK

Track 2

Filename C:\Users\Public\Psychobilly Outlaws - A Tribute To The Meantraitors EAC FLAC\02 In Your Sky.wav

Peak level 99.8 %
Extraction speed 2.8 X
Track quality 100.0 %
Test CRC B990CBFC
Copy CRC B990CBFC
Accurately ripped (confidence 2) [5D711D03] (AR v2)
Copy OK

Track 3

Filename C:\Users\Public\Psychobilly Outlaws - A Tribute To The Meantraitors EAC FLAC\03 Titanic.wav

Peak level 98.6 %
Extraction speed 3.2 X
Track quality 100.0 %
Test CRC 167D7BF8
Copy CRC 167D7BF8
Accurately ripped (confidence 2) [4BF645FB] (AR v2)
Copy OK

Track 4

Filename C:\Users\Public\Psychobilly Outlaws - A Tribute To The Meantraitors EAC FLAC\04 Crush Of The Creepers.wav

Peak level 99.7 %
Extraction speed 3.0 X
Track quality 100.0 %
Test CRC C9B7C627
Copy CRC C9B7C627
Accurately ripped (confidence 2) [6D2B6DAF] (AR v2)
Copy OK

Track 5

Filename C:\Users\Public\Psychobilly Outlaws - A Tribute To The Meantraitors EAC FLAC\05 Black Hole.wav

Peak level 98.7 %
Extraction speed 3.2 X
Track quality 100.0 %
Test CRC 0A421C34
Copy CRC 0A421C34
Accurately ripped (confidence 2) [623E72C1] (AR v2)
Copy OK

Track 6

Filename C:\Users\Public\Psychobilly Outlaws - A Tribute To The Meantraitors EAC FLAC\06 Amber.wav

Peak level 96.4 %
Extraction speed 3.4 X
Track quality 100.0 %
Test CRC DF7850BD
Copy CRC DF7850BD
Accurately ripped (confidence 2) [2BF0756F] (AR v2)
Copy OK

Track 7

Filename C:\Users\Public\Psychobilly Outlaws - A Tribute To The Meantraitors EAC FLAC\07 When I Lose.wav

Peak level 99.7 %
Extraction speed 3.0 X
Track quality 99.9 %
Test CRC CD26E75D
Copy CRC CD26E75D
Accurately ripped (confidence 2) [C0A48622] (AR v2)
Copy OK

Track 8

Filename C:\Users\Public\Psychobilly Outlaws - A Tribute To The Meantraitors EAC FLAC\08 I Make House.wav

Peak level 99.7 %
Extraction speed 3.5 X
Track quality 100.0 %
Test CRC 43430B3F
Copy CRC 43430B3F
Accurately ripped (confidence 2) [D2DC7D92] (AR v2)
Copy OK

Track 9

Filename C:\Users\Public\Psychobilly Outlaws - A Tribute To The Meantraitors EAC FLAC\09 Transsiberian Express.wav

Peak level 99.7 %
Extraction speed 3.8 X
Track quality 100.0 %
Test CRC 4179937A
Copy CRC 4179937A
Accurately ripped (confidence 2) [B0F5548A] (AR v2)
Copy OK

Track 10

Filename C:\Users\Public\Psychobilly Outlaws - A Tribute To The Meantraitors EAC FLAC\10 Way To The End feat When The Corpses Wake Up.wav

Peak level 99.8 %
Extraction speed 3.4 X
Track quality 99.9 %
Test CRC 09948096
Copy CRC 09948096
Accurately ripped (confidence 2) [31586CFC] (AR v2)
Copy OK

Track 11

Filename C:\Users\Public\Psychobilly Outlaws - A Tribute To The Meantraitors EAC FLAC\11 We're Going Wild Tonight.wav

Peak level 99.7 %
Extraction speed 4.2 X
Track quality 100.0 %
Test CRC 4B084BDF
Copy CRC 4B084BDF
Accurately ripped (confidence 2) [2C36545D] (AR v2)
Copy OK

Track 12

Filename C:\Users\Public\Psychobilly Outlaws - A Tribute To The Meantraitors EAC FLAC\12 Moonlight.wav

Peak level 94.4 %
Extraction speed 4.0 X
Track quality 100.0 %
Test CRC 9F9220C6
Copy CRC 9F9220C6
Accurately ripped (confidence 2) [B3E44348] (AR v2)
Copy OK

Track 13

Filename C:\Users\Public\Psychobilly Outlaws - A Tribute To The Meantraitors EAC FLAC\13 Possibility Of The Treason.wav

Peak level 99.7 %
Extraction speed 3.7 X
Track quality 99.9 %
Test CRC 2AEEF003
Copy CRC 2AEEF003
Accurately ripped (confidence 2) [97BA4D37] (AR v2)
Copy OK

Track 14

Filename C:\Users\Public\Psychobilly Outlaws - A Tribute To The Meantraitors EAC FLAC\14 Sinners Dance.wav

Peak level 99.7 %
Extraction speed 4.1 X
Track quality 100.0 %
Test CRC DC04460C
Copy CRC DC04460C
Accurately ripped (confidence 2) [B0910C99] (AR v2)
Copy OK

Track 15

Filename C:\Users\Public\Psychobilly Outlaws - A Tribute To The Meantraitors EAC FLAC\15 I Remember.wav

Peak level 99.7 %
Extraction speed 3.6 X
Track quality 99.9 %
Test CRC 1728BF8C
Copy CRC 1728BF8C
Accurately ripped (confidence 2) [8DB4F0A9] (AR v2)
Copy OK

Track 16

Filename C:\Users\Public\Psychobilly Outlaws - A Tribute To The Meantraitors EAC FLAC\16 Broken Nail.wav

Peak level 99.7 %
Extraction speed 4.5 X
Track quality 100.0 %
Test CRC 964FA5BF
Copy CRC 964FA5BF
Accurately ripped (confidence 2) [476B966A] (AR v2)
Copy OK

Track 17

Filename C:\Users\Public\Psychobilly Outlaws - A Tribute To The Meantraitors EAC FLAC\17 Freezeman.wav

Peak level 99.7 %
Extraction speed 4.4 X
Track quality 100.0 %
Test CRC 9FA82A5A
Copy CRC 9FA82A5A
Accurately ripped (confidence 2) [D4E5AB37] (AR v2)
Copy OK

Track 18

Filename C:\Users\Public\Psychobilly Outlaws - A Tribute To The Meantraitors EAC FLAC\18 50th Years Are Go.wav

Peak level 99.7 %
Extraction speed 4.8 X
Track quality 100.0 %
Test CRC 79D4192F
Copy CRC 79D4192F
Accurately ripped (confidence 2) [F740B18D] (AR v2)
Copy OK

Track 19

Filename C:\Users\Public\Psychobilly Outlaws - A Tribute To The Meantraitors EAC FLAC\19 Boys Will Be Boys.wav

Peak level 99.8 %
Extraction speed 4.8 X
Track quality 100.0 %
Test CRC 3214B4FA
Copy CRC 3214B4FA
Accurately ripped (confidence 2) [F3ECB11F] (AR v2)
Copy OK

Track 20

Filename C:\Users\Public\Psychobilly Outlaws - A Tribute To The Meantraitors EAC FLAC\20 Last Chance.wav

Peak level 99.8 %
Extraction speed 4.6 X
Track quality 100.0 %
Test CRC 921AD180
Copy CRC 921AD180
Accurately ripped (confidence 2) [FC224937] (AR v2)
Copy OK

Track 21

Filename C:\Users\Public\Psychobilly Outlaws - A Tribute To The Meantraitors EAC FLAC\21 We Fly Together Fly My Life.wav

Peak level 99.7 %
Extraction speed 5.0 X
Track quality 100.0 %
Test CRC 9890B6C8
Copy CRC 9890B6C8
Accurately ripped (confidence 2) [8BA18B2D] (AR v2)
Copy OK

Track 22

Filename C:\Users\Public\Psychobilly Outlaws - A Tribute To The Meantraitors EAC FLAC\22 Angry Heart.wav

Peak level 99.8 %
Extraction speed 5.4 X
Track quality 100.0 %
Test CRC 5C6A1704
Copy CRC 5C6A1704
Accurately ripped (confidence 2) [764C6E69] (AR v2)
Copy OK

Track 23

Filename C:\Users\Public\Psychobilly Outlaws - A Tribute To The Meantraitors EAC FLAC\23 Scooter Song.wav

Peak level 99.8 %
Extraction speed 5.6 X
Track quality 100.0 %
Test CRC 6C112DA1
Copy CRC 6C112DA1
Accurately ripped (confidence 2) [FF826ECC] (AR v2)
Copy OK

Track 24

Filename C:\Users\Public\Psychobilly Outlaws - A Tribute To The Meantraitors EAC FLAC\24 Man With The Scar.wav

Peak level 99.7 %
Extraction speed 5.1 X
Track quality 99.9 %
Test CRC B79AA2CD
Copy CRC B79AA2CD
Accurately ripped (confidence 2) [9A970760] (AR v2)
Copy OK

Track 25

Filename C:\Users\Public\Psychobilly Outlaws - A Tribute To The Meantraitors EAC FLAC\25 Crush Of The Creepers.wav

Peak level 99.7 %
Extraction speed 5.1 X
Track quality 100.0 %
Test CRC AF1DAD55
Copy CRC AF1DAD55
Accurately ripped (confidence 2) [ECB88979] (AR v2)
Copy OK

Track 26

Filename C:\Users\Public\Psychobilly Outlaws - A Tribute To The Meantraitors EAC FLAC\26 I Sit In Bad Company.wav

Peak level 88.9 %
Extraction speed 5.1 X
Track quality 100.0 %
Test CRC 9EFFC654
Copy CRC 9EFFC654
Accurately ripped (confidence 2) [CFAA843F] (AR v2)
Copy OK

Track 27

Filename C:\Users\Public\Psychobilly Outlaws - A Tribute To The Meantraitors EAC FLAC\27 Straight On.wav

Peak level 99.7 %
Extraction speed 4.6 X
Track quality 99.9 %
Test CRC 83BDB73D
Copy CRC 83BDB73D
Accurately ripped (confidence 2) [20CCE6A0] (AR v2)
Copy OK

Track 28

Filename C:\Users\Public\Psychobilly Outlaws - A Tribute To The Meantraitors EAC FLAC\28 Sleepin' Flower.wav

Peak level 99.7 %
Extraction speed 5.1 X
Track quality 100.0 %
Test CRC 4E66F87B
Copy CRC 4E66F87B
Accurately ripped (confidence 2) [C00382F2] (AR v2)
Copy OK

Track 29

Filename C:\Users\Public\Psychobilly Outlaws - A Tribute To The Meantraitors EAC FLAC\29 Bad Mouthin' Man.wav

Peak level 89.2 %
Extraction speed 5.5 X
Track quality 99.9 %
Test CRC 96C02E34
Copy CRC 96C02E34
Accurately ripped (confidence 2) [3148C942] (AR v2)
Copy OK

Track 30

Filename C:\Users\Public\Psychobilly Outlaws - A Tribute To The Meantraitors EAC FLAC\30 Possibility Of The Treason (Ska-Punk Version).wav

Peak level 89.2 %
Extraction speed 6.0 X
Track quality 100.0 %
Test CRC 33CFD5AE
Copy CRC 33CFD5AE
Accurately ripped (confidence 2) [6DCAC9E4] (AR v2)
Copy OK


All tracks accurately ripped

No errors occurred

End of status report

–– CUETools DB Plugin V2.1.6

[CTDB TOCID: iYdIVJoE1mIr3K4BqX2FiPsK5u0-] found
Submit result: iYdIVJoE1mIr3K4BqX2FiPsK5u0- has been confirmed
Track | CTDB Status
1 | (3/3) Accurately ripped
2 | (3/3) Accurately ripped
3 | (3/3) Accurately ripped
4 | (3/3) Accurately ripped
5 | (3/3) Accurately ripped
6 | (3/3) Accurately ripped
7 | (3/3) Accurately ripped
8 | (3/3) Accurately ripped
9 | (3/3) Accurately ripped
10 | (3/3) Accurately ripped
11 | (3/3) Accurately ripped
12 | (3/3) Accurately ripped
13 | (3/3) Accurately ripped
14 | (3/3) Accurately ripped
15 | (3/3) Accurately ripped
16 | (3/3) Accurately ripped
17 | (3/3) Accurately ripped
18 | (3/3) Accurately ripped
19 | (3/3) Accurately ripped
20 | (3/3) Accurately ripped
21 | (3/3) Accurately ripped
22 | (3/3) Accurately ripped
23 | (3/3) Accurately ripped
24 | (3/3) Accurately ripped
25 | (3/3) Accurately ripped
26 | (3/3) Accurately ripped
27 | (3/3) Accurately ripped
28 | (3/3) Accurately ripped
29 | (3/3) Accurately ripped
30 | (3/3) Accurately ripped


==== Log checksum 7CA923166DD05523FF2551146F144111461051F67F81210C159ED72492F9DD91 ====

Thanks to the Original ripper Demonofthedark !