Subcategories

VA - Rolling Stone Rare Trax Vol. 21 - This Is Soul: Black Music From The 70s Till Today (2002)

Posted By: luckburz
VA - Rolling Stone Rare Trax Vol. 21 - This Is Soul: Black Music From The 70s Till Today (2002)

VA - Rolling Stone Rare Trax Vol. 21 - This Is Soul: Black Music From The 70s Till Today
EAC+LOG+CUE | FLAC: 442 MB | Full Artwork | 5% Recovery Info
Label/Cat#: None, Promo | Country/Year: Germany 2002
Genre: Rock, Pop, R'n'B | Style: Soul

MD5 [X] CUE [X] LOG [X] INFO TEXT [X] ARTWORK [X]

selfrip [X] not my rip []

VA - Rolling Stone Rare Trax Vol. 21 - This Is Soul: Black Music From The 70s Till Today (2002)


Exact Audio Copy V1.0 beta 3 from 29. August 2011

EAC extraction logfile from 3. July 2013, 15:26

RSRT Various / Vol. 21: This Is Soul

Used drive : PLEXTOR CD-R PX-W1210A Adapter: 1 ID: 0

Read mode : Secure
Utilize accurate stream : Yes
Defeat audio cache : Yes
Make use of C2 pointers : No

Read offset correction : 99
Overread into Lead-In and Lead-Out : No
Fill up missing offset samples with silence : Yes
Delete leading and trailing silent blocks : No
Null samples used in CRC calculations : Yes
Used interface : Native Win32 interface for Win NT & 2000

Used output format : User Defined Encoder
Selected bitrate : 1024 kBit/s
Quality : High
Add ID3 tag : Yes
Command line compressor : C:\Program Files\FLAC\flac.exe
Additional command line options : -5 -T "Artist=%artist%" -T "Title=%title%" -T "Album=%albumtitle%" -T "Date=%year%" -T "Tracknumber=%tracknr%" -T "Genre=%genre%" %source% -o %dest%


TOC of the extracted CD

Track | Start | Length | Start sector | End sector
––––––––––––––––––––––––––––-
1 | 0:00.00 | 4:10.19 | 0 | 18768
2 | 4:10.19 | 4:12.14 | 18769 | 37682
3 | 8:22.33 | 5:50.31 | 37683 | 63963
4 | 14:12.64 | 5:03.45 | 63964 | 86733
5 | 19:16.34 | 4:25.32 | 86734 | 106640
6 | 23:41.66 | 3:37.25 | 106641 | 122940
7 | 27:19.16 | 3:35.31 | 122941 | 139096
8 | 30:54.47 | 7:30.01 | 139097 | 172847
9 | 38:24.48 | 6:52.71 | 172848 | 203818
10 | 45:17.44 | 7:25.26 | 203819 | 237219
11 | 52:42.70 | 5:42.36 | 237220 | 262905
12 | 58:25.31 | 2:48.24 | 262906 | 275529
13 | 61:13.55 | 4:04.64 | 275530 | 293893
14 | 65:18.44 | 5:45.38 | 293894 | 319806


Range status and errors

Selected range

Filename F:\=== VINYL RIPS ===\=== EAC===\X FRESH RIP\Rare Trax - Vol. 21 - This Is Soul.wav

Peak level 100.0 %
Extraction speed 3.6 X
Range quality 99.9 %
Copy CRC D9769ED2
Copy OK

No errors occurred


AccurateRip summary

Track 1 accurately ripped (confidence 3) [EC5FD5C9] (AR v2)
Track 2 accurately ripped (confidence 3) [C7E0BB09] (AR v2)
Track 3 accurately ripped (confidence 3) [73226E65] (AR v2)
Track 4 accurately ripped (confidence 3) [DD61862C] (AR v2)
Track 5 accurately ripped (confidence 3) [A811AD10] (AR v2)
Track 6 accurately ripped (confidence 3) [29A87DF1] (AR v2)
Track 7 accurately ripped (confidence 3) [146AA465] (AR v2)
Track 8 accurately ripped (confidence 3) [A3A52D99] (AR v2)
Track 9 accurately ripped (confidence 3) [6599BF44] (AR v2)
Track 10 accurately ripped (confidence 3) [8A7ADB47] (AR v2)
Track 11 accurately ripped (confidence 3) [457BD92A] (AR v2)
Track 12 accurately ripped (confidence 3) [F2A18497] (AR v2)
Track 13 accurately ripped (confidence 3) [50D08DFB] (AR v2)
Track 14 accurately ripped (confidence 3) [C4FAC134] (AR v2)

All tracks accurately ripped

End of status report

–– CUETools DB Plugin V2.1.3

[CTDB TOCID: AFmnAV5xDfLVuJc_.yGybf28KXc-] found, Submit result: AFmnAV5xDfLVuJc_.yGybf28KXc- has been confirmed
[e5e1af81] (5/5) Accurately ripped


==== Log checksum DD6B5899A9F7A888F3588A0951BF602C5B70FE93916E3785292DAF0F1D637575 ====

foobar2000 1.1.14a / Dynamic Range Meter 1.1.1
log date: 2013-07-04 08:35:20

––––––––––––––––––––––––––––––––––––––––
Analyzed: Alex Cortiz / Vol. 21: This Is Soul (1)
Barry White / Vol. 21: This Is Soul (2)
––––––––––––––––––––––––––––––––––––––––

DR Peak RMS Duration Track
––––––––––––––––––––––––––––––––––––––––
DR13 0.00 dB -14.24 dB 4:25 05-Smooth
DR13 0.00 dB -16.50 dB 2:48 12-Theme From 'Together Brothers'
––––––––––––––––––––––––––––––––––––––––

Number of tracks: 2
Official DR value: DR13

Samplerate: 44100 Hz
Channels: 2
Bits per sample: 16
Bitrate: 842 kbps
Codec: FLAC
================================================================================

––––––––––––––––––––––––––––––––––––––––
Statistics for: 11-Short Eyes
Number of samples: 15103368
Duration: 5:42
––––––––––––––––––––––––––––––––––––––––

Left Right

Peak Value: 0.00 dB –- 0.00 dB
Avg RMS: -14.18 dB –- -15.11 dB
DR channel: 11.86 dB –- 12.81 dB
––––––––––––––––––––––––––––––––––––––––

Official DR Value: DR12

Samplerate: 44100 Hz
Channels: 2
Bits per sample: 16
Bitrate: 842 kbps
Codec: FLAC
================================================================================
––––––––––––––––––––––––––––––––––––––––
Analyzed: Humbucker / Vol. 21: This Is Soul (1)
Isaac Hayes / Vol. 21: This Is Soul (2)
––––––––––––––––––––––––––––––––––––––––

DR Peak RMS Duration Track
––––––––––––––––––––––––––––––––––––––––
DR10 -0.80 dB -12.85 dB 4:10 01-Cincinnati Hawks
DR12 0.00 dB -16.17 dB 6:53 09-By The Time I Get To Phoenix
––––––––––––––––––––––––––––––––––––––––

Number of tracks: 2
Official DR value: DR11

Samplerate: 44100 Hz
Channels: 2
Bits per sample: 16
Bitrate: 842 kbps
Codec: FLAC
================================================================================

––––––––––––––––––––––––––––––––––––––––
Analyzed: Jerry Butler / Vol. 21: This Is Soul (1)
Jestofunk / Vol. 21: This Is Soul (2)
––––––––––––––––––––––––––––––––––––––––

DR Peak RMS Duration Track
––––––––––––––––––––––––––––––––––––––––
DR12 0.00 dB -14.07 dB 5:04 04-I'm Your Mechanical Man
DR12 -0.91 dB -14.37 dB 5:46 14-Find Your State Of Mind
––––––––––––––––––––––––––––––––––––––––

Number of tracks: 2
Official DR value: DR12

Samplerate: 44100 Hz
Channels: 2
Bits per sample: 16
Bitrate: 842 kbps
Codec: FLAC
================================================================================

––––––––––––––––––––––––––––––––––––––––
Statistics for: 10-With You In Mind
Number of samples: 19639788
Duration: 7:25
––––––––––––––––––––––––––––––––––––––––

Left Right

Peak Value: 0.00 dB –- -3.77 dB
Avg RMS: -17.01 dB –- -17.34 dB
DR channel: 11.90 dB –- 10.05 dB
––––––––––––––––––––––––––––––––––––––––

Official DR Value: DR11

Samplerate: 44100 Hz
Channels: 2
Bits per sample: 16
Bitrate: 842 kbps
Codec: FLAC
================================================================================
––––––––––––––––––––––––––––––––––––––––
Statistics for: 03-I Wanna Do Something Freaky For You
Number of samples: 15453228
Duration: 5:50
––––––––––––––––––––––––––––––––––––––––

Left Right

Peak Value: -1.20 dB –- -1.28 dB
Avg RMS: -15.24 dB –- -15.80 dB
DR channel: 12.40 dB –- 12.81 dB
––––––––––––––––––––––––––––––––––––––––

Official DR Value: DR13

Samplerate: 44100 Hz
Channels: 2
Bits per sample: 16
Bitrate: 842 kbps
Codec: FLAC
================================================================================
––––––––––––––––––––––––––––––––––––––––
Analyzed: Patti Jo / Vol. 21: This Is Soul (1)
Preston Love / Vol. 21: This Is Soul (2)
––––––––––––––––––––––––––––––––––––––––

DR Peak RMS Duration Track
––––––––––––––––––––––––––––––––––––––––
DR13 0.00 dB -15.26 dB 4:12 02-Make Me Believe In You
DR11 -0.27 dB -14.65 dB 3:35 07-Chili Mac
––––––––––––––––––––––––––––––––––––––––

Number of tracks: 2
Official DR value: DR12

Samplerate: 44100 Hz
Channels: 2
Bits per sample: 16
Bitrate: 842 kbps
Codec: FLAC
================================================================================

––––––––––––––––––––––––––––––––––––––––
Analyzed: Rae & Christian featuring Bobby Womack / Vol. 21: This Is Soul (1)
Syl Johnson / Vol. 21: This Is Soul (2)
The Poets Of Rhythm / Vol. 21: This Is Soul (3)
––––––––––––––––––––––––––––––––––––––––

DR Peak RMS Duration Track
––––––––––––––––––––––––––––––––––––––––
DR10 -1.29 dB -12.52 dB 3:37 06-Get A Life
DR9 -1.09 dB -12.59 dB 7:30 08-Is It Because I'm Black
DR11 -0.35 dB -13.95 dB 4:05 13-Discern/Define
––––––––––––––––––––––––––––––––––––––––

Number of tracks: 3
Official DR value: DR10

Samplerate: 44100 Hz
Channels: 2
Bits per sample: 16
Bitrate: 842 kbps
Codec: FLAC
================================================================================



CD Info:

Vol. 21 - This Is Soul - Black Music From The 70s Till Today

Released: Jan 2002
Genre: Funk / Soul
Style: Soul, Funk

Tracklist:

1 Humbucker – Cincinnati Hawks 4:11
2 Patti Jo – Make Me Believe In You 4:12
3 Leon Haywood – I Wanna Do Something Freaky For You 6:00
4 Jerry Butler – I'm Your Mechanical Man 5:04
5 Alex Cortiz – Smooth 4:26
6 Rae & Christian – Get A Life 3:37
7 Preston Love – Chili Mac 3:35
8 Syl Johnson – Is It Because I'm Black 7:30
9 Isaac Hayes – By The Time I Get To Phoenix 6:53
10 Joe Simon – With You In Mind 7:25
11 Curtis Mayfield – Short Eyes 5:43
12 Barry White – Theme From "Together Brothers" 2:48
13 Poets Of Rhythm, The – Discern/Define 4:05
14 Jestofunk – Find Your State Of Mind 5:46


Released with issue 1/02 of German "Rolling Stone" magazine in cardboard sleeve.

Tracks taken from:
1 Sincerely Yours 4/Classic Score
2 I'm A Good Woman
3 Come And Get Yourself Some
4 Strange And Funky Things III
5 Moodfood
6 Sleepwalking
7 Omaha Bar-BQ
8 Is It Because I'm Black
9 Hot Buttered Soul
10 Easy To Love
11 Short Eyes
12 Together Brothers
13 Discern/Define
14 Love In A Gold Dimension



01 - Rare Trax - Unreleased Material & Collector's Items
02 - Guess Who? Coole Coverversionen, die keiner kennt
03 - Der andere Soundtrack: Coole Filmmusik-Versionen
04 - Sing This All Together (See What Happens) - Stones Songs relativ cool gecovert
05 - Summer In The City
06 - Blues Today
07 - Perlen der frühen Pop Musik
08 - Unerhört! Die Heimlichen Hits von 98
09 - Black & White Beatz

10 - Version 1.0 - Ohrwürmer im Original
11 - Sweet Soul Music
12 - Let's Swing
13 - Helter Skelter
14 - Brasilectric
15 - Dub And Beyond: Jamaican Traditions In Modern Sounds
16 - Deep Throat - von Robert Mitchum bis Lee Marvin: Moviestars am Mikrophon
17 - East Meets West: A Journey Into Asian Groove
18 - Electricity
19 - Barrio Latino: New Cuban-Flavoured Club Tunes

20 - Junglefever: Modern Vibes From The Tribes
21 - This is Soul - Black Music From The 70's Till Today
22 - 12 Golden Greats - Songperlen die die Welt vergaß
23 - Funk Off! Black Grooves From The 70's
24 - First Wave Part One
25 - First Wave Part Two
26 - Jamaican Gold - 15 Original Reggae Rockers
27 - Blow Your Mind - Schwarze Songs aus der Drogerie
28 - Blow Your Mind² - White Punks On Dope
29 - Funk Around The Jazz

30 - Nailed To The Dancefloor
31 - The French Connection
32 - Eight Miles High
33 - Nine Miles High - British Psychedelia from the 60's & 70's
34 - Quality Kraut
35 - The British Progressive Blues Experiment - The Early Days Of Blues-Rock
36 - Going Down The River
37 - Boys Will Be Girls
38 - Americana Vol. 1 - The Early Years 1980-1994
39 - Born On the Bayou
40 - Americana Vol. 2 - The Later Years 1980-2005
41 - Clouds Like Sugar
42 - Girls, Girrls, Grrls
43 - Americana Vol. 3
44 - The Dark Stuff
45 - Hear This Robert Zimmerman - A Birthday Tribute
46 - Brasilectric Vol. 2
47 - Another Time Another Planet
48 - Freak Folk
49 - Out Of Texas - Songs From The Big Sky Country

50 - Fuzz Tones: US-Garage-Rock From The Sixties, Seventies & Eighties
51 - Darkness On The Edge Of Town - Alternative Hardcore From The 80's
52 - White Men Can Dub - Roots Rock in a Jamaican Style
53 - Cuba Latina
54 - Discover America
55 - R&B Jukebox - Schwarze Roots Für Weissen Rock
56 - This Is Not A Folk Song
57 - Lonesome Riders - Von Wichita Nach Hollywood ‎
58 - Let There Be Drums
59 - Alien Soundtracks

60 - Allez Pop!
61 - A Northern Affair
62 - The Eclectic Kool Aid Sound Spectacle
63 - Von Burg Waldeck Zum Goldenen Pudel
64 - The Song Remains Not The Same - 10 Songs, die Sie so noch nicht kannten
65 - Decade 00
66 - No Bling Bling
67 - Planet Pop
68 - Township Slang
69 - Kunst & Künstlichkeit - Deutsche Elektronik zwischen Krautrock und Post-Techno

70 - Attacke vom Planeten Venus - Girls empowered by Punk
71 - Round Midnight - A Compilation Of Quiet Songs
72 - It Ain´t Me, Babe - Bob Dylan - Die Besten Cover-Versionen Von
73 - Gentle Waves of Sound - Shoegaze & Dream Pop
74 - Rare TV-Trax - Die besten Songs aus den besten Serien
75 - Caught by the Fuzz - 50 Jahre Garage-Rock
76 - Kick & Rush - 10 eigenwillige Songs über Fußball
77 - Rare Wave Tracks
78 - Lost & Found - 10 neu entdeckte Schätze
79 - Soulful Nuggets - Von Folk Bis Funk - 10 Neu Entdeckte Schätze ‎

XX - DVD Beat Club


VA - Rolling Stone Rare Trax Vol. 21 - This Is Soul: Black Music From The 70s Till Today (2002)


all of my uploads in my blog
________________

Download:

Music & Artwork
________________