Subcategories

Various Artists - The Blue Note Story (1953-66: The LP Era) (1993)

Posted By: plonker
Various Artists - The Blue Note Story (1953-66: The LP Era) (1993)

Various Artists - The Blue Note Story (1953-66: The LP Era) (1993)
Jazz | EAC rip | FLAC: TRACKS+CUE+LOG -> 436 MB | mp3@VBR V0 -> 146 MB
72:35 min | scans | 3% recovery | UL & FF | EMI 4788192 (Musica Jazz n. 4/93)

Various Artists - The Blue Note Story (1953-66: The LP Era) (1993)

Tracklist:
01 Gil Melle - Cyclotron (03:17)
02 Clifford Brown - Once In A While (05:24)
03 Horace Silver - Stop Time (04:07)
04 Herbie Nichols - Dance Line (04:27)
05 Paul Chambers - Just For The Love (03:44)
06 Hank Mobley - My Reverie (05:34)
07 Jimmy Smith - Blue Room (05:34)
08 Sonny Rollins - I Can't Get Started (04:30)
09 Julian 'Cannonball' Adderley - Alison's Uncle (05:06)
10 Freddie Redd - Theme For Sister Salvation (04:47)
11 Tina Brooks - Stranger In Paradise (07:38)
12 Grant Gren - Oleo (05:40)
13 Kenny Dorham - Night Watch (05:47)
14 Wayne Shorter - The Collector (06:56)

Given away CD with italian jazz magazine Musica Jazz No. 4/93 (April 1993)

Exact Audio Copy V1.0 beta 3 from 29. August 2011

EAC extraction logfile from 28. July 2012, 11:45

Various / The Blue Note Story (1953-66: The LP Era)

Used drive : HL-DT-STDVD-RAM GH22NP20 Adapter: 1 ID: 0

Read mode : Secure
Utilize accurate stream : Yes
Defeat audio cache : Yes
Make use of C2 pointers : No

Read offset correction : 102
Overread into Lead-In and Lead-Out : No
Fill up missing offset samples with silence : Yes
Delete leading and trailing silent blocks : No
Null samples used in CRC calculations : Yes
Used interface : Installed external ASPI interface
Gap handling : Appended to previous track

Used output format : Internal WAV Routines
Sample format : 44.100 Hz; 16 Bit; Stereo


TOC of the extracted CD

Track | Start | Length | Start sector | End sector
––––––––––––––––––––––––––––-
1 | 0:00.32 | 3:17.05 | 32 | 14811
2 | 3:17.37 | 5:24.30 | 14812 | 39141
3 | 8:41.67 | 4:07.20 | 39142 | 57686
4 | 12:49.12 | 4:27.13 | 57687 | 77724
5 | 17:16.25 | 3:44.15 | 77725 | 94539
6 | 21:00.40 | 5:34.35 | 94540 | 119624
7 | 26:35.00 | 5:34.32 | 119625 | 144706
8 | 32:09.32 | 4:30.13 | 144707 | 164969
9 | 36:39.45 | 5:06.25 | 164970 | 187944
10 | 41:45.70 | 4:46.72 | 187945 | 209466
11 | 46:32.67 | 7:38.10 | 209467 | 243826
12 | 54:11.02 | 5:40.10 | 243827 | 269336
13 | 59:51.12 | 5:47.20 | 269337 | 295381
14 | 65:38.32 | 6:56.30 | 295382 | 326611


Track 1

Filename E:\mR\01 Gil Melle - Cyclotron.wav

Pre-gap length 0:00:02.32

Peak level 72.6 %
Extraction speed 1.7 X
Track quality 100.0 %
Test CRC 10F41960
Copy CRC 10F41960
Accurately ripped (confidence 4) [489504C6] (AR v1)
Copy OK

Track 2

Filename E:\mR\02 Clifford Brown - Once In A While.wav

Pre-gap length 0:00:01.12

Peak level 51.6 %
Extraction speed 2.0 X
Track quality 100.0 %
Test CRC D3349B9C
Copy CRC D3349B9C
Accurately ripped (confidence 3) [5E7B0F3B] (AR v1)
Copy OK

Track 3

Filename E:\mR\03 Horace Silver - Stop Time.wav

Pre-gap length 0:00:02.35

Peak level 62.8 %
Extraction speed 2.1 X
Track quality 100.0 %
Test CRC DA53AFEF
Copy CRC DA53AFEF
Accurately ripped (confidence 3) [77C2A8DD] (AR v1)
Copy OK

Track 4

Filename E:\mR\04 Herbie Nichols - Dance Line.wav

Pre-gap length 0:00:00.64

Peak level 47.0 %
Extraction speed 2.3 X
Track quality 100.0 %
Test CRC 03B55FE9
Copy CRC 03B55FE9
Accurately ripped (confidence 3) [DA73274B] (AR v1)
Copy OK

Track 5

Filename E:\mR\05 Paul Chambers - Just For The Love.wav

Pre-gap length 0:00:01.53

Peak level 87.6 %
Extraction speed 2.4 X
Track quality 100.0 %
Test CRC B4AFF0E8
Copy CRC B4AFF0E8
Accurately ripped (confidence 3) [E85C6BBF] (AR v1)
Copy OK

Track 6

Filename E:\mR\06 Hank Mobley - My Reverie.wav

Pre-gap length 0:00:02.22

Peak level 64.0 %
Extraction speed 2.6 X
Track quality 100.0 %
Test CRC 2A7B909B
Copy CRC 2A7B909B
Accurately ripped (confidence 3) [D4425705] (AR v1)
Copy OK

Track 7

Filename E:\mR\07 Jimmy Smith - Blue Room.wav

Pre-gap length 0:00:02.63

Peak level 78.3 %
Extraction speed 2.8 X
Track quality 100.0 %
Test CRC D9BD97AA
Copy CRC D9BD97AA
Accurately ripped (confidence 3) [739E001C] (AR v1)
Copy OK

Track 8

Filename E:\mR\08 Sonny Rollins - I Can't Get Started.wav

Pre-gap length 0:00:01.45

Peak level 46.8 %
Extraction speed 2.8 X
Track quality 100.0 %
Test CRC FECDAC4E
Copy CRC FECDAC4E
Accurately ripped (confidence 3) [3D43A8DB] (AR v1)
Copy OK

Track 9

Filename E:\mR\09 Julian 'Cannonball' Adderley - Alison's Uncle.wav

Pre-gap length 0:00:01.49

Peak level 85.2 %
Extraction speed 3.0 X
Track quality 100.0 %
Test CRC AC31D4C2
Copy CRC AC31D4C2
Accurately ripped (confidence 3) [7BC4C487] (AR v1)
Copy OK

Track 10

Filename E:\mR\10 Freddie Redd - Theme For Sister Salvation.wav

Pre-gap length 0:00:01.12

Peak level 34.7 %
Extraction speed 3.1 X
Track quality 100.0 %
Test CRC 0C1F7E73
Copy CRC 0C1F7E73
Accurately ripped (confidence 3) [E5FD9BAE] (AR v1)
Copy OK

Track 11

Filename E:\mR\11 Tina Brooks - Stranger In Paradise.wav

Pre-gap length 0:00:03.15

Peak level 65.9 %
Extraction speed 3.2 X
Track quality 99.9 %
Test CRC 2E848CEB
Copy CRC 2E848CEB
Accurately ripped (confidence 3) [431F9D57] (AR v1)
Copy OK

Track 12

Filename E:\mR\12 Grant Gren - Oleo.wav

Pre-gap length 0:00:01.32

Peak level 55.6 %
Extraction speed 3.5 X
Track quality 100.0 %
Test CRC 684053DA
Copy CRC 684053DA
Accurately ripped (confidence 3) [3AC33B39] (AR v1)
Copy OK

Track 13

Filename E:\mR\13 Kenny Dorham - Night Watch.wav

Pre-gap length 0:00:02.64

Peak level 77.9 %
Extraction speed 3.3 X
Track quality 99.9 %
Test CRC 004C04EF
Copy CRC 004C04EF
Accurately ripped (confidence 3) [4CDBE305] (AR v1)
Copy OK

Track 14

Filename E:\mR\14 Wayne Shorter - The Collector.wav

Pre-gap length 0:00:01.47

Peak level 100.0 %
Extraction speed 3.9 X
Track quality 100.0 %
Test CRC 0FABE8EA
Copy CRC 0FABE8EA
Accurately ripped (confidence 3) [E7DE02D8] (AR v1)
Copy OK


All tracks accurately ripped

No errors occurred

End of status report




************ download ************