Subcategories

VA - Top 40: 60's Pop (2014)

Posted By: delpotro
VA - Top 40: 60's Pop (2014)

VA - Top 40: 60's Pop (2014)
EAC Rip | FLAC (tracks+log+.cue) | 01:51:13 | 678 Mb
Pop, Oldies, Rock, Pop Rock, Classic Rock | Label: Crimson, Sony Music

Crimson's Top 40: '60s Pop offers up 40 radio hits from the decade, including familiar favorites like "Eight Miles High" (the Byrds), "Aquarius/Let the Sunshine In" (the 5th Dimension), "Green Tambourine" (the Lemon Pipers), "The Lion Sleeps Tonight (Wimoweh)" (the Tokens), "Everybody's Talkin'" (Harry Nilsson), and many more.
Tracklist:
CD1
1. Lovin' Spoonful - Daydream (02.21)
2. Byrds - Eight Miles High (03.37)
3. Fleetwood Mac - Black Magic Woman (02.52)
4. Gun - Race With The Devil (03.36)
5. Yardbirds - Over Under Sideways Down (02.25)
6. Duane Eddy - (Dance With The) Guitar Man (02.41)
7. 5th Dimension - Aquarius-Let The Sunshine In (04.49)
8. John Fred & His Playboy Band - Judy In Disguise (With Glasses) (02.57)
9. Sir Douglas Quintet - She's About A Mover (02.23)
10. Creation - Painter Man (02.53)
11. Lemon Pipers - Green Tambourine (02.25)
12. Blood, Sweat & Tears - You've Made Me So Very Happy (03.31)
13. Lou Christie - She Sold Me Magic (02.09)
14. Love Affair - Rainbow Valley (03.51)
15. Gary Puckett & The Union Gap - Lady Willpower (02.48)
16. Peddlers - Birth (04.07)
17. Nilsson - Everybody's Talkin' (02.45)
18. Family - No Mule's Fool (03.14)
19. Johnny Cash - It Ain't Me Babe (03.04)
20. Hugo Montenegro Orchestra & Chorus - The Good, The Bad And The Ugly (02.47)

CD2
1. Dave Brubeck Quartet - Unsquare Dance (02.04)
2. Andy Williams - Can't Take My Eyes Off You (03.11)
3. Doris Day - Move Over Darling (02.23)
4. Clodagh Rodgers - Come Back And Shake Me (02.38)
5. Neil Sedaka - Breaking Up Is Hard To Do (02.17)
6. Eddy Arnold - Make The World Go Away (02.40)
7. Jim Reeves - He'll Have To Go (02.20)
8. Tony Bennett - The Good Life (02.17)
9. Paul Anka - Love Me Warm And Tender (02.20)
10. Bobby Vinton - Roses Are Red (My Love) (02.39)
11. Four Lads - Standing On The Corner (02.51)
12. Tony Orlando - Bless You (02.09)
13. Heinz - Just Like Eddie (02.40)
14. Mike Berry - Don't You Think It's Time (01.42)
15. Box Tops - Cry Like A Baby (02.35)
16. Bobby Darin - If I Were A Carpenter (02.23)
17. Lee Dorsey - Holy Cow (02.33)
18. Roy Head - Treat Her Right (02.31)
19. Sly & The Family Stone - Dance To The Music (03.01)
20. Tokens - The Lion Sleeps Tonight (02.42)

Exact Audio Copy V1.3 from 2. September 2016

EAC extraction logfile from 27. February 2018, 11:03

Various Artists / Top 40 60s Pop (2014) CD1

Used drive : HL-DT-STDVDRAM GP57EB40 Adapter: 1 ID: 0

Read mode : Secure
Utilize accurate stream : Yes
Defeat audio cache : Yes
Make use of C2 pointers : No

Read offset correction : 6
Overread into Lead-In and Lead-Out : No
Fill up missing offset samples with silence : Yes
Delete leading and trailing silent blocks : No
Null samples used in CRC calculations : Yes
Used interface : Native Win32 interface for Win NT & 2000
Gap handling : Appended to previous track

Used output format : User Defined Encoder
Selected bitrate : 1024 kBit/s
Quality : High
Add ID3 tag : No
Command line compressor : C:\Program Files (x86)\Exact Audio Copy\Flac\flac.exe
Additional command line options : -8 -V -T "ARTIST=%artist%" -T "TITLE=%title%" -T "ALBUM=%albumtitle%" -T "DATE=%year%" -T "TRACKNUMBER=%tracknr%" -T "GENRE=%genre%" -T "PERFORMER=%albuminterpret%" -T "COMPOSER=%composer%" %haslyrics%–tag-from-file=LYRICS="%lyricsfile%"%haslyrics% -T "ALBUMARTIST=%albumartist%" -T "DISCNUMBER=%cdnumber%" -T "TOTALDISCS=%totalcds%" -T "TOTALTRACKS=%numtracks%" -T "COMMENT=%comment%" %source% -o %dest%


TOC of the extracted CD

Track | Start | Length | Start sector | End sector
––––––––––––––––––––––––––––-
1 | 0:00.00 | 2:20.48 | 0 | 10547
2 | 2:20.48 | 3:36.48 | 10548 | 26795
3 | 5:57.21 | 2:52.33 | 26796 | 39728
4 | 8:49.54 | 3:36.37 | 39729 | 55965
5 | 12:26.16 | 2:25.03 | 55966 | 66843
6 | 14:51.19 | 2:41.21 | 66844 | 78939
7 | 17:32.40 | 4:48.71 | 78940 | 100610
8 | 22:21.36 | 2:57.37 | 100611 | 113922
9 | 25:18.73 | 2:23.19 | 113923 | 124666
10 | 27:42.17 | 2:52.67 | 124667 | 137633
11 | 30:35.09 | 2:25.06 | 137634 | 148514
12 | 33:00.15 | 3:30.56 | 148515 | 164320
13 | 36:30.71 | 2:08.58 | 164321 | 173978
14 | 38:39.54 | 3:51.00 | 173979 | 191303
15 | 42:30.54 | 2:47.66 | 191304 | 203894
16 | 45:18.45 | 4:06.62 | 203895 | 222406
17 | 49:25.32 | 2:45.14 | 222407 | 234795
18 | 52:10.46 | 3:14.05 | 234796 | 249350
19 | 55:24.51 | 3:04.07 | 249351 | 263157
20 | 58:28.58 | 2:47.14 | 263158 | 275696


Track 1

Filename D:\EAC\01 - Lovin' Spoonful - Daydream [1966].wav

Pre-gap length 0:00:02.00

Peak level 99.4 %
Extraction speed 1.0 X
Track quality 100.0 %
Test CRC 0BAB7BFE
Copy CRC 0BAB7BFE
Accurately ripped (confidence 3) [A1455FFA] (AR v2)
Copy OK

Track 2

Filename D:\EAC\02 - Byrds - Eight Miles High [1966].wav

Pre-gap length 0:00:01.80

Peak level 96.0 %
Extraction speed 1.2 X
Track quality 100.0 %
Test CRC 2A5E28F7
Copy CRC 2A5E28F7
Accurately ripped (confidence 3) [5F817461] (AR v2)
Copy OK

Track 3

Filename D:\EAC\03 - Fleetwood Mac - Black Magic Woman [1968].wav

Pre-gap length 0:00:01.80

Peak level 97.1 %
Extraction speed 1.3 X
Track quality 100.0 %
Test CRC 0421F6AB
Copy CRC 0421F6AB
Accurately ripped (confidence 3) [81410EA9] (AR v2)
Copy OK

Track 4

Filename D:\EAC\04 - Gun - Race With The Devil [1968].wav

Pre-gap length 0:00:01.80

Peak level 74.7 %
Extraction speed 1.4 X
Track quality 100.0 %
Test CRC 1FA476C9
Copy CRC 1FA476C9
Accurately ripped (confidence 3) [67C4F624] (AR v2)
Copy OK

Track 5

Filename D:\EAC\05 - Yardbirds - Over Under Sideways Down [1966].wav

Pre-gap length 0:00:01.80

Peak level 99.4 %
Extraction speed 1.4 X
Track quality 100.0 %
Test CRC CCA84CD2
Copy CRC CCA84CD2
Accurately ripped (confidence 3) [2D8D1CED] (AR v2)
Copy OK

Track 6

Filename D:\EAC\06 - Duane Eddy - (Dance With The) Guitar Man [1962].wav

Pre-gap length 0:00:01.80

Peak level 94.6 %
Extraction speed 1.5 X
Track quality 100.0 %
Test CRC 8F8BE592
Copy CRC 8F8BE592
Accurately ripped (confidence 3) [8AD015F4] (AR v2)
Copy OK

Track 7

Filename D:\EAC\07 - 5th Dimension - Aquarius-Let The Sunshine In [1969].wav

Pre-gap length 0:00:01.80

Peak level 81.6 %
Extraction speed 1.7 X
Track quality 100.0 %
Test CRC B2EFFA82
Copy CRC B2EFFA82
Accurately ripped (confidence 3) [F33BF060] (AR v2)
Copy OK

Track 8

Filename D:\EAC\08 - John Fred & His Playboy Band - Judy In Disguise (With Glasses) [1967].wav

Pre-gap length 0:00:01.80

Peak level 77.8 %
Extraction speed 1.7 X
Track quality 100.0 %
Test CRC FE0F51CA
Copy CRC FE0F51CA
Accurately ripped (confidence 3) [5331332B] (AR v2)
Copy OK

Track 9

Filename D:\EAC\09 - Sir Douglas Quintet - She's About A Mover [1965].wav

Pre-gap length 0:00:01.80

Peak level 99.4 %
Extraction speed 1.7 X
Track quality 100.0 %
Test CRC BAF8E230
Copy CRC BAF8E230
Accurately ripped (confidence 3) [06355E65] (AR v2)
Copy OK

Track 10

Filename D:\EAC\10 - Creation - Painter Man [1966].wav

Pre-gap length 0:00:01.80

Peak level 92.7 %
Extraction speed 1.8 X
Track quality 100.0 %
Test CRC 4FCBFEF0
Copy CRC 4FCBFEF0
Accurately ripped (confidence 3) [51972017] (AR v2)
Copy OK

Track 11

Filename D:\EAC\11 - Lemon Pipers - Green Tambourine [1967].wav

Pre-gap length 0:00:01.80

Peak level 99.4 %
Extraction speed 1.5 X
Track quality 99.9 %
Test CRC 987FCEFB
Copy CRC 987FCEFB
Accurately ripped (confidence 3) [404FB0CA] (AR v2)
Copy OK

Track 12

Filename D:\EAC\12 - Blood, Sweat & Tears - You've Made Me So Very Happy [1968].wav

Pre-gap length 0:00:01.80

Peak level 98.9 %
Extraction speed 2.0 X
Track quality 100.0 %
Test CRC BDB2914B
Copy CRC BDB2914B
Accurately ripped (confidence 3) [30D44FA6] (AR v2)
Copy OK

Track 13

Filename D:\EAC\13 - Lou Christie - She Sold Me Magic [1969].wav

Pre-gap length 0:00:01.80

Peak level 99.4 %
Extraction speed 1.5 X
Track quality 99.9 %
Test CRC 4B57B319
Copy CRC 4B57B319
Accurately ripped (confidence 3) [CAF26F64] (AR v2)
Copy OK

Track 14

Filename D:\EAC\14 - Love Affair - Rainbow Valley [1968].wav

Pre-gap length 0:00:01.80

Peak level 93.8 %
Extraction speed 2.1 X
Track quality 100.0 %
Test CRC C8771828
Copy CRC C8771828
Accurately ripped (confidence 3) [652AFF3F] (AR v2)
Copy OK

Track 15

Filename D:\EAC\15 - Gary Puckett & The Union Gap - Lady Willpower [1968].wav

Pre-gap length 0:00:01.80

Peak level 99.4 %
Extraction speed 2.0 X
Track quality 100.0 %
Test CRC 71D841B2
Copy CRC 71D841B2
Accurately ripped (confidence 3) [ADB46D50] (AR v2)
Copy OK

Track 16

Filename D:\EAC\16 - Peddlers - Birth [1969].wav

Pre-gap length 0:00:01.80

Peak level 99.4 %
Extraction speed 2.2 X
Track quality 100.0 %
Test CRC 0D97C493
Copy CRC 0D97C493
Accurately ripped (confidence 3) [ABF610F6] (AR v2)
Copy OK

Track 17

Filename D:\EAC\17 - Nilsson - Everybody's Talkin' [1967].wav

Pre-gap length 0:00:01.80

Peak level 90.6 %
Extraction speed 2.2 X
Track quality 100.0 %
Test CRC 863CFE12
Copy CRC 863CFE12
Accurately ripped (confidence 3) [D902F5F3] (AR v2)
Copy OK

Track 18

Filename D:\EAC\18 - Family - No Mule's Fool [1969].wav

Pre-gap length 0:00:01.80

Peak level 99.4 %
Extraction speed 2.2 X
Track quality 100.0 %
Test CRC 2754A5C6
Copy CRC 2754A5C6
Accurately ripped (confidence 3) [6B74AF0B] (AR v2)
Copy OK

Track 19

Filename D:\EAC\19 - Johnny Cash - It Ain't Me Babe [1964].wav

Pre-gap length 0:00:01.80

Peak level 99.4 %
Extraction speed 2.3 X
Track quality 100.0 %
Test CRC 31720F84
Copy CRC 31720F84
Accurately ripped (confidence 3) [A48E2B83] (AR v2)
Copy OK

Track 20

Filename D:\EAC\20 - Hugo Montenegro Orchestra & Chorus - The Good, The Bad And The Ugly [1967].wav

Pre-gap length 0:00:01.80

Peak level 99.4 %
Extraction speed 2.3 X
Track quality 100.0 %
Test CRC 9CC0C51C
Copy CRC 9CC0C51C
Accurately ripped (confidence 3) [87A86F65] (AR v2)
Copy OK


All tracks accurately ripped

No errors occurred

End of status report

–– CUETools DB Plugin V2.1.6

[CTDB TOCID: YiLH7dsNO5N6AOClpzZ8DLvb6A0-] found
Submit result: YiLH7dsNO5N6AOClpzZ8DLvb6A0- has been confirmed
Track | CTDB Status
1 | (6/6) Accurately ripped
2 | (6/6) Accurately ripped
3 | (6/6) Accurately ripped
4 | (6/6) Accurately ripped
5 | (6/6) Accurately ripped
6 | (6/6) Accurately ripped
7 | (6/6) Accurately ripped
8 | (6/6) Accurately ripped
9 | (6/6) Accurately ripped
10 | (6/6) Accurately ripped
11 | (6/6) Accurately ripped
12 | (6/6) Accurately ripped
13 | (6/6) Accurately ripped
14 | (6/6) Accurately ripped
15 | (6/6) Accurately ripped
16 | (6/6) Accurately ripped
17 | (6/6) Accurately ripped
18 | (6/6) Accurately ripped
19 | (6/6) Accurately ripped
20 | (6/6) Accurately ripped


==== Log checksum 64C97D20EB28886682A1F26FB86BFEEBC003FF09F582A343DB5C1EFAAECFA02C ====

Exact Audio Copy V1.3 from 2. September 2016

EAC extraction logfile from 27. February 2018, 13:01

Various Artists / Top 40 60s Pop (2014) CD2

Used drive : HL-DT-STDVDRAM GP57EB40 Adapter: 1 ID: 0

Read mode : Secure
Utilize accurate stream : Yes
Defeat audio cache : Yes
Make use of C2 pointers : No

Read offset correction : 6
Overread into Lead-In and Lead-Out : No
Fill up missing offset samples with silence : Yes
Delete leading and trailing silent blocks : No
Null samples used in CRC calculations : Yes
Used interface : Native Win32 interface for Win NT & 2000
Gap handling : Appended to previous track

Used output format : User Defined Encoder
Selected bitrate : 1024 kBit/s
Quality : High
Add ID3 tag : No
Command line compressor : C:\Program Files (x86)\Exact Audio Copy\Flac\flac.exe
Additional command line options : -8 -V -T "ARTIST=%artist%" -T "TITLE=%title%" -T "ALBUM=%albumtitle%" -T "DATE=%year%" -T "TRACKNUMBER=%tracknr%" -T "GENRE=%genre%" -T "PERFORMER=%albuminterpret%" -T "COMPOSER=%composer%" %haslyrics%–tag-from-file=LYRICS="%lyricsfile%"%haslyrics% -T "ALBUMARTIST=%albumartist%" -T "DISCNUMBER=%cdnumber%" -T "TOTALDISCS=%totalcds%" -T "TOTALTRACKS=%numtracks%" -T "COMMENT=%comment%" %source% -o %dest%


TOC of the extracted CD

Track | Start | Length | Start sector | End sector
––––––––––––––––––––––––––––-
1 | 0:00.00 | 2:03.45 | 0 | 9269
2 | 2:03.45 | 3:11.28 | 9270 | 23622
3 | 5:14.73 | 2:22.57 | 23623 | 34329
4 | 7:37.55 | 2:37.69 | 34330 | 46173
5 | 10:15.49 | 2:17.16 | 46174 | 56464
6 | 12:32.65 | 2:40.20 | 56465 | 68484
7 | 15:13.10 | 2:19.51 | 68485 | 78960
8 | 17:32.61 | 2:17.31 | 78961 | 89266
9 | 19:50.17 | 2:20.33 | 89267 | 99799
10 | 22:10.50 | 2:39.00 | 99800 | 111724
11 | 24:49.50 | 2:51.28 | 111725 | 124577
12 | 27:41.03 | 2:09.15 | 124578 | 134267
13 | 29:50.18 | 2:39.42 | 134268 | 146234
14 | 32:29.60 | 1:41.54 | 146235 | 153863
15 | 34:11.39 | 2:35.14 | 153864 | 165502
16 | 36:46.53 | 2:22.67 | 165503 | 176219
17 | 39:09.45 | 2:33.19 | 176220 | 187713
18 | 41:42.64 | 2:31.26 | 187714 | 199064
19 | 44:14.15 | 3:00.66 | 199065 | 212630
20 | 47:15.06 | 2:42.06 | 212631 | 224786


Track 1

Filename D:\EAC\01 - Dave Brubeck Quartet - Unsquare Dance [1961].wav

Pre-gap length 0:00:02.00

Peak level 99.4 %
Extraction speed 1.0 X
Track quality 100.0 %
Test CRC 5FC21B80
Copy CRC 5FC21B80
Accurately ripped (confidence 3) [BEF013C4] (AR v2)
Copy OK

Track 2

Filename D:\EAC\02 - Andy Williams - Can't Take My Eyes Off You [1967].wav

Pre-gap length 0:00:01.80

Peak level 99.4 %
Extraction speed 1.2 X
Track quality 100.0 %
Test CRC C677FA2D
Copy CRC C677FA2D
Accurately ripped (confidence 3) [3257E6EB] (AR v2)
Copy OK

Track 3

Filename D:\EAC\03 - Doris Day - Move Over Darling [1963].wav

Pre-gap length 0:00:01.80

Peak level 99.4 %
Extraction speed 1.0 X
Track quality 99.9 %
Test CRC 57A51AEB
Copy CRC 57A51AEB
Accurately ripped (confidence 3) [F0AF3E42] (AR v2)
Copy OK

Track 4

Filename D:\EAC\04 - Clodagh Rodgers - Come Back And Shake Me [1969].wav

Pre-gap length 0:00:01.80

Peak level 99.4 %
Extraction speed 1.3 X
Track quality 100.0 %
Test CRC A3A93302
Copy CRC A3A93302
Accurately ripped (confidence 3) [4E6EE807] (AR v2)
Copy OK

Track 5

Filename D:\EAC\05 - Neil Sedaka - Breaking Up Is Hard To Do [1962].wav

Pre-gap length 0:00:01.80

Peak level 99.4 %
Extraction speed 1.3 X
Track quality 100.0 %
Test CRC 67E96737
Copy CRC 67E96737
Accurately ripped (confidence 3) [45BB769F] (AR v2)
Copy OK

Track 6

Filename D:\EAC\06 - Eddy Arnold - Make The World Go Away [1965].wav

Pre-gap length 0:00:01.80

Peak level 99.4 %
Extraction speed 1.4 X
Track quality 100.0 %
Test CRC 13982223
Copy CRC 13982223
Accurately ripped (confidence 3) [74743790] (AR v2)
Copy OK

Track 7

Filename D:\EAC\07 - Jim Reeves - He'll Have To Go [1959].wav

Pre-gap length 0:00:01.80

Peak level 99.4 %
Extraction speed 1.5 X
Track quality 100.0 %
Test CRC D50A68E7
Copy CRC D50A68E7
Accurately ripped (confidence 3) [EEB15AE7] (AR v2)
Copy OK

Track 8

Filename D:\EAC\08 - Tony Bennett - The Good Life [1963].wav

Pre-gap length 0:00:01.80

Peak level 99.4 %
Extraction speed 1.2 X
Track quality 99.9 %
Test CRC 64759CA2
Copy CRC 64759CA2
Accurately ripped (confidence 3) [79330390] (AR v2)
Copy OK

Track 9

Filename D:\EAC\09 - Paul Anka - Love Me Warm And Tender [1961].wav

Pre-gap length 0:00:01.80

Peak level 99.4 %
Extraction speed 1.3 X
Track quality 99.9 %
Test CRC F37325B4
Copy CRC F37325B4
Accurately ripped (confidence 3) [D898EB08] (AR v2)
Copy OK

Track 10

Filename D:\EAC\10 - Bobby Vinton - Roses Are Red (My Love) [1962].wav

Pre-gap length 0:00:01.80

Peak level 99.4 %
Extraction speed 1.4 X
Track quality 99.9 %
Test CRC F6CFE0D6
Copy CRC F6CFE0D6
Accurately ripped (confidence 3) [FB4BA603] (AR v2)
Copy OK

Track 11

Filename D:\EAC\11 - Four Lads - Standing On The Corner [1956].wav

Pre-gap length 0:00:01.80

Peak level 99.4 %
Extraction speed 1.7 X
Track quality 100.0 %
Test CRC E62C1AEC
Copy CRC E62C1AEC
Accurately ripped (confidence 3) [42EF88CD] (AR v2)
Copy OK

Track 12

Filename D:\EAC\12 - Tony Orlando - Bless You [1961].wav

Pre-gap length 0:00:01.80

Peak level 99.4 %
Extraction speed 1.7 X
Track quality 100.0 %
Test CRC 3DCCBF98
Copy CRC 3DCCBF98
Accurately ripped (confidence 3) [A33D4D41] (AR v2)
Copy OK

Track 13

Filename D:\EAC\13 - Heinz - Just Like Eddie [1963].wav

Pre-gap length 0:00:01.80

Peak level 99.4 %
Extraction speed 1.8 X
Track quality 100.0 %
Test CRC 5ABCA07D
Copy CRC 5ABCA07D
Accurately ripped (confidence 3) [7A608773] (AR v2)
Copy OK

Track 14

Filename D:\EAC\14 - Mike Berry - Don't You Think It's Time [1962].wav

Pre-gap length 0:00:01.80

Peak level 99.4 %
Extraction speed 1.7 X
Track quality 100.0 %
Test CRC C383BF61
Copy CRC C383BF61
Accurately ripped (confidence 3) [7602C783] (AR v2)
Copy OK

Track 15

Filename D:\EAC\15 - Box Tops - Cry Like A Baby [1967].wav

Pre-gap length 0:00:01.80

Peak level 99.4 %
Extraction speed 1.9 X
Track quality 100.0 %
Test CRC 7F15D585
Copy CRC 7F15D585
Accurately ripped (confidence 3) [24F3A076] (AR v2)
Copy OK

Track 16

Filename D:\EAC\16 - Bobby Darin - If I Were A Carpenter [1966].wav

Pre-gap length 0:00:01.80

Peak level 99.4 %
Extraction speed 1.9 X
Track quality 100.0 %
Test CRC EDDAD785
Copy CRC EDDAD785
Accurately ripped (confidence 3) [BF557FF6] (AR v2)
Copy OK

Track 17

Filename D:\EAC\17 - Lee Dorsey - Holy Cow [1966].wav

Pre-gap length 0:00:01.80

Peak level 99.4 %
Extraction speed 2.0 X
Track quality 100.0 %
Test CRC 8668952F
Copy CRC 8668952F
Accurately ripped (confidence 3) [BA35D23F] (AR v2)
Copy OK

Track 18

Filename D:\EAC\18 - Roy Head - Treat Her Right [1965].wav

Pre-gap length 0:00:01.80

Peak level 99.4 %
Extraction speed 2.0 X
Track quality 100.0 %
Test CRC BE969E46
Copy CRC BE969E46
Accurately ripped (confidence 3) [93331AEE] (AR v2)
Copy OK

Track 19

Filename D:\EAC\19 - Sly & The Family Stone - Dance To The Music [1968].wav

Pre-gap length 0:00:01.80

Peak level 99.4 %
Extraction speed 2.1 X
Track quality 100.0 %
Test CRC 6BE04986
Copy CRC 6BE04986
Accurately ripped (confidence 3) [87F8A44E] (AR v2)
Copy OK

Track 20

Filename D:\EAC\20 - Tokens - The Lion Sleeps Tonight [1961].wav

Pre-gap length 0:00:01.80

Peak level 99.4 %
Extraction speed 2.1 X
Track quality 100.0 %
Test CRC 86498F10
Copy CRC 86498F10
Accurately ripped (confidence 3) [B924B11A] (AR v2)
Copy OK


All tracks accurately ripped

No errors occurred

End of status report

–– CUETools DB Plugin V2.1.6

[CTDB TOCID: PPiuZcMCkz55SL04WeSKhV04aHU-] found
Submit result: PPiuZcMCkz55SL04WeSKhV04aHU- has been confirmed
Track | CTDB Status
1 | (6/6) Accurately ripped
2 | (6/6) Accurately ripped
3 | (6/6) Accurately ripped
4 | (6/6) Accurately ripped
5 | (6/6) Accurately ripped
6 | (6/6) Accurately ripped
7 | (6/6) Accurately ripped
8 | (6/6) Accurately ripped
9 | (5/6) Accurately ripped
10 | (6/6) Accurately ripped
11 | (6/6) Accurately ripped
12 | (6/6) Accurately ripped
13 | (6/6) Accurately ripped
14 | (6/6) Accurately ripped
15 | (6/6) Accurately ripped
16 | (6/6) Accurately ripped
17 | (6/6) Accurately ripped
18 | (6/6) Accurately ripped
19 | (6/6) Accurately ripped
20 | (6/6) Accurately ripped


==== Log checksum C90BA3AD9ECBB7B3A16C08EFA9D37C00CF1E357D119DE96B3D8AB0F8507C6A96 ====

Thanks to the Original ripper StefMir !