Various Artists - Woody Guthrie at 100! - Live at the Kennedy Center (2013) {CD+Bonus DVD9 NTSC)

Posted By: ruskaval
Various Artists - Woody Guthrie at 100! - Live at the Kennedy Center (2013) {CD+Bonus DVD9 NTSC)

Various Artists - Woody Guthrie at 100! - Live at the Kennedy Center (2013) {CD+Bonus DVD9 NTSC)
EAC rip (secure mode) | FLAC (tracks)+CUE+LOG -> 468 Mb | MP3 @320 -> 182 Mb
DVD9 -> 5.61 Gb | All Regions | NTSC 16:9 | LinearPCM, 2 ch / Dolby AC3, 6 ch | ~ 91 min | ISO Image
Full Artwork @ 300 dpi (png) -> 99 Mb | 5% repair rar
© 2013 Woody Guthrie Publications / Legacy / Sony Music | 88883728092
Country / Folk / Political Folk / Folk Revival / Contemporary Folk / Protest Songs

Woody Guthrie was born on July 14th, 1912 in Okemah, Oklahoma. Over the decades, his songs have run around the world like a fast train on a well oiled track. They've become the folk song standards of the nation, known and performed in many languages throughout the world.

Woody Guthrie at 100! Live at the Kennedy Center, is the CD/ DVD centennial celebration of the birth of America's greatest folk singer, Woody Guthrie. John Mellencamp, Jackson Browne, Tom Morello, Donovan, Ani DiFranco, Rosanne Cash, Old Crow Medicine Show and others perform many of Guthrie's classics along with recently recorded lyrics from the Woody Guthrie Archives. This historic DVD captures is the concert recorded live at the John F. Kennedy Center for the Performing Arts in Washington DC on October 14th, 2012. The DVD also includes additional performances by Judy Collins, Lucinda Williams, Jimmy LaFave, Rosanne Cash, Old Crow Medicine Show and Ramblin' Jack Elliott that were not shown in the PBS Broadcast. The accompanying 19 song CD is the perfect soundtrack to this unique event.

Woody Guthrie at 100! Live at the Kennedy Center is the ultimate tribute that honors both the music and the man.
Various Artists - Woody Guthrie at 100! - Live at the Kennedy Center (2013) {CD+Bonus DVD9 NTSC)

Woody Guthrie defined an era and culture in transition in his Dust Bowl ballads, his outlaw tales, his work and labor songs, anti-war songs, children's songs, political songs, and a host of love songs and songs that touched on philosophy, geography, and the hard work of living day to day in an emerging industrial world. He was kind of a maverick beat journalist. He wrote and drew constantly, and new poems, writings, drawings, lyrics, and even previously unknown songs and recordings have kept turning up even a decade into the 21st century, making him, in retrospect, a kind of maverick gonzo beat journalist, and if he defiantly wished, yearned, and politicized for a better America, it's hard to imagine a more American artist. This CD/DVD collects highlights from a concert held at the John F. Kennedy Center for the Performing Arts in Washington, D.C. on October 14, 2012 to honor the 100th anniversary of Guthrie's birth, and as these various performers that night present their versions of Guthrie's songs, what quickly becomes obvious is how varied, versatile, poignant, literate, and lyrical he was as a songwriter, even if he worked mostly in a vernacular style. His best songs both capture an era and transcend that era, and his feel for the downtrodden in the land of opportunity is unparalleled. But he also wrote love songs and kid's songs, and all of these are here, including highlight performances by Judy Collins (she turns back the clock with a beautiful piano and acoustic guitar arrangement of "Pastures of Plenty"), Ani DiFranco (a haunting "Deportee," complete with ghostly fiddle and some fine atmospheric guitar from Ry Cooder), Rosanne Cash (her takes on "I Ain't Got No Home" and "Pretty Boy Floyd," with John Leventhal adding guitar, are revealing, particularly "Pretty Boy Floyd," which is done with her father Johnny Cash's patented Tennessee Two shuffle), and Joel Rafael (he sounds so much like Bob Dylan here on "Ramblin' Reckless Hobo" that one could swear it was a long lost Dylan song circa Another Side of Bob Dylan – and underscores how much Dylan learned from Guthrie). The one sort of sad note in the set is Ramblin' Jack Elliott's (perhaps the purest of Guthrie-influenced acolytes) ramshackle and wobbly version of "1913 Massacre." Time and a life of constant gigs have settled in on Elliott here, and it's heartbreaking to hear him struggle through the song, the kind of song he used to carry in his pocket. It's easy to imagine Guthrie doing the same thing, though, which he did, actually, singing until he simply couldn't sing anymore. But these songs are sturdy. They're timeless. Someone will always be singing them, and it really doesn't matter how well.
Various Artists - Woody Guthrie at 100! - Live at the Kennedy Center (2013) {CD+Bonus DVD9 NTSC)


tracklist & personnel:
CD

01 - Old Crow Medicine Show - Howdi Do
02 - Old Crow Medicine Show - Union Maid
03 - Joel Rafael - Ramblin' Reckless Hobo
04 - Jimmy LaFave - Hard Travelin'
05 - Donovan - Ridin' in My Car
06 - Rosanne Cash - I Ain't Got No Home
07 - Rosanne Cash - Pretty Boy Floyd
08 - Sweet Honey in the Rock - I've Got to Know
09 - Lucinda Williams - House of Earth
10 - Judy Collins - Pastures of Plenty
11 - Tom Morello - Ease My Revolutionary Mind
12 - Ani DeFranco - Deportee
13 - Jackson Browne w Rob Wasserman - You Know the Night
14 - Del McCoury Band w Tiim O' Brien - So Long It's Been Good to Know You
15 - Tony Trischka w Del McCoury Band & Tim O' Brien - Woody's Rag
16 - John Mellencamp - Do Re Mi
17 - Ramblin' Jack Elliott - 1913 Massacre
18 - Ensemble - This Train is Bound for Glory
19 - Ensemble - This Land is Your Land

Various Artists - Woody Guthrie at 100! - Live at the Kennedy Center (2013) {CD+Bonus DVD9 NTSC)


DVD
1. Howdi Do Old Crow Medicine Show
2. Union Maid Old Crow Medicine Show
3. This Is Our Country Here Jeff Daniels
4. Ramblin' Reckless Hobo Joel Rafael
5. Hard Travelin' - Jimmy LaFave
6. Riding In My Car Donovan
7. I Ain't Got No Home Rosanne Cash with John Leventhal
8. Pretty Boy Floyd Rosanne Cash with John Leventhal
9. I've Got To Know Sweet Honey In The Rock
10. House Of Earth Lucinda Williams
11. Pastures Of Plenty Judy Collins
12. Ease My Revolutionary Mind Tom Morello
13. Deportee Ani DiFranco with Ry Cooder and Dan Gellert
14. I Hate A Song (spoken word) Jeff Daniels
15. You Know The Night Jackson Browne
16. So Long, It's Been Good To Know Yuh Del McCoury Band with Tim O Brien
17. Woody's Rag Del McCoury Band with Tim O'Brien and Tony Trischka
18. Do Re Mi John Mellencamp
19. 1913 Massacre Ramblin Jack Elliott
20. Nora Guthrie (spoken word)
21. This Train Is Bound For Glory All Performers
22. This Land Is Your Land All Performers

Exact Audio Copy V1.0 beta 2 from 29. April 2011

EAC extraction logfile from 30. August 2013, 21:20

Various Artists / Woody Guthrie at 100 - Live at Kennedy Center

Used drive : PLDS DVD+-RW DS-8A5SH Adapter: 0 ID: 0

Read mode : Secure
Utilize accurate stream : Yes
Defeat audio cache : Yes
Make use of C2 pointers : No

Read offset correction : 6
Overread into Lead-In and Lead-Out : No
Fill up missing offset samples with silence : Yes
Delete leading and trailing silent blocks : No
Null samples used in CRC calculations : Yes
Used interface : Native Win32 interface for Win NT & 2000
Gap handling : Appended to previous track

Used output format : User Defined Encoder
Selected bitrate : 128 kBit/s
Quality : High
Add ID3 tag : No
Command line compressor : C:\Program Files (x86)\Exact Audio Copy\FLAC\FLAC.EXE
Additional command line options : -8 -V -T "ARTIST=%artist%" -T "TITLE=%title%" -T "ALBUM=%albumtitle%" -T "DATE=%year%" -T "TRACKNUMBER=%tracknr%" -T "TOTALTRACKS=%numtracks%" -T "GENRE=%genre%" -T "ALBUMARTIST=%albumartist%" -T "ALBUM ARTIST=%albumartist%


TOC of the extracted CD

Track | Start | Length | Start sector | End sector
––––––––––––––––––––––––––––-
1 | 0:00.00 | 2:07.52 | 0 | 9576
2 | 2:07.52 | 2:46.27 | 9577 | 22053
3 | 4:54.04 | 3:08.50 | 22054 | 36203
4 | 8:02.54 | 3:37.35 | 36204 | 52513
5 | 11:40.14 | 2:57.57 | 52514 | 65845
6 | 14:37.71 | 4:25.69 | 65846 | 85789
7 | 19:03.65 | 3:45.28 | 85790 | 102692
8 | 22:49.18 | 5:08.42 | 102693 | 125834
9 | 27:57.60 | 5:13.27 | 125835 | 149336
10 | 33:11.12 | 3:47.63 | 149337 | 166424
11 | 36:59.00 | 4:19.03 | 166425 | 185852
12 | 41:18.03 | 4:40.17 | 185853 | 206869
13 | 45:58.20 | 4:19.29 | 206870 | 226323
14 | 50:17.49 | 5:06.36 | 226324 | 249309
15 | 55:24.10 | 3:24.60 | 249310 | 264669
16 | 58:48.70 | 3:48.44 | 264670 | 281813
17 | 62:37.39 | 5:50.00 | 281814 | 308063
18 | 68:27.39 | 3:41.62 | 308064 | 324700
19 | 72:09.26 | 4:55.15 | 324701 | 346840


Track 1

Filename C:\Users\porcupine\Desktop\EAC\01 - Old Crow Medicine Show - Howdi Do.wav

Pre-gap length 0:00:02.00

Peak level 98.2 %
Extraction speed 2.5 X
Track quality 100.0 %
Test CRC 24C7B802
Copy CRC 24C7B802
Track not present in AccurateRip database
Copy OK

Track 2

Filename C:\Users\porcupine\Desktop\EAC\02 - Old Crow Medicine Show - Union Maid.wav

Peak level 97.0 %
Extraction speed 2.2 X
Track quality 99.9 %
Test CRC 12ADAEFF
Copy CRC 12ADAEFF
Track not present in AccurateRip database
Copy OK

Track 3

Filename C:\Users\porcupine\Desktop\EAC\03 - Joel Rafael - Ramblin' Reckless Hobo.wav

Peak level 96.9 %
Extraction speed 3.1 X
Track quality 100.0 %
Test CRC 9EF78FE2
Copy CRC 9EF78FE2
Track not present in AccurateRip database
Copy OK

Track 4

Filename C:\Users\porcupine\Desktop\EAC\04 - Jimmy LaFave - Hard Travelin'.wav

Peak level 97.1 %
Extraction speed 2.8 X
Track quality 99.9 %
Test CRC 65F0BC7F
Copy CRC 65F0BC7F
Track not present in AccurateRip database
Copy OK

Track 5

Filename C:\Users\porcupine\Desktop\EAC\05 - Donovan - Ridin' in My Car.wav

Peak level 96.6 %
Extraction speed 3.4 X
Track quality 100.0 %
Test CRC 63A5B156
Copy CRC 63A5B156
Track not present in AccurateRip database
Copy OK

Track 6

Filename C:\Users\porcupine\Desktop\EAC\06 - Rosanne Cash - I Ain't Got No Home.wav

Peak level 100.0 %
Extraction speed 3.3 X
Track quality 99.9 %
Test CRC 2CBD85DC
Copy CRC 2CBD85DC
Track not present in AccurateRip database
Copy OK

Track 7

Filename C:\Users\porcupine\Desktop\EAC\07 - Rosanne Cash - Pretty Boy Floyd.wav

Peak level 100.0 %
Extraction speed 4.0 X
Track quality 100.0 %
Test CRC 9832D6DD
Copy CRC 9832D6DD
Track not present in AccurateRip database
Copy OK

Track 8

Filename C:\Users\porcupine\Desktop\EAC\08 - Sweet Honey in the Rock - I've Got to Know.wav

Peak level 96.3 %
Extraction speed 4.3 X
Track quality 100.0 %
Test CRC E928879E
Copy CRC E928879E
Track not present in AccurateRip database
Copy OK

Track 9

Filename C:\Users\porcupine\Desktop\EAC\09 - Lucinda Williams - House of Earth.wav

Peak level 100.0 %
Extraction speed 4.0 X
Track quality 99.9 %
Test CRC E69C2689
Copy CRC E69C2689
Track not present in AccurateRip database
Copy OK

Track 10

Filename C:\Users\porcupine\Desktop\EAC\10 - Judy Collins - Pastures of Plenty.wav

Peak level 96.8 %
Extraction speed 4.6 X
Track quality 100.0 %
Test CRC 4F7132FE
Copy CRC 4F7132FE
Track not present in AccurateRip database
Copy OK

Track 11

Filename C:\Users\porcupine\Desktop\EAC\11 - Tom Morello - Ease My Revolutionary Mind.wav

Peak level 98.5 %
Extraction speed 4.9 X
Track quality 100.0 %
Test CRC 16E83FBE
Copy CRC 16E83FBE
Track not present in AccurateRip database
Copy OK

Track 12

Filename C:\Users\porcupine\Desktop\EAC\12 - Ani DeFranco - Deportee.wav

Peak level 96.4 %
Extraction speed 5.0 X
Track quality 100.0 %
Test CRC AD894B70
Copy CRC AD894B70
Track not present in AccurateRip database
Copy OK

Track 13

Filename C:\Users\porcupine\Desktop\EAC\13 - Jackson Browne w Rob Wasserman - You Know the Night.wav

Peak level 100.0 %
Extraction speed 5.2 X
Track quality 100.0 %
Test CRC EE8ED3FE
Copy CRC EE8ED3FE
Track not present in AccurateRip database
Copy OK

Track 14

Filename C:\Users\porcupine\Desktop\EAC\14 - Del McCoury Band w Tiim O' Brien - So Long It's Been Good to Know You.wav

Peak level 97.0 %
Extraction speed 5.5 X
Track quality 100.0 %
Test CRC BBECF94D
Copy CRC BBECF94D
Track not present in AccurateRip database
Copy OK

Track 15

Filename C:\Users\porcupine\Desktop\EAC\15 - Tony Trischka w Del McCoury Band & Tim O' Brien - Woody's Rag.wav

Peak level 96.6 %
Extraction speed 5.3 X
Track quality 100.0 %
Test CRC C15D2243
Copy CRC C15D2243
Track not present in AccurateRip database
Copy OK

Track 16

Filename C:\Users\porcupine\Desktop\EAC\16 - John Mellencamp - Do Re Mi.wav

Peak level 97.8 %
Extraction speed 5.6 X
Track quality 100.0 %
Test CRC 018E61C7
Copy CRC 018E61C7
Track not present in AccurateRip database
Copy OK

Track 17

Filename C:\Users\porcupine\Desktop\EAC\17 - Ramblin' Jack Elliott - 1913 Massacre.wav

Peak level 96.8 %
Extraction speed 6.0 X
Track quality 100.0 %
Test CRC EA3531C7
Copy CRC EA3531C7
Track not present in AccurateRip database
Copy OK

Track 18

Filename C:\Users\porcupine\Desktop\EAC\18 - Ensemble - This Train is Bound for Glory.wav

Peak level 100.0 %
Extraction speed 5.8 X
Track quality 100.0 %
Test CRC 548B98DE
Copy CRC 548B98DE
Track not present in AccurateRip database
Copy OK

Track 19

Filename C:\Users\porcupine\Desktop\EAC\19 - Ensemble - This Land is Your Land.wav

Peak level 100.0 %
Extraction speed 6.2 X
Track quality 100.0 %
Test CRC 1C5F00C9
Copy CRC 1C5F00C9
Track not present in AccurateRip database
Copy OK


None of the tracks are present in the AccurateRip database

No errors occurred

End of status report

==== Log checksum 21C78B63CA92DD114A647CC90265C640C79D5B1640205D9E6E9B7F8E8D019F65 ====

I 21:22:15 DVD Decrypter Version 3.5.4.0 started!
I 21:22:15 Microsoft Windows XP Home Edition (5.1, Build 2600 : Service Pack 3)
I 21:22:15 Initialising SPTI…
I 21:22:15 Searching for SCSI / ATAPI devices…
I 21:22:15 Found 1 DVD-RAM/±RW!
I 21:22:17 Operation Started!
I 21:22:17 Source Device: [0:0:0] PLDS DVD+-RW DS-8A5SH XD13 (D:) (Unknown (0x0B))
I 21:22:17 Source Media Type: DVD-ROM
I 21:22:18 Source Media Region Code: 1; 2; 3; 4; 5; 6; 7; 8
I 21:22:18 Source Media Copyright Protection System Type: CSS/CPPM
I 21:22:18 Source Media Implementation Identifier: Sonic Scenarist 3.1
I 21:22:18 Destination File: C:\Users\porcupine\Desktop\DVDdecripter\WOODY_GUTHRIE.ISO
I 21:22:18 File Splitting: None
I 21:22:18 Hardware Read Error Retries: 20
I 21:22:18 Detect Mastering Errors: No
I 21:22:18 Remove Macrovision Protection: Yes
I 21:22:18 Extracting Sectors… (LBA: 0 - 2955584)
I 21:22:18 Found IFO File: VIDEO_TS.IFO - (LBA: 305 - 312)
I 21:22:19 Found VOB File: VIDEO_TS.VOB - (LBA: 313 - 316) - KEY: C0 75 9C A2 09
I 21:22:19 Found BUP File: VIDEO_TS.BUP - (LBA: 333 - 340)
I 21:22:19 Found IFO File: VTS_01_0.IFO - (LBA: 341 - 374)
I 21:22:19 Found VOB File: VTS_01_0.VOB - (LBA: 375 - 32151) - KEY: C0 75 9C A2 09
I 21:22:36 Found VOB File: VTS_01_1.VOB - (LBA: 32152 - 556335) - KEY: C0 75 9C A2 09
I 21:25:39 Found VOB File: VTS_01_2.VOB - (LBA: 556336 - 1080581) - KEY: C0 75 9C A2 09
I 21:27:57 Found VOB File: VTS_01_3.VOB - (LBA: 1080582 - 1604728) - KEY: C0 75 9C A2 09
I 21:29:53 Found VOB File: VTS_01_4.VOB - (LBA: 1604729 - 2128992) - KEY: C0 75 9C A2 09
I 21:31:37 Found VOB File: VTS_01_5.VOB - (LBA: 2128993 - 2653171) - KEY: C0 75 9C A2 09
I 21:33:33 Found VOB File: VTS_01_6.VOB - (LBA: 2653172 - 2755475) - KEY: C0 75 9C A2 09
I 21:33:58 Found BUP File: VTS_01_0.BUP - (LBA: 2755492 - 2755525)
I 21:33:58 Found IFO File: VTS_02_0.IFO - (LBA: 2755526 - 2755534)
I 21:33:58 Found VOB File: VTS_02_0.VOB - (LBA: 2755535 - 2755538) - KEY: D5 CA 6F 01 9D
I 21:33:58 Found VOB File: VTS_02_1.VOB - (LBA: 2755539 - 2759621) - KEY: D5 CA 6F 01 9D
I 21:33:59 Found BUP File: VTS_02_0.BUP - (LBA: 2759638 - 2759646)
I 21:33:59 Found IFO File: VTS_03_0.IFO - (LBA: 2759647 - 2759655)
I 21:33:59 Found VOB File: VTS_03_0.VOB - (LBA: 2759656 - 2759659) - KEY: CD 7E 37 B9 91
I 21:33:59 Found VOB File: VTS_03_1.VOB - (LBA: 2759660 - 2768287) - KEY: CD 7E 37 B9 91
I 21:34:01 Found BUP File: VTS_03_0.BUP - (LBA: 2768304 - 2768312)
I 21:34:01 Found IFO File: VTS_04_0.IFO - (LBA: 2768313 - 2768323)
I 21:34:01 Found VOB File: VTS_04_0.VOB - (LBA: 2768324 - 2768327) - KEY: C8 28 A8 F6 87
I 21:34:02 Found VOB File: VTS_04_1.VOB - (LBA: 2768328 - 2955556) - KEY: C8 28 A8 F6 87
I 21:34:50 Found BUP File: VTS_04_0.BUP - (LBA: 2955573 - 2955583)
I 21:34:50 Operation Successfully Completed! - Duration: 00:12:32
I 21:34:50 Average Read Rate: 7.860 KB/s (5.7x) - Maximum Read Rate: 10.563 KB/s (7.6x)


Various Artists - Woody Guthrie at 100! - Live at the Kennedy Center (2013) {CD+Bonus DVD9 NTSC)

Various Artists - Woody Guthrie at 100! - Live at the Kennedy Center (2013) {CD+Bonus DVD9 NTSC)

Various Artists - Woody Guthrie at 100! - Live at the Kennedy Center (2013) {CD+Bonus DVD9 NTSC)

Various Artists - Woody Guthrie at 100! - Live at the Kennedy Center (2013) {CD+Bonus DVD9 NTSC)

Various Artists - Woody Guthrie at 100! - Live at the Kennedy Center (2013) {CD+Bonus DVD9 NTSC)

Various Artists - Woody Guthrie at 100! - Live at the Kennedy Center (2013) {CD+Bonus DVD9 NTSC)

Various Artists - Woody Guthrie at 100! - Live at the Kennedy Center (2013) {CD+Bonus DVD9 NTSC)

Various Artists - Woody Guthrie at 100! - Live at the Kennedy Center (2013) {CD+Bonus DVD9 NTSC)


All thanks goes to the original releaser!


===