Subcategories
Tags
Language
Tags

VA - Top 40 Ciao Italia: The Ultimate Top 40 Collection (2017)

Posted By: delpotro
VA - Top 40 Ciao Italia: The Ultimate Top 40 Collection (2017)

VA - Top 40 Ciao Italia: The Ultimate Top 40 Collection (2017)
EAC Rip | FLAC (tracks+log+.cue) - 1,02 Gb | MP3 CBR 320 kbps - 356 Mb | 02:33:30
Pop | Label: Sony Music

2 CDs, 40 tracks including hits from Eros Ramazzotti, Umberto Tozzi, Lucio Dalla, Jovanotti and many others.
Tracklist:
Disc 1 (01:15:15)
1. Matia Bazar – Ti Sento (04:15)
2. Eros Ramazzotti – Cose Della Vita (04:51)
3. Paolo Conte – Via Con Me (02:47)
4. Raffaella Carrà – A Far L'Amore Comincia Tu (Liebelei) (02:45)
5. Francesco Napoli – Balla…Balla (05:59)
6. Gigliola Cinquetti – Non Ho L'Età (03:49)
7. Tozzi & Raf – Gente Di Mare (03:54)
8. Al Martino – Volare (02:53)
9. Jovanotti – Libera L'Anima (04:07)
10. Rocco Granata – Marina (02:45)
11. Al Bano & Romina Power – Felicitá (03:17)
12. Bobby Solo – Una Lacrima Sul Viso (03:09)
13. Ricchi E Poveri – M'Innamoro Di Te (03:17)
14. Luca Carboni – Mare Mare (04:40)
15. Christina – Libera (04:01)
16. Miquel Bose – Ti Amero (03:30)
17. Patty Pravo – Pazza Idea (04:42)
18. Gianni Morandi – Scende La Pioggia (Elenore) (02:30)
19. Scialpi – Solitario (03:20)
20. Claudio Baglioni – E Tu… (04:44)

Disc 2 (01:18:16)
1. Umberto Tozzi – Ti Amo (04:08)
2. Paolo Conte – Max (03:46)
3. Drupi – Vado Via (04:07)
4. Bino – Mama Leone (03:58)
5. Eros Ramazzotti – Ma Che Bello Questo Amore (04:11)
6. Al Bano & Romina Power – Sharazan (04:27)
7. Gino Politi – Viva La Mamma (02:56)
8. Ricchi E Poveri – Mamma Maria (03:06)
9. Alan Sorrenti – Tu Sei L'Unica Donna Per Me (03:47)
10. Giorgia – E Poi (04:28)
11. Tony Renis – Quando Quando Quando (02:46)
12. Patty Pravo – La Bambola (03:01)
13. Lucio Dalla – Caruso (05:14)
14. Wess And Dori Ghezzi – Era (02:54)
15. Jimmy Fontana – Il Mondo (02:44)
16. Rita Pavone – Bene Bene Bene (02:48)
17. Riccardo Fogli – Non Finisce Cosi (04:29)
18. Marcella Bella – Nell'Aria (03:57)
19. Nino D'Angelo – Cuore (03:16)
20. Mia Martini – Piccolo Uomo (04:21)
21. Fausto Leali – Io Amo (03:52)

Exact Audio Copy V1.3 from 2. September 2016

EAC extraction logfile from 22. June 2020, 21:33

Various Artists / Top 40 Ciao Italia

Used drive : PLEXTOR PX-891SAF Adapter: 1 ID: 0

Read mode : Secure
Utilize accurate stream : Yes
Defeat audio cache : Yes
Make use of C2 pointers : No

Read offset correction : 6
Overread into Lead-In and Lead-Out : No
Fill up missing offset samples with silence : Yes
Delete leading and trailing silent blocks : No
Null samples used in CRC calculations : Yes
Used interface : Native Win32 interface for Win NT & 2000
Gap handling : Appended to previous track

Used output format : User Defined Encoder
Selected bitrate : 1024 kBit/s
Quality : High
Add ID3 tag : No
Command line compressor : C:\Program Files (x86)\Exact Audio Copy\Flac\flac.exe
Additional command line options : -8 -V -T "ARTIST=%artist%" -T "TITLE=%title%" -T "ALBUM=%albumtitle%" -T "DATE=%year%" -T "TRACKNUMBER=%tracknr%" -T "GENRE=%genre%" -T "PERFORMER=%albuminterpret%" -T "COMPOSER=%composer%" %haslyrics%–tag-from-file=LYRICS="%lyricsfile%"%haslyrics% -T "ALBUMARTIST=%albumartist%" -T "DISCNUMBER=%cdnumber%" -T "TOTALDISCS=%totalcds%" -T "TOTALTRACKS=%numtracks%" -T "COMMENT=%comment%" %source% -o %dest%


TOC of the extracted CD

Track | Start | Length | Start sector | End sector
––––––––––––––––––––––––––––-
1 | 0:00.00 | 4:14.72 | 0 | 19121
2 | 4:14.72 | 4:51.02 | 19122 | 40948
3 | 9:05.74 | 2:47.23 | 40949 | 53496
4 | 11:53.22 | 2:44.43 | 53497 | 65839
5 | 14:37.65 | 5:59.14 | 65840 | 92778
6 | 20:37.04 | 3:48.52 | 92779 | 109930
7 | 24:25.56 | 3:54.12 | 109931 | 127492
8 | 28:19.68 | 2:52.69 | 127493 | 140461
9 | 31:12.62 | 4:07.02 | 140462 | 158988
10 | 35:19.64 | 2:45.25 | 158989 | 171388
11 | 38:05.14 | 3:16.39 | 171389 | 186127
12 | 41:21.53 | 3:08.45 | 186128 | 200272
13 | 44:30.23 | 3:16.69 | 200273 | 215041
14 | 47:47.17 | 4:40.14 | 215042 | 236055
15 | 52:27.31 | 4:00.66 | 236056 | 254121
16 | 56:28.22 | 3:29.61 | 254122 | 269857
17 | 59:58.08 | 4:42.00 | 269858 | 291007
18 | 64:40.08 | 2:30.30 | 291008 | 302287
19 | 67:10.38 | 3:20.09 | 302288 | 317296
20 | 70:30.47 | 4:44.05 | 317297 | 338601


Track 1

Filename D:\#EAC new\#wav+flac\VA - Top 40 Ciao Italia\cd 1\01. Matia Bazar - Ti Sento.wav

Pre-gap length 0:00:02.00

Peak level 96.6 %
Extraction speed 4.6 X
Track quality 99.9 %
Test CRC 88A0A5E2
Copy CRC 88A0A5E2
Track not present in AccurateRip database
Copy OK

Track 2

Filename D:\#EAC new\#wav+flac\VA - Top 40 Ciao Italia\cd 1\02. Eros Ramazzotti - Cose Della Vita.wav

Pre-gap length 0:00:02.00

Peak level 96.6 %
Extraction speed 6.1 X
Track quality 100.0 %
Test CRC B36435C6
Copy CRC B36435C6
Track not present in AccurateRip database
Copy OK

Track 3

Filename D:\#EAC new\#wav+flac\VA - Top 40 Ciao Italia\cd 1\03. Paolo Conte - Via Con Me.wav

Pre-gap length 0:00:02.00

Peak level 96.6 %
Extraction speed 4.8 X
Track quality 99.9 %
Test CRC 4B5E7C1D
Copy CRC 4B5E7C1D
Track not present in AccurateRip database
Copy OK

Track 4

Filename D:\#EAC new\#wav+flac\VA - Top 40 Ciao Italia\cd 1\04. Raffaella Carrà - A Far L'Amore Comincia Tu (Liebelei).wav

Pre-gap length 0:00:02.00

Peak level 96.6 %
Extraction speed 6.2 X
Track quality 100.0 %
Test CRC B19893E4
Copy CRC B19893E4
Track not present in AccurateRip database
Copy OK

Track 5

Filename D:\#EAC new\#wav+flac\VA - Top 40 Ciao Italia\cd 1\05. Francesco Napoli - Baila…Baila.wav

Pre-gap length 0:00:02.00

Peak level 96.6 %
Extraction speed 6.5 X
Track quality 99.9 %
Test CRC 055A4CD1
Copy CRC 055A4CD1
Track not present in AccurateRip database
Copy OK

Track 6

Filename D:\#EAC new\#wav+flac\VA - Top 40 Ciao Italia\cd 1\06. Gigliola Cinquetti - Non Ho L'Età.wav

Pre-gap length 0:00:02.00

Peak level 96.6 %
Extraction speed 7.4 X
Track quality 100.0 %
Test CRC C7FB0DB9
Copy CRC C7FB0DB9
Track not present in AccurateRip database
Copy OK

Track 7

Filename D:\#EAC new\#wav+flac\VA - Top 40 Ciao Italia\cd 1\07. Umberto Tozzi & Raf - Gente Di Mare.wav

Pre-gap length 0:00:02.00

Peak level 96.6 %
Extraction speed 7.7 X
Track quality 100.0 %
Test CRC 1944E0A4
Copy CRC 1944E0A4
Track not present in AccurateRip database
Copy OK

Track 8

Filename D:\#EAC new\#wav+flac\VA - Top 40 Ciao Italia\cd 1\08. Al Martino - Volare.wav

Pre-gap length 0:00:02.00

Peak level 96.6 %
Extraction speed 7.7 X
Track quality 100.0 %
Test CRC 74251CFB
Copy CRC 74251CFB
Track not present in AccurateRip database
Copy OK

Track 9

Filename D:\#EAC new\#wav+flac\VA - Top 40 Ciao Italia\cd 1\09. Jovanotti - Libera L'Anima.wav

Pre-gap length 0:00:02.00

Peak level 96.6 %
Extraction speed 8.3 X
Track quality 100.0 %
Test CRC 5C3790B0
Copy CRC 5C3790B0
Track not present in AccurateRip database
Copy OK

Track 10

Filename D:\#EAC new\#wav+flac\VA - Top 40 Ciao Italia\cd 1\10. Rocco Granata - Marina.wav

Pre-gap length 0:00:02.00

Peak level 96.6 %
Extraction speed 6.3 X
Track quality 99.9 %
Test CRC 75DBF2F8
Copy CRC 75DBF2F8
Track not present in AccurateRip database
Copy OK

Track 11

Filename D:\#EAC new\#wav+flac\VA - Top 40 Ciao Italia\cd 1\11. Al Bano & Romina Power - Felicità.wav

Pre-gap length 0:00:02.00

Peak level 96.6 %
Extraction speed 6.9 X
Track quality 99.9 %
Test CRC B4323318
Copy CRC B4323318
Track not present in AccurateRip database
Copy OK

Track 12

Filename D:\#EAC new\#wav+flac\VA - Top 40 Ciao Italia\cd 1\12. Bobby Solo - Una Lacrima Sul Viso.wav

Pre-gap length 0:00:02.00

Peak level 95.8 %
Extraction speed 8.4 X
Track quality 100.0 %
Test CRC 72E7881D
Copy CRC 72E7881D
Track not present in AccurateRip database
Copy OK

Track 13

Filename D:\#EAC new\#wav+flac\VA - Top 40 Ciao Italia\cd 1\13. Ricchi E Poveri - M'innamoro Di Te.wav

Pre-gap length 0:00:02.00

Peak level 96.6 %
Extraction speed 8.9 X
Track quality 100.0 %
Test CRC BF58DB64
Copy CRC BF58DB64
Track not present in AccurateRip database
Copy OK

Track 14

Filename D:\#EAC new\#wav+flac\VA - Top 40 Ciao Italia\cd 1\14. Luca Carboni - Mare Mare.wav

Pre-gap length 0:00:02.00

Peak level 96.6 %
Extraction speed 8.2 X
Track quality 99.9 %
Test CRC B861D0F8
Copy CRC B861D0F8
Track not present in AccurateRip database
Copy OK

Track 15

Filename D:\#EAC new\#wav+flac\VA - Top 40 Ciao Italia\cd 1\15. Christina - Libera.wav

Pre-gap length 0:00:02.00

Peak level 96.6 %
Extraction speed 9.8 X
Track quality 100.0 %
Test CRC AC8EC93F
Copy CRC AC8EC93F
Track not present in AccurateRip database
Copy OK

Track 16

Filename D:\#EAC new\#wav+flac\VA - Top 40 Ciao Italia\cd 1\16. Miguel Bosé - Ti Amero.wav

Pre-gap length 0:00:02.00

Peak level 96.6 %
Extraction speed 7.8 X
Track quality 99.9 %
Test CRC 167ABAFB
Copy CRC 167ABAFB
Track not present in AccurateRip database
Copy OK

Track 17

Filename D:\#EAC new\#wav+flac\VA - Top 40 Ciao Italia\cd 1\17. Patty Pravo - Pazza Idea.wav

Pre-gap length 0:00:02.00

Peak level 96.6 %
Extraction speed 10.5 X
Track quality 100.0 %
Test CRC 8F696739
Copy CRC 8F696739
Track not present in AccurateRip database
Copy OK

Track 18

Filename D:\#EAC new\#wav+flac\VA - Top 40 Ciao Italia\cd 1\18. Gianni Morandi - Scende La Pioggia (Elenore).wav

Pre-gap length 0:00:02.00

Peak level 73.2 %
Extraction speed 7.3 X
Track quality 99.9 %
Test CRC D1C3F3E4
Copy CRC D1C3F3E4
Track not present in AccurateRip database
Copy OK

Track 19

Filename D:\#EAC new\#wav+flac\VA - Top 40 Ciao Italia\cd 1\19. Scialpi - Solitario.wav

Pre-gap length 0:00:02.00

Peak level 96.6 %
Extraction speed 10.4 X
Track quality 100.0 %
Test CRC F45AB0FF
Copy CRC F45AB0FF
Track not present in AccurateRip database
Copy OK

Track 20

Filename D:\#EAC new\#wav+flac\VA - Top 40 Ciao Italia\cd 1\20. Claudio Baglioni - E Tu….wav

Pre-gap length 0:00:02.00

Peak level 96.6 %
Extraction speed 10.8 X
Track quality 100.0 %
Test CRC D3D12BBA
Copy CRC D3D12BBA
Track not present in AccurateRip database
Copy OK


None of the tracks are present in the AccurateRip database

No errors occurred

End of status report

–– CUETools DB Plugin V2.1.6

[CTDB TOCID: 6uvareFrhnv.JY3ZCnn1n6hNEMY-] found
Submit result: 6uvareFrhnv.JY3ZCnn1n6hNEMY- has been confirmed
Track | CTDB Status
1 | (10/10) Accurately ripped
2 | (10/10) Accurately ripped
3 | (10/10) Accurately ripped
4 | (10/10) Accurately ripped
5 | (10/10) Accurately ripped
6 | (10/10) Accurately ripped
7 | (10/10) Accurately ripped
8 | (10/10) Accurately ripped
9 | (10/10) Accurately ripped
10 | (10/10) Accurately ripped
11 | (10/10) Accurately ripped
12 | (10/10) Accurately ripped
13 | (10/10) Accurately ripped
14 | (10/10) Accurately ripped
15 | (10/10) Accurately ripped
16 | (10/10) Accurately ripped
17 | (10/10) Accurately ripped
18 | (10/10) Accurately ripped
19 | (10/10) Accurately ripped
20 | (10/10) Accurately ripped


==== Log checksum 99E396F524961B4D76434014B73AC595E4393F5728F6E6A764AFE219A2CCD56A ====

––––––––––––––––––––––––––––––

Exact Audio Copy V1.3 from 2. September 2016

EAC extraction logfile from 22. June 2020, 21:33

Various Artists / Top 40 Ciao Italia

Used drive : PLEXTOR PX-891SAF Adapter: 1 ID: 0

Read mode : Secure
Utilize accurate stream : Yes
Defeat audio cache : Yes
Make use of C2 pointers : No

Read offset correction : 6
Overread into Lead-In and Lead-Out : No
Fill up missing offset samples with silence : Yes
Delete leading and trailing silent blocks : No
Null samples used in CRC calculations : Yes
Used interface : Native Win32 interface for Win NT & 2000
Gap handling : Appended to previous track

Used output format : User Defined Encoder
Selected bitrate : 1024 kBit/s
Quality : High
Add ID3 tag : No
Command line compressor : C:\Program Files (x86)\Exact Audio Copy\Flac\flac.exe
Additional command line options : -8 -V -T "ARTIST=%artist%" -T "TITLE=%title%" -T "ALBUM=%albumtitle%" -T "DATE=%year%" -T "TRACKNUMBER=%tracknr%" -T "GENRE=%genre%" -T "PERFORMER=%albuminterpret%" -T "COMPOSER=%composer%" %haslyrics%–tag-from-file=LYRICS="%lyricsfile%"%haslyrics% -T "ALBUMARTIST=%albumartist%" -T "DISCNUMBER=%cdnumber%" -T "TOTALDISCS=%totalcds%" -T "TOTALTRACKS=%numtracks%" -T "COMMENT=%comment%" %source% -o %dest%


TOC of the extracted CD

Track | Start | Length | Start sector | End sector
––––––––––––––––––––––––––––-
1 | 0:00.00 | 4:14.72 | 0 | 19121
2 | 4:14.72 | 4:51.02 | 19122 | 40948
3 | 9:05.74 | 2:47.23 | 40949 | 53496
4 | 11:53.22 | 2:44.43 | 53497 | 65839
5 | 14:37.65 | 5:59.14 | 65840 | 92778
6 | 20:37.04 | 3:48.52 | 92779 | 109930
7 | 24:25.56 | 3:54.12 | 109931 | 127492
8 | 28:19.68 | 2:52.69 | 127493 | 140461
9 | 31:12.62 | 4:07.02 | 140462 | 158988
10 | 35:19.64 | 2:45.25 | 158989 | 171388
11 | 38:05.14 | 3:16.39 | 171389 | 186127
12 | 41:21.53 | 3:08.45 | 186128 | 200272
13 | 44:30.23 | 3:16.69 | 200273 | 215041
14 | 47:47.17 | 4:40.14 | 215042 | 236055
15 | 52:27.31 | 4:00.66 | 236056 | 254121
16 | 56:28.22 | 3:29.61 | 254122 | 269857
17 | 59:58.08 | 4:42.00 | 269858 | 291007
18 | 64:40.08 | 2:30.30 | 291008 | 302287
19 | 67:10.38 | 3:20.09 | 302288 | 317296
20 | 70:30.47 | 4:44.05 | 317297 | 338601


Track 1

Filename D:\#EAC new\#wav+flac\VA - Top 40 Ciao Italia\cd 1\01. Matia Bazar - Ti Sento.wav

Pre-gap length 0:00:02.00

Peak level 96.6 %
Extraction speed 4.6 X
Track quality 99.9 %
Test CRC 88A0A5E2
Copy CRC 88A0A5E2
Track not present in AccurateRip database
Copy OK

Track 2

Filename D:\#EAC new\#wav+flac\VA - Top 40 Ciao Italia\cd 1\02. Eros Ramazzotti - Cose Della Vita.wav

Pre-gap length 0:00:02.00

Peak level 96.6 %
Extraction speed 6.1 X
Track quality 100.0 %
Test CRC B36435C6
Copy CRC B36435C6
Track not present in AccurateRip database
Copy OK

Track 3

Filename D:\#EAC new\#wav+flac\VA - Top 40 Ciao Italia\cd 1\03. Paolo Conte - Via Con Me.wav

Pre-gap length 0:00:02.00

Peak level 96.6 %
Extraction speed 4.8 X
Track quality 99.9 %
Test CRC 4B5E7C1D
Copy CRC 4B5E7C1D
Track not present in AccurateRip database
Copy OK

Track 4

Filename D:\#EAC new\#wav+flac\VA - Top 40 Ciao Italia\cd 1\04. Raffaella Carrà - A Far L'Amore Comincia Tu (Liebelei).wav

Pre-gap length 0:00:02.00

Peak level 96.6 %
Extraction speed 6.2 X
Track quality 100.0 %
Test CRC B19893E4
Copy CRC B19893E4
Track not present in AccurateRip database
Copy OK

Track 5

Filename D:\#EAC new\#wav+flac\VA - Top 40 Ciao Italia\cd 1\05. Francesco Napoli - Baila…Baila.wav

Pre-gap length 0:00:02.00

Peak level 96.6 %
Extraction speed 6.5 X
Track quality 99.9 %
Test CRC 055A4CD1
Copy CRC 055A4CD1
Track not present in AccurateRip database
Copy OK

Track 6

Filename D:\#EAC new\#wav+flac\VA - Top 40 Ciao Italia\cd 1\06. Gigliola Cinquetti - Non Ho L'Età.wav

Pre-gap length 0:00:02.00

Peak level 96.6 %
Extraction speed 7.4 X
Track quality 100.0 %
Test CRC C7FB0DB9
Copy CRC C7FB0DB9
Track not present in AccurateRip database
Copy OK

Track 7

Filename D:\#EAC new\#wav+flac\VA - Top 40 Ciao Italia\cd 1\07. Umberto Tozzi & Raf - Gente Di Mare.wav

Pre-gap length 0:00:02.00

Peak level 96.6 %
Extraction speed 7.7 X
Track quality 100.0 %
Test CRC 1944E0A4
Copy CRC 1944E0A4
Track not present in AccurateRip database
Copy OK

Track 8

Filename D:\#EAC new\#wav+flac\VA - Top 40 Ciao Italia\cd 1\08. Al Martino - Volare.wav

Pre-gap length 0:00:02.00

Peak level 96.6 %
Extraction speed 7.7 X
Track quality 100.0 %
Test CRC 74251CFB
Copy CRC 74251CFB
Track not present in AccurateRip database
Copy OK

Track 9

Filename D:\#EAC new\#wav+flac\VA - Top 40 Ciao Italia\cd 1\09. Jovanotti - Libera L'Anima.wav

Pre-gap length 0:00:02.00

Peak level 96.6 %
Extraction speed 8.3 X
Track quality 100.0 %
Test CRC 5C3790B0
Copy CRC 5C3790B0
Track not present in AccurateRip database
Copy OK

Track 10

Filename D:\#EAC new\#wav+flac\VA - Top 40 Ciao Italia\cd 1\10. Rocco Granata - Marina.wav

Pre-gap length 0:00:02.00

Peak level 96.6 %
Extraction speed 6.3 X
Track quality 99.9 %
Test CRC 75DBF2F8
Copy CRC 75DBF2F8
Track not present in AccurateRip database
Copy OK

Track 11

Filename D:\#EAC new\#wav+flac\VA - Top 40 Ciao Italia\cd 1\11. Al Bano & Romina Power - Felicità.wav

Pre-gap length 0:00:02.00

Peak level 96.6 %
Extraction speed 6.9 X
Track quality 99.9 %
Test CRC B4323318
Copy CRC B4323318
Track not present in AccurateRip database
Copy OK

Track 12

Filename D:\#EAC new\#wav+flac\VA - Top 40 Ciao Italia\cd 1\12. Bobby Solo - Una Lacrima Sul Viso.wav

Pre-gap length 0:00:02.00

Peak level 95.8 %
Extraction speed 8.4 X
Track quality 100.0 %
Test CRC 72E7881D
Copy CRC 72E7881D
Track not present in AccurateRip database
Copy OK

Track 13

Filename D:\#EAC new\#wav+flac\VA - Top 40 Ciao Italia\cd 1\13. Ricchi E Poveri - M'innamoro Di Te.wav

Pre-gap length 0:00:02.00

Peak level 96.6 %
Extraction speed 8.9 X
Track quality 100.0 %
Test CRC BF58DB64
Copy CRC BF58DB64
Track not present in AccurateRip database
Copy OK

Track 14

Filename D:\#EAC new\#wav+flac\VA - Top 40 Ciao Italia\cd 1\14. Luca Carboni - Mare Mare.wav

Pre-gap length 0:00:02.00

Peak level 96.6 %
Extraction speed 8.2 X
Track quality 99.9 %
Test CRC B861D0F8
Copy CRC B861D0F8
Track not present in AccurateRip database
Copy OK

Track 15

Filename D:\#EAC new\#wav+flac\VA - Top 40 Ciao Italia\cd 1\15. Christina - Libera.wav

Pre-gap length 0:00:02.00

Peak level 96.6 %
Extraction speed 9.8 X
Track quality 100.0 %
Test CRC AC8EC93F
Copy CRC AC8EC93F
Track not present in AccurateRip database
Copy OK

Track 16

Filename D:\#EAC new\#wav+flac\VA - Top 40 Ciao Italia\cd 1\16. Miguel Bosé - Ti Amero.wav

Pre-gap length 0:00:02.00

Peak level 96.6 %
Extraction speed 7.8 X
Track quality 99.9 %
Test CRC 167ABAFB
Copy CRC 167ABAFB
Track not present in AccurateRip database
Copy OK

Track 17

Filename D:\#EAC new\#wav+flac\VA - Top 40 Ciao Italia\cd 1\17. Patty Pravo - Pazza Idea.wav

Pre-gap length 0:00:02.00

Peak level 96.6 %
Extraction speed 10.5 X
Track quality 100.0 %
Test CRC 8F696739
Copy CRC 8F696739
Track not present in AccurateRip database
Copy OK

Track 18

Filename D:\#EAC new\#wav+flac\VA - Top 40 Ciao Italia\cd 1\18. Gianni Morandi - Scende La Pioggia (Elenore).wav

Pre-gap length 0:00:02.00

Peak level 73.2 %
Extraction speed 7.3 X
Track quality 99.9 %
Test CRC D1C3F3E4
Copy CRC D1C3F3E4
Track not present in AccurateRip database
Copy OK

Track 19

Filename D:\#EAC new\#wav+flac\VA - Top 40 Ciao Italia\cd 1\19. Scialpi - Solitario.wav

Pre-gap length 0:00:02.00

Peak level 96.6 %
Extraction speed 10.4 X
Track quality 100.0 %
Test CRC F45AB0FF
Copy CRC F45AB0FF
Track not present in AccurateRip database
Copy OK

Track 20

Filename D:\#EAC new\#wav+flac\VA - Top 40 Ciao Italia\cd 1\20. Claudio Baglioni - E Tu….wav

Pre-gap length 0:00:02.00

Peak level 96.6 %
Extraction speed 10.8 X
Track quality 100.0 %
Test CRC D3D12BBA
Copy CRC D3D12BBA
Track not present in AccurateRip database
Copy OK


None of the tracks are present in the AccurateRip database

No errors occurred

End of status report

–– CUETools DB Plugin V2.1.6

[CTDB TOCID: 6uvareFrhnv.JY3ZCnn1n6hNEMY-] found
Submit result: 6uvareFrhnv.JY3ZCnn1n6hNEMY- has been confirmed
Track | CTDB Status
1 | (10/10) Accurately ripped
2 | (10/10) Accurately ripped
3 | (10/10) Accurately ripped
4 | (10/10) Accurately ripped
5 | (10/10) Accurately ripped
6 | (10/10) Accurately ripped
7 | (10/10) Accurately ripped
8 | (10/10) Accurately ripped
9 | (10/10) Accurately ripped
10 | (10/10) Accurately ripped
11 | (10/10) Accurately ripped
12 | (10/10) Accurately ripped
13 | (10/10) Accurately ripped
14 | (10/10) Accurately ripped
15 | (10/10) Accurately ripped
16 | (10/10) Accurately ripped
17 | (10/10) Accurately ripped
18 | (10/10) Accurately ripped
19 | (10/10) Accurately ripped
20 | (10/10) Accurately ripped


==== Log checksum 99E396F524961B4D76434014B73AC595E4393F5728F6E6A764AFE219A2CCD56A ====
Exact Audio Copy V1.3 from 2. September 2016

EAC extraction logfile from 16. January 2021, 8:35

Various Artists / Top 40 Ciao Italia

Used drive : HL-DT-STBD-RE BH16NS55 Adapter: 1 ID: 0

Read mode : Secure
Utilize accurate stream : Yes
Defeat audio cache : Yes
Make use of C2 pointers : No

Read offset correction : 6
Overread into Lead-In and Lead-Out : No
Fill up missing offset samples with silence : Yes
Delete leading and trailing silent blocks : No
Null samples used in CRC calculations : Yes
Used interface : Native Win32 interface for Win NT & 2000
Gap handling : Appended to previous track

Used output format : User Defined Encoder
Selected bitrate : 1024 kBit/s
Quality : High
Add ID3 tag : No
Command line compressor : C:\Program Files (x86)\Exact Audio Copy\Flac\flac.exe
Additional command line options : -8 -V -T "ARTIST=%artist%" -T "TITLE=%title%" -T "ALBUM=%albumtitle%" -T "DATE=%year%" -T "TRACKNUMBER=%tracknr%" -T "GENRE=%genre%" -T "PERFORMER=%albuminterpret%" -T "COMPOSER=%composer%" %haslyrics%–tag-from-file=LYRICS="%lyricsfile%"%haslyrics% -T "ALBUMARTIST=%albumartist%" -T "DISCNUMBER=%cdnumber%" -T "TOTALDISCS=%totalcds%" -T "TOTALTRACKS=%numtracks%" -T "COMMENT=%comment%" %source% -o %dest%


TOC of the extracted CD

Track | Start | Length | Start sector | End sector
––––––––––––––––––––––––––––-
1 | 0:00.00 | 4:08.11 | 0 | 18610
2 | 4:08.11 | 3:46.03 | 18611 | 35563
3 | 7:54.14 | 4:06.39 | 35564 | 54052
4 | 12:00.53 | 3:57.38 | 54053 | 71865
5 | 15:58.16 | 4:10.41 | 71866 | 90656
6 | 20:08.57 | 4:27.04 | 90657 | 110685
7 | 24:35.61 | 2:55.55 | 110686 | 123865
8 | 27:31.41 | 3:05.64 | 123866 | 137804
9 | 30:37.30 | 3:47.35 | 137805 | 154864
10 | 34:24.65 | 4:28.21 | 154865 | 174985
11 | 38:53.11 | 2:45.61 | 174986 | 187421
12 | 41:38.72 | 3:00.52 | 187422 | 200973
13 | 44:39.49 | 5:14.27 | 200974 | 224550
14 | 49:54.01 | 2:54.09 | 224551 | 237609
15 | 52:48.10 | 2:43.51 | 237610 | 249885
16 | 55:31.61 | 2:48.22 | 249886 | 262507
17 | 58:20.08 | 4:29.02 | 262508 | 282684
18 | 62:49.10 | 3:57.11 | 282685 | 300470
19 | 66:46.21 | 3:16.34 | 300471 | 315204
20 | 70:02.55 | 4:21.22 | 315205 | 334801
21 | 74:24.02 | 3:52.14 | 334802 | 352215


Track 1

Filename F:\#EAC wav+flac\#New\VA - Top 40 Ciao Italia\Nieuwe map\01. Umberto Tozzi - Ti Amo.wav

Pre-gap length 0:00:02.00

Peak level 96.6 %
Extraction speed 4.9 X
Track quality 100.0 %
Test CRC 95F38C19
Copy CRC 95F38C19
Track not present in AccurateRip database
Copy OK

Track 2

Filename F:\#EAC wav+flac\#New\VA - Top 40 Ciao Italia\Nieuwe map\02. Paolo Conte - Max.wav

Pre-gap length 0:00:02.00

Peak level 96.6 %
Extraction speed 5.3 X
Track quality 100.0 %
Test CRC A1DF0EF7
Copy CRC A1DF0EF7
Track not present in AccurateRip database
Copy OK

Track 3

Filename F:\#EAC wav+flac\#New\VA - Top 40 Ciao Italia\Nieuwe map\03. Drupi - Vado Via.wav

Pre-gap length 0:00:02.00

Peak level 96.6 %
Extraction speed 5.8 X
Track quality 100.0 %
Test CRC EDD32092
Copy CRC EDD32092
Track not present in AccurateRip database
Copy OK

Track 4

Filename F:\#EAC wav+flac\#New\VA - Top 40 Ciao Italia\Nieuwe map\04. Bino - Mama Leone.wav

Pre-gap length 0:00:02.00

Peak level 96.6 %
Extraction speed 6.1 X
Track quality 100.0 %
Test CRC A2002FE9
Copy CRC A2002FE9
Track not present in AccurateRip database
Copy OK

Track 5

Filename F:\#EAC wav+flac\#New\VA - Top 40 Ciao Italia\Nieuwe map\05. Eros Ramazzotti - Ma Che Bello Questo Amore.wav

Pre-gap length 0:00:02.00

Peak level 98.7 %
Extraction speed 6.5 X
Track quality 100.0 %
Test CRC 4CB0B85A
Copy CRC 4CB0B85A
Track not present in AccurateRip database
Copy OK

Track 6

Filename F:\#EAC wav+flac\#New\VA - Top 40 Ciao Italia\Nieuwe map\06. Al Bano & Romina Power - Sharazan.wav

Pre-gap length 0:00:02.00

Peak level 96.6 %
Extraction speed 6.8 X
Track quality 100.0 %
Test CRC FFE5CB59
Copy CRC FFE5CB59
Track not present in AccurateRip database
Copy OK

Track 7

Filename F:\#EAC wav+flac\#New\VA - Top 40 Ciao Italia\Nieuwe map\07. Gino Politi - Viva La Mamma.wav

Pre-gap length 0:00:02.00

Peak level 98.4 %
Extraction speed 6.7 X
Track quality 100.0 %
Test CRC 2F13CC33
Copy CRC 2F13CC33
Track not present in AccurateRip database
Copy OK

Track 8

Filename F:\#EAC wav+flac\#New\VA - Top 40 Ciao Italia\Nieuwe map\08. Ricchi E Poveri - Mamma Maria.wav

Pre-gap length 0:00:02.00

Peak level 96.6 %
Extraction speed 7.0 X
Track quality 100.0 %
Test CRC 95480B11
Copy CRC 95480B11
Track not present in AccurateRip database
Copy OK

Track 9

Filename F:\#EAC wav+flac\#New\VA - Top 40 Ciao Italia\Nieuwe map\09. Alan Sorrenti - Tu Sei L'unica Donna Per Me.wav

Pre-gap length 0:00:02.00

Peak level 96.6 %
Extraction speed 7.5 X
Track quality 100.0 %
Test CRC 16922162
Copy CRC 16922162
Track not present in AccurateRip database
Copy OK

Track 10

Filename F:\#EAC wav+flac\#New\VA - Top 40 Ciao Italia\Nieuwe map\10. Giorgia - E Poi.wav

Pre-gap length 0:00:02.00

Peak level 96.6 %
Extraction speed 7.8 X
Track quality 100.0 %
Test CRC C118DCF5
Copy CRC C118DCF5
Track not present in AccurateRip database
Copy OK

Track 11

Filename F:\#EAC wav+flac\#New\VA - Top 40 Ciao Italia\Nieuwe map\11. Tony Renis - Quando Quando Quando.wav

Pre-gap length 0:00:02.00

Peak level 96.6 %
Extraction speed 7.6 X
Track quality 100.0 %
Test CRC 0FFC3FE4
Copy CRC 0FFC3FE4
Track not present in AccurateRip database
Copy OK

Track 12

Filename F:\#EAC wav+flac\#New\VA - Top 40 Ciao Italia\Nieuwe map\12. Patty Pravo - La Bambola.wav

Pre-gap length 0:00:02.00

Peak level 98.4 %
Extraction speed 7.9 X
Track quality 100.0 %
Test CRC 947FAE21
Copy CRC 947FAE21
Track not present in AccurateRip database
Copy OK

Track 13

Filename F:\#EAC wav+flac\#New\VA - Top 40 Ciao Italia\Nieuwe map\13. Lucio Dalla - Caruso.wav

Pre-gap length 0:00:02.00

Peak level 94.4 %
Extraction speed 7.5 X
Track quality 99.9 %
Test CRC EEF06388
Copy CRC EEF06388
Track not present in AccurateRip database
Copy OK

Track 14

Filename F:\#EAC wav+flac\#New\VA - Top 40 Ciao Italia\Nieuwe map\14. Wess & Dori Ghezzi - Era.wav

Pre-gap length 0:00:02.00

Peak level 95.7 %
Extraction speed 8.3 X
Track quality 100.0 %
Test CRC 847EBC1B
Copy CRC 847EBC1B
Track not present in AccurateRip database
Copy OK

Track 15

Filename F:\#EAC wav+flac\#New\VA - Top 40 Ciao Italia\Nieuwe map\15. Jimmy Fontana - Il Mondo.wav

Pre-gap length 0:00:02.00

Peak level 96.6 %
Extraction speed 6.4 X
Track quality 99.9 %
Test CRC 8AF87F60
Copy CRC 8AF87F60
Track not present in AccurateRip database
Copy OK

Track 16

Filename F:\#EAC wav+flac\#New\VA - Top 40 Ciao Italia\Nieuwe map\16. Rita Pavone - Bene Bene Bene.wav

Pre-gap length 0:00:02.00

Peak level 96.6 %
Extraction speed 6.6 X
Track quality 99.9 %
Test CRC DCB67FC4
Copy CRC DCB67FC4
Track not present in AccurateRip database
Copy OK

Track 17

Filename F:\#EAC wav+flac\#New\VA - Top 40 Ciao Italia\Nieuwe map\17. Riccardo Fogli - Non Finisce Cosi.wav

Pre-gap length 0:00:02.00

Peak level 96.6 %
Extraction speed 9.2 X
Track quality 100.0 %
Test CRC B6CBC167
Copy CRC B6CBC167
Track not present in AccurateRip database
Copy OK

Track 18

Filename F:\#EAC wav+flac\#New\VA - Top 40 Ciao Italia\Nieuwe map\18. Marcella Bella - Nell'Aria.wav

Pre-gap length 0:00:02.00

Peak level 92.4 %
Extraction speed 9.3 X
Track quality 100.0 %
Test CRC D4F41ACD
Copy CRC D4F41ACD
Track not present in AccurateRip database
Copy OK

Track 19

Filename F:\#EAC wav+flac\#New\VA - Top 40 Ciao Italia\Nieuwe map\19. Nino D'Angelo - Cuore.wav

Pre-gap length 0:00:02.00

Peak level 96.6 %
Extraction speed 9.3 X
Track quality 100.0 %
Test CRC 366FBC4C
Copy CRC 366FBC4C
Track not present in AccurateRip database
Copy OK

Track 20

Filename F:\#EAC wav+flac\#New\VA - Top 40 Ciao Italia\Nieuwe map\20. Mia Martini - Piccolo Uomo.wav

Pre-gap length 0:00:02.00

Peak level 96.6 %
Extraction speed 8.3 X
Track quality 99.9 %
Test CRC A8DF0BD7
Copy CRC A8DF0BD7
Track not present in AccurateRip database
Copy OK

Track 21

Filename F:\#EAC wav+flac\#New\VA - Top 40 Ciao Italia\Nieuwe map\21. Fausto Leali - Io Amo.wav

Pre-gap length 0:00:02.00

Peak level 96.6 %
Extraction speed 10.0 X
Track quality 100.0 %
Test CRC 7BAFE06B
Copy CRC 7BAFE06B
Track not present in AccurateRip database
Copy OK


None of the tracks are present in the AccurateRip database

No errors occurred

End of status report

–– CUETools DB Plugin V2.1.6

[CTDB TOCID: CBilTTAja9Iq2ANpyF5_qMZUnDc-] found
Submit result: CBilTTAja9Iq2ANpyF5_qMZUnDc- has been confirmed
Track | CTDB Status
1 | (8/8) Accurately ripped
2 | (8/8) Accurately ripped
3 | (8/8) Accurately ripped
4 | (8/8) Accurately ripped
5 | (8/8) Accurately ripped
6 | (8/8) Accurately ripped
7 | (8/8) Accurately ripped
8 | (8/8) Accurately ripped
9 | (8/8) Accurately ripped
10 | (8/8) Accurately ripped
11 | (8/8) Accurately ripped
12 | (8/8) Accurately ripped
13 | (8/8) Accurately ripped
14 | (8/8) Accurately ripped
15 | (8/8) Accurately ripped
16 | (8/8) Accurately ripped
17 | (8/8) Accurately ripped
18 | (8/8) Accurately ripped
19 | (8/8) Accurately ripped
20 | (8/8) Accurately ripped
21 | (8/8) Accurately ripped


==== Log checksum FDD8B1E3AF71DC9087F96327FACF28D75B04F734346B290DFEFBB839EA76F8AB ====

––––––––––––––––––––––––––––––

Exact Audio Copy V1.3 from 2. September 2016

EAC extraction logfile from 16. January 2021, 8:35

Various Artists / Top 40 Ciao Italia

Used drive : HL-DT-STBD-RE BH16NS55 Adapter: 1 ID: 0

Read mode : Secure
Utilize accurate stream : Yes
Defeat audio cache : Yes
Make use of C2 pointers : No

Read offset correction : 6
Overread into Lead-In and Lead-Out : No
Fill up missing offset samples with silence : Yes
Delete leading and trailing silent blocks : No
Null samples used in CRC calculations : Yes
Used interface : Native Win32 interface for Win NT & 2000
Gap handling : Appended to previous track

Used output format : User Defined Encoder
Selected bitrate : 1024 kBit/s
Quality : High
Add ID3 tag : No
Command line compressor : C:\Program Files (x86)\Exact Audio Copy\Flac\flac.exe
Additional command line options : -8 -V -T "ARTIST=%artist%" -T "TITLE=%title%" -T "ALBUM=%albumtitle%" -T "DATE=%year%" -T "TRACKNUMBER=%tracknr%" -T "GENRE=%genre%" -T "PERFORMER=%albuminterpret%" -T "COMPOSER=%composer%" %haslyrics%–tag-from-file=LYRICS="%lyricsfile%"%haslyrics% -T "ALBUMARTIST=%albumartist%" -T "DISCNUMBER=%cdnumber%" -T "TOTALDISCS=%totalcds%" -T "TOTALTRACKS=%numtracks%" -T "COMMENT=%comment%" %source% -o %dest%


TOC of the extracted CD

Track | Start | Length | Start sector | End sector
––––––––––––––––––––––––––––-
1 | 0:00.00 | 4:08.11 | 0 | 18610
2 | 4:08.11 | 3:46.03 | 18611 | 35563
3 | 7:54.14 | 4:06.39 | 35564 | 54052
4 | 12:00.53 | 3:57.38 | 54053 | 71865
5 | 15:58.16 | 4:10.41 | 71866 | 90656
6 | 20:08.57 | 4:27.04 | 90657 | 110685
7 | 24:35.61 | 2:55.55 | 110686 | 123865
8 | 27:31.41 | 3:05.64 | 123866 | 137804
9 | 30:37.30 | 3:47.35 | 137805 | 154864
10 | 34:24.65 | 4:28.21 | 154865 | 174985
11 | 38:53.11 | 2:45.61 | 174986 | 187421
12 | 41:38.72 | 3:00.52 | 187422 | 200973
13 | 44:39.49 | 5:14.27 | 200974 | 224550
14 | 49:54.01 | 2:54.09 | 224551 | 237609
15 | 52:48.10 | 2:43.51 | 237610 | 249885
16 | 55:31.61 | 2:48.22 | 249886 | 262507
17 | 58:20.08 | 4:29.02 | 262508 | 282684
18 | 62:49.10 | 3:57.11 | 282685 | 300470
19 | 66:46.21 | 3:16.34 | 300471 | 315204
20 | 70:02.55 | 4:21.22 | 315205 | 334801
21 | 74:24.02 | 3:52.14 | 334802 | 352215


Track 1

Filename F:\#EAC wav+flac\#New\VA - Top 40 Ciao Italia\Nieuwe map\01. Umberto Tozzi - Ti Amo.wav

Pre-gap length 0:00:02.00

Peak level 96.6 %
Extraction speed 4.9 X
Track quality 100.0 %
Test CRC 95F38C19
Copy CRC 95F38C19
Track not present in AccurateRip database
Copy OK

Track 2

Filename F:\#EAC wav+flac\#New\VA - Top 40 Ciao Italia\Nieuwe map\02. Paolo Conte - Max.wav

Pre-gap length 0:00:02.00

Peak level 96.6 %
Extraction speed 5.3 X
Track quality 100.0 %
Test CRC A1DF0EF7
Copy CRC A1DF0EF7
Track not present in AccurateRip database
Copy OK

Track 3

Filename F:\#EAC wav+flac\#New\VA - Top 40 Ciao Italia\Nieuwe map\03. Drupi - Vado Via.wav

Pre-gap length 0:00:02.00

Peak level 96.6 %
Extraction speed 5.8 X
Track quality 100.0 %
Test CRC EDD32092
Copy CRC EDD32092
Track not present in AccurateRip database
Copy OK

Track 4

Filename F:\#EAC wav+flac\#New\VA - Top 40 Ciao Italia\Nieuwe map\04. Bino - Mama Leone.wav

Pre-gap length 0:00:02.00

Peak level 96.6 %
Extraction speed 6.1 X
Track quality 100.0 %
Test CRC A2002FE9
Copy CRC A2002FE9
Track not present in AccurateRip database
Copy OK

Track 5

Filename F:\#EAC wav+flac\#New\VA - Top 40 Ciao Italia\Nieuwe map\05. Eros Ramazzotti - Ma Che Bello Questo Amore.wav

Pre-gap length 0:00:02.00

Peak level 98.7 %
Extraction speed 6.5 X
Track quality 100.0 %
Test CRC 4CB0B85A
Copy CRC 4CB0B85A
Track not present in AccurateRip database
Copy OK

Track 6

Filename F:\#EAC wav+flac\#New\VA - Top 40 Ciao Italia\Nieuwe map\06. Al Bano & Romina Power - Sharazan.wav

Pre-gap length 0:00:02.00

Peak level 96.6 %
Extraction speed 6.8 X
Track quality 100.0 %
Test CRC FFE5CB59
Copy CRC FFE5CB59
Track not present in AccurateRip database
Copy OK

Track 7

Filename F:\#EAC wav+flac\#New\VA - Top 40 Ciao Italia\Nieuwe map\07. Gino Politi - Viva La Mamma.wav

Pre-gap length 0:00:02.00

Peak level 98.4 %
Extraction speed 6.7 X
Track quality 100.0 %
Test CRC 2F13CC33
Copy CRC 2F13CC33
Track not present in AccurateRip database
Copy OK

Track 8

Filename F:\#EAC wav+flac\#New\VA - Top 40 Ciao Italia\Nieuwe map\08. Ricchi E Poveri - Mamma Maria.wav

Pre-gap length 0:00:02.00

Peak level 96.6 %
Extraction speed 7.0 X
Track quality 100.0 %
Test CRC 95480B11
Copy CRC 95480B11
Track not present in AccurateRip database
Copy OK

Track 9

Filename F:\#EAC wav+flac\#New\VA - Top 40 Ciao Italia\Nieuwe map\09. Alan Sorrenti - Tu Sei L'unica Donna Per Me.wav

Pre-gap length 0:00:02.00

Peak level 96.6 %
Extraction speed 7.5 X
Track quality 100.0 %
Test CRC 16922162
Copy CRC 16922162
Track not present in AccurateRip database
Copy OK

Track 10

Filename F:\#EAC wav+flac\#New\VA - Top 40 Ciao Italia\Nieuwe map\10. Giorgia - E Poi.wav

Pre-gap length 0:00:02.00

Peak level 96.6 %
Extraction speed 7.8 X
Track quality 100.0 %
Test CRC C118DCF5
Copy CRC C118DCF5
Track not present in AccurateRip database
Copy OK

Track 11

Filename F:\#EAC wav+flac\#New\VA - Top 40 Ciao Italia\Nieuwe map\11. Tony Renis - Quando Quando Quando.wav

Pre-gap length 0:00:02.00

Peak level 96.6 %
Extraction speed 7.6 X
Track quality 100.0 %
Test CRC 0FFC3FE4
Copy CRC 0FFC3FE4
Track not present in AccurateRip database
Copy OK

Track 12

Filename F:\#EAC wav+flac\#New\VA - Top 40 Ciao Italia\Nieuwe map\12. Patty Pravo - La Bambola.wav

Pre-gap length 0:00:02.00

Peak level 98.4 %
Extraction speed 7.9 X
Track quality 100.0 %
Test CRC 947FAE21
Copy CRC 947FAE21
Track not present in AccurateRip database
Copy OK

Track 13

Filename F:\#EAC wav+flac\#New\VA - Top 40 Ciao Italia\Nieuwe map\13. Lucio Dalla - Caruso.wav

Pre-gap length 0:00:02.00

Peak level 94.4 %
Extraction speed 7.5 X
Track quality 99.9 %
Test CRC EEF06388
Copy CRC EEF06388
Track not present in AccurateRip database
Copy OK

Track 14

Filename F:\#EAC wav+flac\#New\VA - Top 40 Ciao Italia\Nieuwe map\14. Wess & Dori Ghezzi - Era.wav

Pre-gap length 0:00:02.00

Peak level 95.7 %
Extraction speed 8.3 X
Track quality 100.0 %
Test CRC 847EBC1B
Copy CRC 847EBC1B
Track not present in AccurateRip database
Copy OK

Track 15

Filename F:\#EAC wav+flac\#New\VA - Top 40 Ciao Italia\Nieuwe map\15. Jimmy Fontana - Il Mondo.wav

Pre-gap length 0:00:02.00

Peak level 96.6 %
Extraction speed 6.4 X
Track quality 99.9 %
Test CRC 8AF87F60
Copy CRC 8AF87F60
Track not present in AccurateRip database
Copy OK

Track 16

Filename F:\#EAC wav+flac\#New\VA - Top 40 Ciao Italia\Nieuwe map\16. Rita Pavone - Bene Bene Bene.wav

Pre-gap length 0:00:02.00

Peak level 96.6 %
Extraction speed 6.6 X
Track quality 99.9 %
Test CRC DCB67FC4
Copy CRC DCB67FC4
Track not present in AccurateRip database
Copy OK

Track 17

Filename F:\#EAC wav+flac\#New\VA - Top 40 Ciao Italia\Nieuwe map\17. Riccardo Fogli - Non Finisce Cosi.wav

Pre-gap length 0:00:02.00

Peak level 96.6 %
Extraction speed 9.2 X
Track quality 100.0 %
Test CRC B6CBC167
Copy CRC B6CBC167
Track not present in AccurateRip database
Copy OK

Track 18

Filename F:\#EAC wav+flac\#New\VA - Top 40 Ciao Italia\Nieuwe map\18. Marcella Bella - Nell'Aria.wav

Pre-gap length 0:00:02.00

Peak level 92.4 %
Extraction speed 9.3 X
Track quality 100.0 %
Test CRC D4F41ACD
Copy CRC D4F41ACD
Track not present in AccurateRip database
Copy OK

Track 19

Filename F:\#EAC wav+flac\#New\VA - Top 40 Ciao Italia\Nieuwe map\19. Nino D'Angelo - Cuore.wav

Pre-gap length 0:00:02.00

Peak level 96.6 %
Extraction speed 9.3 X
Track quality 100.0 %
Test CRC 366FBC4C
Copy CRC 366FBC4C
Track not present in AccurateRip database
Copy OK

Track 20

Filename F:\#EAC wav+flac\#New\VA - Top 40 Ciao Italia\Nieuwe map\20. Mia Martini - Piccolo Uomo.wav

Pre-gap length 0:00:02.00

Peak level 96.6 %
Extraction speed 8.3 X
Track quality 99.9 %
Test CRC A8DF0BD7
Copy CRC A8DF0BD7
Track not present in AccurateRip database
Copy OK

Track 21

Filename F:\#EAC wav+flac\#New\VA - Top 40 Ciao Italia\Nieuwe map\21. Fausto Leali - Io Amo.wav

Pre-gap length 0:00:02.00

Peak level 96.6 %
Extraction speed 10.0 X
Track quality 100.0 %
Test CRC 7BAFE06B
Copy CRC 7BAFE06B
Track not present in AccurateRip database
Copy OK


None of the tracks are present in the AccurateRip database

No errors occurred

End of status report

–– CUETools DB Plugin V2.1.6

[CTDB TOCID: CBilTTAja9Iq2ANpyF5_qMZUnDc-] found
Submit result: CBilTTAja9Iq2ANpyF5_qMZUnDc- has been confirmed
Track | CTDB Status
1 | (8/8) Accurately ripped
2 | (8/8) Accurately ripped
3 | (8/8) Accurately ripped
4 | (8/8) Accurately ripped
5 | (8/8) Accurately ripped
6 | (8/8) Accurately ripped
7 | (8/8) Accurately ripped
8 | (8/8) Accurately ripped
9 | (8/8) Accurately ripped
10 | (8/8) Accurately ripped
11 | (8/8) Accurately ripped
12 | (8/8) Accurately ripped
13 | (8/8) Accurately ripped
14 | (8/8) Accurately ripped
15 | (8/8) Accurately ripped
16 | (8/8) Accurately ripped
17 | (8/8) Accurately ripped
18 | (8/8) Accurately ripped
19 | (8/8) Accurately ripped
20 | (8/8) Accurately ripped
21 | (8/8) Accurately ripped


==== Log checksum FDD8B1E3AF71DC9087F96327FACF28D75B04F734346B290DFEFBB839EA76F8AB ====

Thanks to the Original ripper !