Subcategories

V.A. - Christmas Chill Out Lounge

Posted By: FLESH
V.A. - Christmas Chill Out Lounge

V.A. - Christmas Chill Out Lounge
Electronic, Chillout
FLAC+cue+log | 267.1 Mb | MP3, 190 Kbps | 68.4 Mb | Covers
Label: Seven Days Music | Catalog#: 88697 59315 2 | Released: 13.11.2009

Tracklisting:
01. Snow Falls 4:21
02. Christmas Tree 4:30
03. Santa Clause 4:10
04. Sleigh Reide 5:00
05. Silent Night 4:39
06. Winter Wonder 4:04
07. Sweeter The Bells 4:14
08. Have Yourself 5:16
09. Let It Snow 4:07
10. Ring Little Bell 5:07
11. What Child Is This 4:45

Exact Audio Copy V0.99 prebeta 4 from 23. January 2008

EAC extraction logfile from 22. December 2009, 17:04

Various / Christmas Chill Out Lounge

Used drive : PIONEER DVD-RW DVR-112D Adapter: 1 ID: 0

Read mode : Secure
Utilize accurate stream : Yes
Defeat audio cache : Yes
Make use of C2 pointers : No

Read offset correction : 48
Overread into Lead-In and Lead-Out : No
Fill up missing offset samples with silence : Yes
Delete leading and trailing silent blocks : No
Null samples used in CRC calculations : Yes
Used interface : Installed external ASPI interface

Used output format : User Defined Encoder
Selected bitrate : 192 kBit/s
Quality : Low
Add ID3 tag : Yes
Command line compressor : C:\Program Files\E A C Audio\Flac\flac.exe
Additional command line options : -V -8 -T "artist=%a" -T "title=%t" -T "album=%g" -T "date=%y" -T "tracknumber=%n" -T "genre=%m" %s


TOC of the extracted CD

Track | Start | Length | Start sector | End sector
––––––––––––––––––––––––––––-
1 | 0:00.00 | 4:20.73 | 0 | 19572
2 | 4:20.73 | 4:29.44 | 19573 | 39791
3 | 8:50.42 | 4:09.73 | 39792 | 58539
4 | 13:00.40 | 4:59.40 | 58540 | 81004
5 | 18:00.05 | 4:38.42 | 81005 | 101896
6 | 22:38.47 | 4:03.48 | 101897 | 120169
7 | 26:42.20 | 4:14.08 | 120170 | 139227
8 | 30:56.28 | 5:15.57 | 139228 | 162909
9 | 36:12.10 | 4:07.11 | 162910 | 181445
10 | 40:19.21 | 5:06.58 | 181446 | 204453
11 | 45:26.04 | 4:45.06 | 204454 | 225834


Range status and errors

Selected range

Filename G:\_Various - Christmas Chill Out Lounge\Various - Christmas Chill Out Lounge.wav

Peak level 97.7 %
Range quality 99.9 %
Test CRC 6D006F31
Copy CRC 6D006F31
Copy OK

No errors occurred


AccurateRip summary

Track 1 not present in database
Track 2 not present in database
Track 3 not present in database
Track 4 not present in database
Track 5 not present in database
Track 6 not present in database
Track 7 not present in database
Track 8 not present in database
Track 9 not present in database
Track 10 not present in database
Track 11 not present in database

None of the tracks are present in the AccurateRip database

End of status report