Subcategories

Various - Electro Swing II

Posted By: FLESH
Various - Electro Swing II

Various - Electro Swing II
Electronic, Jazz, Swing, Electro, Broken Beat
WV+cue+log (Playable ZIP) | 529.3 Mb | MP3, 190 Kbps (V2 VBR) | 135.4 Mb | Covers inside
Label: Wagram Music | Catalog#: 3210172 | Released: 16.11.2009

Tracklisting:
01. Wax Tailor Feat A.S.M. - Say Yes
02. Gabin - Doo Uap, Doo Uap, Doo Uap
03. Nekta - Here's Us
04. Caravan Palace - Dragons
05. Movits! - Appelknyckarjazz
06. Palov & Mishkin - Et De Clarinette
07. Rube & Dusty - Big Band Jump
08. Analogik - Gypsy Doodle
09. Der Dritte Raum - Swing Bop
10. Funky DL Feat. Lei-An & Xanton Blacq - 1947
11. Ella Fitzgerald - Air Mail Special (Club Des Belugas Remix)
12. The Correspondents - Washington Square
13. Tim Tim - Rum'n'cocacola (Shake It Up Well)
14. Spark Arrester - Jazz Pearl (Blend Aka Mishkin Remix)
15. Benny Berigan - Snake Charmer
16. Unkle Ho - Kindergarten (Rube Remix)
17. Tape Five - Bad Boy Good Man
18. The Basement Boys present Mudfoot Jones - Swingin
19. Parov Stelar - Catgroove
20. Lyre Le Temps - Sweet Sugar Swing

Exact Audio Copy V0.99 prebeta 4 from 23. January 2008

EAC extraction logfile from 17. December 2009, 18:12

Various / ElectroSwing II

Used drive : PIONEER DVD-RW DVR-112D Adapter: 1 ID: 0

Read mode : Secure
Utilize accurate stream : Yes
Defeat audio cache : Yes
Make use of C2 pointers : No

Read offset correction : 48
Overread into Lead-In and Lead-Out : No
Fill up missing offset samples with silence : Yes
Delete leading and trailing silent blocks : No
Null samples used in CRC calculations : Yes
Used interface : Installed external ASPI interface

Used output format : User Defined Encoder
Selected bitrate : 192 kBit/s
Quality : Low
Add ID3 tag : Yes
Command line compressor : C:\Program Files\E A C Audio\Flac\flac.exe
Additional command line options : -V -8 -T "artist=%a" -T "title=%t" -T "album=%g" -T "date=%y" -T "tracknumber=%n" -T "genre=%m" %s


TOC of the extracted CD

Track | Start | Length | Start sector | End sector
––––––––––––––––––––––––––––-
1 | 0:00.00 | 3:38.43 | 0 | 16392
2 | 3:38.43 | 3:45.31 | 16393 | 33298
3 | 7:23.74 | 2:46.20 | 33299 | 45768
4 | 10:10.19 | 3:43.28 | 45769 | 62521
5 | 13:53.47 | 3:08.09 | 62522 | 76630
6 | 17:01.56 | 3:14.63 | 76631 | 91243
7 | 20:16.44 | 4:38.17 | 91244 | 112110
8 | 24:54.61 | 2:53.58 | 112111 | 125143
9 | 27:48.44 | 3:32.14 | 125144 | 141057
10 | 31:20.58 | 4:35.21 | 141058 | 161703
11 | 35:56.04 | 4:33.47 | 161704 | 182225
12 | 40:29.51 | 3:28.42 | 182226 | 197867
13 | 43:58.18 | 2:55.33 | 197868 | 211025
14 | 46:53.51 | 3:03.54 | 211026 | 224804
15 | 49:57.30 | 5:04.02 | 224805 | 247606
16 | 55:01.32 | 3:42.74 | 247607 | 264330
17 | 58:44.31 | 4:10.58 | 264331 | 283138
18 | 62:55.14 | 2:59.42 | 283139 | 296605
19 | 65:54.56 | 3:50.52 | 296606 | 313907
20 | 69:45.33 | 4:03.57 | 313908 | 332189


Range status and errors

Selected range

Filename G:\_Various - ElectroSwing II\Various - ElectroSwing II.wav

Peak level 100.0 %
Range quality 99.9 %
Test CRC 9B2B3651
Copy CRC 9B2B3651
Copy OK

No errors occurred


AccurateRip summary

Track 1 not present in database
Track 2 not present in database
Track 3 not present in database
Track 4 not present in database
Track 5 not present in database
Track 6 not present in database
Track 7 not present in database
Track 8 not present in database
Track 9 not present in database
Track 10 not present in database
Track 11 not present in database
Track 12 not present in database
Track 13 not present in database
Track 14 not present in database
Track 15 not present in database
Track 16 not present in database
Track 17 not present in database
Track 18 not present in database
Track 19 not present in database
Track 20 not present in database

None of the tracks are present in the AccurateRip database

End of status report


lossless
Download from RapidShare
Part 1 | Part 2 | Part 3 | Part 4 | Part 5 | Part 6

mp3
Download from RapidShare
Part 1 | Part 2

Welcome to my Blog