Subcategories

Various Artists – Anthology of Indian Classical Music (1997)

Posted By: d'Avignon
Various Artists – Anthology of Indian Classical Music (1997)

Various Artists – Anthology of Indian Classical Music (1997)
World/Indian Classical | FLAC lossless/3cd | cuesheets+logs | covers+booklet | 2h45m32s | 673mb
Unesco/Auvidis | cat. no. D 8270


First released in 1955 by Ducretet-Thomson (EMI), the LP anthology is said to be the "first of this music to become available in the West in which the recorded pieces were not presented as 'folklore' but as 'serious' music." In 1997 it was digitally re-mastered and issued by AUVIDIS-NAÏVE as a 3-CD set in homage to Alain Daniélou (1907-1994), the prime mover of the legendary UNESCO Collection of Traditional Music. The set includes the first recordings published in the Western world of Ravi Shankar and Ali Akbar Khan. In addition to a short biography of Daniélou and his influence on Asian music and cultural heritage, liner notes include detailed explanations of the scales, rhythmic ideas, and instrumentation used in each song.

Tracks:

Cd1
01. Le mode Bhairavi [0:03:16.93]
02. Khyal (mode Bhimpalashri) [0:06:23.96]
03. Le mode Ahiri-Lalita [0:05:40.33]
04. Le mode Malkosh [0:05:56.06]
05. Le mode Todi [0:03:39.02]
06. Gat (mode Kamavardhani - ou Purvi) [0:03:11.82]
07. Tabla solo [0:03:26.25]
08. Sitar, sarode et tabla (mode Mauj-Khammaj) [0:13:51.21]
09. Alap (mode Multani) [0:03:49.30]
10. Le mode Sindhi-Bhairavi [0:05:01.53]

Cd2
01. Thumri (mode Tilang) [0:03:20.84]
02. Svara Mandala (mode Brindavani-Tilang) [0:03:09.68]
03. Bhajana (mode Malkosh) [0:05:57.30]
04. Le mode Suha Kamode [0:12:42.32]
05. Jatisvaram (mode Mecha-Kalyani) [0:04:00.82]
06. Alapana (mode Todi du sud) [0:02:29.76]
07. Alapana (mode Kambhoji) [0:03:18.32]
08. Kriti (mode Yadukula Kambhoji) [0:05:00.58]
09. Tirmana (mode Bhairavi) [0:00:59.06]
10. Le mode Varali [0:09:48.26]
11. Ganesha Kumara (mode Chinjuruti) [0:04:34.21]

Cd3
1. Pallavi 1 (mode Bhairavi du Sud) [0:06:07.45]
02. Jacali (mode Khamas) [0:04:03.50]
03. Pallavi 2 (mode Bhairavi du Sud) [0:09:03.24]
04. Javali (mode Paraj) [0:02:53.61]
05. Sadhincene (mode Arabhi) [0:04:58.53]
06. Varnam (mode Dhanyasi) [0:04:01.70]
07. Varnam (mode Kambhoji) [0:03:10.72]
08. Varnam (mode Khamas) [0:07:18.36]
09. Sandehamunu (mode Ramapriya) [0:04:49.77]
10. Ninyako (Chenchuritti, Punnaga-varami, Nada-namakriya, Sindu-Bhairavi) [0:04:25.80]
11. Solo de Mridangam [0:03:35.48]
12. Jnana Vinayakané [0:01:42.32]

Performers:

Various Artists

Exact Audio Copy V1.0 beta 3 from 29. August 2011

EAC extraction logfile from 28. July 2015, 21:14

Anthologie de la musique classique indienne / Inde du Nord (CD1)

Used drive : TSSTcorpCDDVDW SH-216AB Adapter: 0 ID: 0

Read mode : Secure
Utilize accurate stream : Yes
Defeat audio cache : Yes
Make use of C2 pointers : No

Read offset correction : 6
Overread into Lead-In and Lead-Out : No
Fill up missing offset samples with silence : Yes
Delete leading and trailing silent blocks : No
Null samples used in CRC calculations : Yes
Used interface : Native Win32 interface for Win NT & 2000
Gap handling : Appended to previous track

Used output format : User Defined Encoder
Selected bitrate : 768 kBit/s
Quality : High
Add ID3 tag : No
Command line compressor : C:\Program Files (x86)\FLAC Frontend\tools\flac.exe
Additional command line options : -8 -V -T "ARTIST=%artist%" -T "TITLE=%title%" -T "ALBUM=%albumtitle%" -T "DATE=%year%" -T "TRACKNUMBER=%tracknr%" -T "GENRE=%genre%" -T "PERFORMER=%albuminterpret%" -T "COMPOSER=%composer%" %haslyrics%–tag-from-file=LYRICS="%lyricsfile%"%haslyrics% -T "ALBUMARTIST=%albumartist%" -T "DISCNUMBER=%cdnumber%" -T "TOTALDISCS=%totalcds%" -T "TOTALTRACKS=%numtracks%" -T "COMMENT=%comment%" %source% -o %dest%


TOC of the extracted CD

Track | Start | Length | Start sector | End sector
––––––––––––––––––––––––––––-
1 | 0:00.00 | 3:16.70 | 0 | 14769
2 | 3:16.70 | 6:23.72 | 14770 | 43566
3 | 9:40.67 | 5:40.25 | 43567 | 69091
4 | 15:21.17 | 5:56.05 | 69092 | 95796
5 | 21:17.22 | 3:39.02 | 95797 | 112223
6 | 24:56.24 | 3:11.62 | 112224 | 126610
7 | 28:08.11 | 3:26.19 | 126611 | 142079
8 | 31:34.30 | 13:51.16 | 142080 | 204420
9 | 45:25.46 | 3:49.23 | 204421 | 221618
10 | 49:14.69 | 5:01.40 | 221619 | 244233


Track 1

Filename C:\Users\Astarte\Music\ALTERNATIVE\Various Artists - An Anthology of Indian Classical Music\1\01 Le mode Bhairavi.wav

Pre-gap length 0:00:02.00

Peak level 97.6 %
Extraction speed 4.2 X
Track quality 100.0 %
Copy CRC 3DABA007
Accurately ripped (confidence 5) [A9A4E011] (AR v2)
Copy OK

Track 2

Filename C:\Users\Astarte\Music\ALTERNATIVE\Various Artists - An Anthology of Indian Classical Music\1\02 Khyal (mode Bhimpalashri).wav

Pre-gap length 0:00:04.60

Peak level 100.0 %
Extraction speed 5.1 X
Track quality 100.0 %
Copy CRC 4FAD971B
Accurately ripped (confidence 5) [376804EB] (AR v2)
Copy OK

Track 3

Filename C:\Users\Astarte\Music\ALTERNATIVE\Various Artists - An Anthology of Indian Classical Music\1\03 Le mode Ahiri-Lalita.wav

Pre-gap length 0:00:04.60

Peak level 100.0 %
Extraction speed 5.7 X
Track quality 100.0 %
Copy CRC 50AE5E1A
Accurately ripped (confidence 5) [2D5E940A] (AR v2)
Copy OK

Track 4

Filename C:\Users\Astarte\Music\ALTERNATIVE\Various Artists - An Anthology of Indian Classical Music\1\04 Le mode Malkosh.wav

Pre-gap length 0:00:04.60

Peak level 94.4 %
Extraction speed 6.3 X
Track quality 100.0 %
Copy CRC FDF8C9C3
Accurately ripped (confidence 5) [BAC48B55] (AR v2)
Copy OK

Track 5

Filename C:\Users\Astarte\Music\ALTERNATIVE\Various Artists - An Anthology of Indian Classical Music\1\05 Le mode Todi.wav

Pre-gap length 0:00:04.60

Peak level 100.0 %
Extraction speed 6.3 X
Track quality 100.0 %
Copy CRC CD6FC9C0
Accurately ripped (confidence 5) [C67AC1DC] (AR v2)
Copy OK

Track 6

Filename C:\Users\Astarte\Music\ALTERNATIVE\Various Artists - An Anthology of Indian Classical Music\1\06 Gat (mode Kamavardhani - ou Purvi).wav

Pre-gap length 0:00:04.60

Peak level 100.0 %
Extraction speed 6.4 X
Track quality 100.0 %
Copy CRC 7140F72F
Accurately ripped (confidence 5) [E96D5BA0] (AR v2)
Copy OK

Track 7

Filename C:\Users\Astarte\Music\ALTERNATIVE\Various Artists - An Anthology of Indian Classical Music\1\07 Tabla solo.wav

Pre-gap length 0:00:04.60

Peak level 99.1 %
Extraction speed 6.7 X
Track quality 100.0 %
Copy CRC 8EDE6E84
Accurately ripped (confidence 5) [35D94D64] (AR v2)
Copy OK

Track 8

Filename C:\Users\Astarte\Music\ALTERNATIVE\Various Artists - An Anthology of Indian Classical Music\1\08 Sitar, sarode et tabla (mode Mauj-Khammaj).wav

Pre-gap length 0:00:04.60

Peak level 100.0 %
Extraction speed 8.3 X
Track quality 100.0 %
Copy CRC 993E7305
Accurately ripped (confidence 5) [A2EE93B8] (AR v2)
Copy OK

Track 9

Filename C:\Users\Astarte\Music\ALTERNATIVE\Various Artists - An Anthology of Indian Classical Music\1\09 Alap (mode Multani).wav

Pre-gap length 0:00:04.60

Peak level 47.3 %
Extraction speed 8.0 X
Track quality 100.0 %
Copy CRC 518926C0
Accurately ripped (confidence 5) [292B8C45] (AR v2)
Copy OK

Track 10

Filename C:\Users\Astarte\Music\ALTERNATIVE\Various Artists - An Anthology of Indian Classical Music\1\10 Le mode Sindhi-Bhairavi.wav

Pre-gap length 0:00:04.60

Peak level 99.8 %
Extraction speed 8.5 X
Track quality 100.0 %
Copy CRC 373FE0F2
Accurately ripped (confidence 5) [FFF64211] (AR v2)
Copy OK


All tracks accurately ripped

No errors occurred

End of status report

==== Log checksum 304817234795D2813B1B7ACC78A622A18EAA8D28DB9A323D0661965D58437E27 ====


Exact Audio Copy V1.0 beta 3 from 29. August 2011

EAC extraction logfile from 28. July 2015, 21:26

Anthologie de la musique classique indienne / CD 2

Used drive : TSSTcorpCDDVDW SH-216AB Adapter: 0 ID: 0

Read mode : Secure
Utilize accurate stream : Yes
Defeat audio cache : Yes
Make use of C2 pointers : No

Read offset correction : 6
Overread into Lead-In and Lead-Out : No
Fill up missing offset samples with silence : Yes
Delete leading and trailing silent blocks : No
Null samples used in CRC calculations : Yes
Used interface : Native Win32 interface for Win NT & 2000
Gap handling : Appended to previous track

Used output format : User Defined Encoder
Selected bitrate : 768 kBit/s
Quality : High
Add ID3 tag : No
Command line compressor : C:\Program Files (x86)\FLAC Frontend\tools\flac.exe
Additional command line options : -8 -V -T "ARTIST=%artist%" -T "TITLE=%title%" -T "ALBUM=%albumtitle%" -T "DATE=%year%" -T "TRACKNUMBER=%tracknr%" -T "GENRE=%genre%" -T "PERFORMER=%albuminterpret%" -T "COMPOSER=%composer%" %haslyrics%–tag-from-file=LYRICS="%lyricsfile%"%haslyrics% -T "ALBUMARTIST=%albumartist%" -T "DISCNUMBER=%cdnumber%" -T "TOTALDISCS=%totalcds%" -T "TOTALTRACKS=%numtracks%" -T "COMMENT=%comment%" %source% -o %dest%


TOC of the extracted CD

Track | Start | Length | Start sector | End sector
––––––––––––––––––––––––––––-
1 | 0:00.00 | 3:20.63 | 0 | 15062
2 | 3:20.63 | 3:09.51 | 15063 | 29288
3 | 6:30.39 | 5:57.23 | 29289 | 56086
4 | 12:27.62 | 12:42.24 | 56087 | 113260
5 | 25:10.11 | 4:00.62 | 113261 | 131322
6 | 29:10.73 | 2:29.57 | 131323 | 142554
7 | 31:40.55 | 3:18.24 | 142555 | 157428
8 | 34:59.04 | 5:00.44 | 157429 | 179972
9 | 39:59.48 | 0:59.05 | 179973 | 184402
10 | 40:58.53 | 9:48.20 | 184403 | 228522
11 | 50:46.73 | 4:34.16 | 228523 | 249088


Track 1

Filename C:\Users\Astarte\Music\ALTERNATIVE\Various Artists - An Anthology of Indian Classical Music\2\01 Thumri (mode Tilang).wav

Pre-gap length 0:00:02.00

Peak level 91.3 %
Extraction speed 3.3 X
Track quality 99.9 %
Copy CRC 856746C3
Accurately ripped (confidence 5) [74A27B2F] (AR v2)
Copy OK

Track 2

Filename C:\Users\Astarte\Music\ALTERNATIVE\Various Artists - An Anthology of Indian Classical Music\2\02 Svara Mandala (mode Brindavani-Tilang).wav

Pre-gap length 0:00:05.60

Peak level 74.5 %
Extraction speed 4.4 X
Track quality 100.0 %
Copy CRC 97288CC1
Accurately ripped (confidence 5) [E3E71BC7] (AR v2)
Copy OK

Track 3

Filename C:\Users\Astarte\Music\ALTERNATIVE\Various Artists - An Anthology of Indian Classical Music\2\03 Bhajana (mode Malkosh).wav

Pre-gap length 0:00:05.60

Peak level 96.3 %
Extraction speed 5.4 X
Track quality 100.0 %
Copy CRC 7CEADAA9
Accurately ripped (confidence 5) [7E544730] (AR v2)
Copy OK

Track 4

Filename C:\Users\Astarte\Music\ALTERNATIVE\Various Artists - An Anthology of Indian Classical Music\2\04 Le mode Suha Kamode.wav

Pre-gap length 0:00:05.60

Peak level 90.0 %
Extraction speed 6.7 X
Track quality 100.0 %
Copy CRC F508EB00
Accurately ripped (confidence 5) [5EBE51E0] (AR v2)
Copy OK

Track 5

Filename C:\Users\Astarte\Music\ALTERNATIVE\Various Artists - An Anthology of Indian Classical Music\2\05 Jatisvaram (mode Mecha-Kalyani).wav

Pre-gap length 0:00:05.60

Peak level 88.4 %
Extraction speed 6.7 X
Track quality 100.0 %
Copy CRC 8BDD8B7D
Accurately ripped (confidence 5) [79A92946] (AR v2)
Copy OK

Track 6

Filename C:\Users\Astarte\Music\ALTERNATIVE\Various Artists - An Anthology of Indian Classical Music\2\06 Alapana (mode Todi du sud).wav

Pre-gap length 0:00:05.60

Peak level 94.4 %
Extraction speed 6.3 X
Track quality 100.0 %
Copy CRC 3D481D04
Accurately ripped (confidence 5) [E5EF4BA1] (AR v2)
Copy OK

Track 7

Filename C:\Users\Astarte\Music\ALTERNATIVE\Various Artists - An Anthology of Indian Classical Music\2\07 Alapana (mode Kambhoji).wav

Pre-gap length 0:00:05.60

Peak level 89.9 %
Extraction speed 7.0 X
Track quality 100.0 %
Copy CRC D261A3A1
Accurately ripped (confidence 5) [CB785063] (AR v2)
Copy OK

Track 8

Filename C:\Users\Astarte\Music\ALTERNATIVE\Various Artists - An Anthology of Indian Classical Music\2\08 Kriti (mode Yadukula Kambhoji).wav

Pre-gap length 0:00:05.60

Peak level 96.9 %
Extraction speed 7.6 X
Track quality 100.0 %
Copy CRC E2D7FA35
Accurately ripped (confidence 5) [DE6DD2F6] (AR v2)
Copy OK

Track 9

Filename C:\Users\Astarte\Music\ALTERNATIVE\Various Artists - An Anthology of Indian Classical Music\2\09 Tirmana (mode Bhairavi).wav

Pre-gap length 0:00:05.60

Peak level 86.9 %
Extraction speed 3.1 X
Track quality 99.8 %
Copy CRC 13026512
Accurately ripped (confidence 5) [6DC85415] (AR v2)
Copy OK

Track 10

Filename C:\Users\Astarte\Music\ALTERNATIVE\Various Artists - An Anthology of Indian Classical Music\2\10 Le mode Varali.wav

Pre-gap length 0:00:05.60

Peak level 79.7 %
Extraction speed 7.8 X
Track quality 99.9 %
Copy CRC C80201C0
Accurately ripped (confidence 5) [A848C801] (AR v2)
Copy OK

Track 11

Filename C:\Users\Astarte\Music\ALTERNATIVE\Various Artists - An Anthology of Indian Classical Music\2\11 Ganesha Kumara (mode Chinjuruti).wav

Pre-gap length 0:00:05.60

Peak level 94.1 %
Extraction speed 6.8 X
Track quality 99.9 %
Copy CRC 434FD865
Accurately ripped (confidence 5) [D097F5EA] (AR v2)
Copy OK


All tracks accurately ripped

No errors occurred

End of status report

==== Log checksum D1F9A306FBF5F3568F0C5FBDFBD816E0FFE82B51146508144AE17F10C4F2CF99 ====


Exact Audio Copy V1.0 beta 3 from 29. August 2011

EAC extraction logfile from 28. July 2015, 21:47

Anthologie de la musique classiqe indienne / Inde du Sud

Used drive : TSSTcorpCDDVDW SH-216AB Adapter: 0 ID: 0

Read mode : Secure
Utilize accurate stream : Yes
Defeat audio cache : Yes
Make use of C2 pointers : No

Read offset correction : 6
Overread into Lead-In and Lead-Out : No
Fill up missing offset samples with silence : Yes
Delete leading and trailing silent blocks : No
Null samples used in CRC calculations : Yes
Used interface : Native Win32 interface for Win NT & 2000
Gap handling : Appended to previous track

Used output format : User Defined Encoder
Selected bitrate : 768 kBit/s
Quality : High
Add ID3 tag : No
Command line compressor : C:\Program Files (x86)\FLAC Frontend\tools\flac.exe
Additional command line options : -8 -V -T "ARTIST=%artist%" -T "TITLE=%title%" -T "ALBUM=%albumtitle%" -T "DATE=%year%" -T "TRACKNUMBER=%tracknr%" -T "GENRE=%genre%" -T "PERFORMER=%albuminterpret%" -T "COMPOSER=%composer%" %haslyrics%–tag-from-file=LYRICS="%lyricsfile%"%haslyrics% -T "ALBUMARTIST=%albumartist%" -T "DISCNUMBER=%cdnumber%" -T "TOTALDISCS=%totalcds%" -T "TOTALTRACKS=%numtracks%" -T "COMMENT=%comment%" %source% -o %dest%


TOC of the extracted CD

Track | Start | Length | Start sector | End sector
––––––––––––––––––––––––––––-
1 | 0:00.00 | 6:07.34 | 0 | 27558
2 | 6:07.34 | 4:03.38 | 27559 | 45821
3 | 10:10.72 | 9:03.18 | 45822 | 86564
4 | 19:14.15 | 2:53.46 | 86565 | 99585
5 | 22:07.61 | 4:58.40 | 99586 | 121975
6 | 27:06.26 | 4:01.53 | 121976 | 140103
7 | 31:08.04 | 3:10.54 | 140104 | 154407
8 | 34:18.58 | 7:18.27 | 154408 | 187284
9 | 41:37.10 | 4:49.58 | 187285 | 209017
10 | 46:26.68 | 4:25.60 | 209018 | 228952
11 | 50:52.53 | 3:35.36 | 228953 | 245113
12 | 54:28.14 | 1:42.24 | 245114 | 252787


Track 1

Filename C:\Users\Astarte\Music\ALTERNATIVE\Various Artists - An Anthology of Indian Classical Music\3\01 Pallavi 1 (mode Bhairavi du Sud).wav

Pre-gap length 0:00:02.00

Peak level 100.0 %
Extraction speed 4.7 X
Track quality 100.0 %
Copy CRC 7CF83720
Accurately ripped (confidence 5) [0B595D6A] (AR v2)
Copy OK

Track 2

Filename C:\Users\Astarte\Music\ALTERNATIVE\Various Artists - An Anthology of Indian Classical Music\3\02 Jacali (mode Khamas).wav

Pre-gap length 0:00:05.66

Peak level 94.6 %
Extraction speed 5.1 X
Track quality 100.0 %
Copy CRC 89C0123D
Accurately ripped (confidence 5) [04E6F63B] (AR v2)
Copy OK

Track 3

Filename C:\Users\Astarte\Music\ALTERNATIVE\Various Artists - An Anthology of Indian Classical Music\3\03 Pallavi 2 (mode Bhairavi du Sud).wav

Pre-gap length 0:00:05.66

Peak level 98.4 %
Extraction speed 6.2 X
Track quality 100.0 %
Copy CRC 32C13EEA
Accurately ripped (confidence 5) [4D4A468A] (AR v2)
Copy OK

Track 4

Filename C:\Users\Astarte\Music\ALTERNATIVE\Various Artists - An Anthology of Indian Classical Music\3\04 Javali (mode Paraj).wav

Pre-gap length 0:00:05.66

Peak level 100.0 %
Extraction speed 4.5 X
Track quality 99.9 %
Copy CRC 6EF6B81E
Accurately ripped (confidence 5) [F3F02B61] (AR v2)
Copy OK

Track 5

Filename C:\Users\Astarte\Music\ALTERNATIVE\Various Artists - An Anthology of Indian Classical Music\3\05 Sadhincene (mode Arabhi).wav

Pre-gap length 0:00:05.66

Peak level 88.3 %
Extraction speed 6.6 X
Track quality 100.0 %
Copy CRC B7B9B71A
Accurately ripped (confidence 5) [4D6F65CD] (AR v2)
Copy OK

Track 6

Filename C:\Users\Astarte\Music\ALTERNATIVE\Various Artists - An Anthology of Indian Classical Music\3\06 Varnam (mode Dhanyasi).wav

Pre-gap length 0:00:05.68

Peak level 100.0 %
Extraction speed 5.6 X
Track quality 99.9 %
Copy CRC D0AD4B2E
Accurately ripped (confidence 5) [568AD1C3] (AR v2)
Copy OK

Track 7

Filename C:\Users\Astarte\Music\ALTERNATIVE\Various Artists - An Anthology of Indian Classical Music\3\07 Varnam (mode Kambhoji).wav

Pre-gap length 0:00:05.66

Peak level 89.3 %
Extraction speed 6.6 X
Track quality 100.0 %
Copy CRC 3D17BB6F
Accurately ripped (confidence 5) [20BB081B] (AR v2)
Copy OK

Track 8

Filename C:\Users\Astarte\Music\ALTERNATIVE\Various Artists - An Anthology of Indian Classical Music\3\08 Varnam (mode Khamas).wav

Pre-gap length 0:00:05.66

Peak level 97.8 %
Extraction speed 8.0 X
Track quality 100.0 %
Copy CRC 8C5A4D68
Accurately ripped (confidence 5) [F5079FDA] (AR v2)
Copy OK

Track 9

Filename C:\Users\Astarte\Music\ALTERNATIVE\Various Artists - An Anthology of Indian Classical Music\3\09 Sandehamunu (mode Ramapriya).wav

Pre-gap length 0:00:05.66

Peak level 85.2 %
Extraction speed 8.1 X
Track quality 100.0 %
Copy CRC 28E7183A
Accurately ripped (confidence 5) [BAE41C89] (AR v2)
Copy OK

Track 10

Filename C:\Users\Astarte\Music\ALTERNATIVE\Various Artists - An Anthology of Indian Classical Music\3\10 Ninyako (Chenchuritti, Punnaga-varami, Nada-namakriya, Sindu-Bhairavi).wav

Pre-gap length 0:00:05.66

Peak level 92.5 %
Extraction speed 8.3 X
Track quality 100.0 %
Copy CRC 960AD4D3
Accurately ripped (confidence 5) [465CD0F2] (AR v2)
Copy OK

Track 11

Filename C:\Users\Astarte\Music\ALTERNATIVE\Various Artists - An Anthology of Indian Classical Music\3\11 Solo de Mridangam.wav

Pre-gap length 0:00:05.66

Peak level 96.1 %
Extraction speed 6.4 X
Track quality 99.9 %
Copy CRC 983F827B
Accurately ripped (confidence 5) [F4AB4408] (AR v2)
Copy OK

Track 12

Filename C:\Users\Astarte\Music\ALTERNATIVE\Various Artists - An Anthology of Indian Classical Music\3\12 Jnana Vinayakané.wav

Pre-gap length 0:00:05.66

Peak level 79.6 %
Extraction speed 6.6 X
Track quality 100.0 %
Copy CRC 0AB8EF4C
Accurately ripped (confidence 5) [552FD75D] (AR v2)
Copy OK


All tracks accurately ripped

No errors occurred

End of status report

==== Log checksum 86D4319C8CDC4A1975F3E18863E9BFCC4438D4D08DE3887846CAA4EDB88E89A5 ====