Subcategories

Various Artists – Corsica, Canti & Musica: Anthology of Profane Songs and Music (2011)

Posted By: d'Avignon
Various Artists – Corsica, Canti & Musica: Anthology of Profane Songs and Music (2011)

Various Artists – Corsica, Canti & Musica: Anthology of Profane Songs and Music (2011)
World/Folk | FLAC lossless/2cd | cuesheets+logs | covers+booklet | 2h34m | 868mb
Label: OCORA | cat. no. C 560234/35


Request from a user.
A fantastic compilation of traditional Corsican chant. One of the best features of this set is the very informative book coming with it. However, this stiff hardcover was impossible to scan. As an old-fashioned person who is reluctant to damage public property – the set is not mine - I scanned it as good as possible without using violence. Unfortunately, that meant a major part of the scans became illegible towards the centre, where left and right page join.

Right, read what can be read and guess what cannot be read, then. But above all, listen to the music. It is not only the chant itself that will charm you; the first cd, for instance, concludes with an instrumental track so beautiful that I could hardly believe my ears.

Tracks:

Cd1
01. Nando Acquaviva, Claude Bellagamba / O Fiamm [0:03:51.12]
02. A Cumpagnia / Ballu Di I Castiglioni & Scuttiscella [0:04:03.60]
03. Elizabeth Bottalico, Jean-Marc Fabrizy / Terzetti Risinchi [0:02:33.40]
04. Anton-Marcu Campana, Thomas Cipriani / Paghjella Di Tagliu [0:02:10.64]
05. Jerome Casalonga / Tribbiera [0:03:26.53]
06. François-Philippe Barbolosi, Laurent Barbolosi / U Paghjolu [0:02:09.89]
07. Olivier Ancey / Per U Matrimoniu [0:02:39.77]
08. Laurent Barbolosi / Serinatu A I Sposi [0:04:17.88]
09. Nicole Casalonga / Brindisi [0:01:56.05]
10. François-Philippe Barbolosi, Laurent Barbolosi / Muntagne D'Orezza (Paghjella) [0:02:16.86]
11. A Cumpagnia / Lamentu Di U Castagnu [0:05:06.04]
12. Ugo Casalonga, Ange Lanzalavi / U Liutainu Di Pigna [0:03:27.37]
13. Battista Acquaviva / Ciucciarella [0:02:16.20]
14. Claude Bellagamba / Ti Ne Parti [0:02:51.30]
15. Jerome Casalonga, Jean-Michel Fabrizy / Versu Mozzu [0:01:50.00]
16. Carlinu Orsucci / Mulatteri D'Ulmetu [0:04:30.38]
17. Toni Casalonga, Anne Pellegrini / Chjama E Rispondi Pivanescu [0:01:28.41]
18. Elizabeth Bottalico / Lamentu Di Petrucciu [0:03:04.13]
19. Antoine-Marie Campana, Thomas Cipriani / Ecco Bella [0:03:19.18]
20. Bernardu Pazzoni / Scurtiscia Di Sermanu [0:02:27.81]
21. Ange Lanzalavi, Jacques Luciani / Quadrigliu [0:01:44.94]
22. François-Philippe Barbolosi / Miseria Corsa [0:03:03.49]
23. Jacques Cuiloli / U Catanghjonu [0:02:47.76]
24. Jean-Pierre Lanfranchi / Ch Lu Tempu [0:02:18.64]
25. Nando Acquaviva, Ugo & Toni Casalonga / Cerca [0:01:21.08]
26. Jerome Casalonga / Lisa Bedda [0:01:45.90]
27. Jerome & Ugo Casalonga / Filastrocca [0:04:27.24]

Cd2
01. Claude Bellagamba, Jerome Casalonga / Versu Longu (Paghjella) [0:02:05.88]
02. François-Philippe Barbolosi, Laurent Barbolosi / L'Uliosa [0:02:01.46]
03. Michele Paoli / A Canzona Di E Tose [0:01:48.08]
04. Jean-François Giamarchi / Pastore [0:03:43.17]
05. Nando Acquaviva, Toni & Ugo Casalonga / Alimanda [0:01:11.14]
06. Antoine Ciosi / Lamentu Di U Banditu Ghjuvan' Camellu [0:04:05.66]
07. A Cumpagnia / Muresca Di Moita [0:02:53.14]
08. Jerome Casalonga, Jean-Marc Fabrizy / Versu Sermanacciu (Peghjella) [0:01:47.64]
09. Jean-François & Marylène Giamarchi / Cuntrastu [0:02:58.84]
10. Ange Lanzalavi, Jacques Luciani / Ballu Di Carnavale [0:01:53.06]
11. Pancrace Allegrini, Roger Squarcioni / A Giardiniera [0:02:01.72]
12. Bernardu Pazzoni / Waltz From Belgud (Belgodere), Masurca From I Furcili [0:04:21.10]
13. Olivier Ancey, Pauli Calzarelli / Chjama E Rispondi [0:15:47.14]
14. François-Philippe & Laurent Barbolosi / Versu Longu (Paghjella) [0:02:21.53]
15. Dumé Gallet, Petru Santu Menozzi / Scuttiscia Di Batticoni [0:02:14.25]
16. Michele Paoli / Serinatu [0:04:04.24]
17. Jean-Marc Fabrizy / Lamentu Di U Banditu [0:03:55.58]
18. Ange Lanzalavi, Jacques Luciani / Vechja Masurca [0:01:51.74]
19. Nicole Casalonga / O La Ricchezza [0:02:41.66]
20. Olivier Ancey / V ceru A Maistrale [0:05:25.01]
21. Toni Casalonga, Anne Pellegrini / O Catali [0:00:41.06]
22. Anghjula Potentini / Amore Sparitu (Vóceru) [0:04:31.20]
23. A Cumpagnia / Ugo's Pezzu [0:02:37.90]

Performers:

Various; see info tracklist

Exact Audio Copy V1.0 beta 3 from 29. August 2011

EAC extraction logfile from 8. February 2013, 20:31

Ocora / Corsica - Canti & Musica. Anthology of Profane Songs and Music

Used drive : TSSTcorpCDDVDW SH-216AB Adapter: 1 ID: 0

Read mode : Secure
Utilize accurate stream : Yes
Defeat audio cache : Yes
Make use of C2 pointers : No

Read offset correction : 6
Overread into Lead-In and Lead-Out : No
Fill up missing offset samples with silence : Yes
Delete leading and trailing silent blocks : No
Null samples used in CRC calculations : Yes
Used interface : Native Win32 interface for Win NT & 2000

Used output format : User Defined Encoder
Selected bitrate : 768 kBit/s
Quality : High
Add ID3 tag : No
Command line compressor : C:\Program Files (x86)\Exact Audio Copy\FLAC\FLAC.EXE
Additional command line options : -6 -V -T "ARTIST=%artist%" -T "TITLE=%title%" -T "ALBUM=%albumtitle%" -T "DATE=%year%" -T "TRACKNUMBER=%tracknr%" -T "GENRE=%genre%" -T "COMMENT=%comment%" -T "BAND=%albuminterpret%" -T "ALBUMARTIST=%albuminterpret%" -T "COMPOSER=%composer%" %haslyrics%–tag-from-file=LYRICS="%lyricsfile%"%haslyrics% -T "DISCNUMBER=%cdnumber%" -T "TOTALDISCS=%totalcds%" -T "TOTALTRACKS=%numtracks%" %hascover%–picture="%coverfile%"%hascover% %source% -o %dest%


TOC of the extracted CD

Track | Start | Length | Start sector | End sector
––––––––––––––––––––––––––––-
1 | 0:00.00 | 3:51.09 | 0 | 17333
2 | 3:51.09 | 4:03.45 | 17334 | 35603
3 | 7:54.54 | 2:33.30 | 35604 | 47108
4 | 10:28.09 | 2:10.48 | 47109 | 56906
5 | 12:38.57 | 3:26.40 | 56907 | 72396
6 | 16:05.22 | 2:09.67 | 72397 | 82138
7 | 18:15.14 | 2:39.58 | 82139 | 94121
8 | 20:54.72 | 4:17.66 | 94122 | 113462
9 | 25:12.63 | 1:56.04 | 113463 | 122166
10 | 27:08.67 | 2:16.65 | 122167 | 132431
11 | 29:25.57 | 5:06.03 | 132432 | 155384
12 | 34:31.60 | 3:27.28 | 155385 | 170937
13 | 37:59.13 | 2:16.15 | 170938 | 181152
14 | 40:15.28 | 2:51.23 | 181153 | 194000
15 | 43:06.51 | 1:50.00 | 194001 | 202250
16 | 44:56.51 | 4:30.29 | 202251 | 222529
17 | 49:27.05 | 1:28.31 | 222530 | 229160
18 | 50:55.36 | 3:04.10 | 229161 | 242970
19 | 53:59.46 | 3:19.14 | 242971 | 257909
20 | 57:18.60 | 2:27.61 | 257910 | 268995
21 | 59:46.46 | 1:44.71 | 268996 | 276866
22 | 61:31.42 | 3:03.37 | 276867 | 290628
23 | 64:35.04 | 2:47.57 | 290629 | 303210
24 | 67:22.61 | 2:18.48 | 303211 | 313608
25 | 69:41.34 | 1:21.06 | 313609 | 319689
26 | 71:02.40 | 1:45.68 | 319690 | 327632
27 | 72:48.33 | 4:27.18 | 327633 | 347675


Range status and errors

Selected range

Filename C:\Users\astarte\03. POST\corsica\1\Ocora - Corsica - Canti & Musica. Anthology of Profane Songs and Music.wav

Suspicious position 1:12:24

Peak level 97.9 %
Extraction speed 5.2 X
Range quality 99.8 %
Copy CRC 8F21C8C2
Copy finished

There were errors


AccurateRip summary

Track 1 accurately ripped (confidence 1) [57CFEA6D] (AR v2)
Track 2 accurately ripped (confidence 1) [B7CB03B2] (AR v2)
Track 3 accurately ripped (confidence 1) [004F2116] (AR v2)
Track 4 accurately ripped (confidence 1) [0DA2F5FC] (AR v2)
Track 5 accurately ripped (confidence 1) [F2A07DD3] (AR v2)
Track 6 accurately ripped (confidence 1) [0BC2BBEF] (AR v2)
Track 7 accurately ripped (confidence 1) [38BF59EC] (AR v2)
Track 8 accurately ripped (confidence 1) [B6C68527] (AR v2)
Track 9 accurately ripped (confidence 1) [F3BF4313] (AR v2)
Track 10 accurately ripped (confidence 1) [D08BF63F] (AR v2)
Track 11 accurately ripped (confidence 1) [05829992] (AR v2)
Track 12 accurately ripped (confidence 1) [106C6203] (AR v2)
Track 13 accurately ripped (confidence 1) [506B19A1] (AR v2)
Track 14 accurately ripped (confidence 1) [09B20C79] (AR v2)
Track 15 accurately ripped (confidence 1) [52252BED] (AR v2)
Track 16 accurately ripped (confidence 1) [CE9EB6C8] (AR v2)
Track 17 accurately ripped (confidence 1) [15A86A0B] (AR v2)
Track 18 accurately ripped (confidence 1) [A8BA7137] (AR v2)
Track 19 accurately ripped (confidence 1) [AAED8770] (AR v2)
Track 20 accurately ripped (confidence 1) [9EBC4B78] (AR v2)
Track 21 accurately ripped (confidence 1) [6EE7CFE1] (AR v2)
Track 22 accurately ripped (confidence 1) [9BBE9270] (AR v2)
Track 23 accurately ripped (confidence 1) [836C1B34] (AR v2)
Track 24 accurately ripped (confidence 1) [AF441B32] (AR v2)
Track 25 accurately ripped (confidence 1) [49CE1355] (AR v2)
Track 26 accurately ripped (confidence 1) [9B2B209A] (AR v2)
Track 27 cannot be verified as accurate (confidence 1) [626BA82C], AccurateRip returned [81C8A70B] (AR v2)

26 track(s) accurately ripped
1 track(s) could not be verified as accurate

Some tracks could not be verified as accurate

End of status report

==== Log checksum 4AC1AFD3BE5FA77DDF879443E42D6245398B4853D57C8863FA59418747AF39C9 ====


Exact Audio Copy V1.0 beta 3 from 29. August 2011

EAC extraction logfile from 8. February 2013, 20:59

Ocora / Corsica - Canti & Musica. Anthology of Profane Songs and Music, CD2

Used drive : TSSTcorpCDDVDW SH-216AB Adapter: 1 ID: 0

Read mode : Secure
Utilize accurate stream : Yes
Defeat audio cache : Yes
Make use of C2 pointers : No

Read offset correction : 6
Overread into Lead-In and Lead-Out : No
Fill up missing offset samples with silence : Yes
Delete leading and trailing silent blocks : No
Null samples used in CRC calculations : Yes
Used interface : Native Win32 interface for Win NT & 2000

Used output format : User Defined Encoder
Selected bitrate : 768 kBit/s
Quality : High
Add ID3 tag : No
Command line compressor : C:\Program Files (x86)\Exact Audio Copy\FLAC\FLAC.EXE
Additional command line options : -6 -V -T "ARTIST=%artist%" -T "TITLE=%title%" -T "ALBUM=%albumtitle%" -T "DATE=%year%" -T "TRACKNUMBER=%tracknr%" -T "GENRE=%genre%" -T "COMMENT=%comment%" -T "BAND=%albuminterpret%" -T "ALBUMARTIST=%albuminterpret%" -T "COMPOSER=%composer%" %haslyrics%–tag-from-file=LYRICS="%lyricsfile%"%haslyrics% -T "DISCNUMBER=%cdnumber%" -T "TOTALDISCS=%totalcds%" -T "TOTALTRACKS=%numtracks%" %hascover%–picture="%coverfile%"%hascover% %source% -o %dest%


TOC of the extracted CD

Track | Start | Length | Start sector | End sector
––––––––––––––––––––––––––––-
1 | 0:00.00 | 2:05.66 | 0 | 9440
2 | 2:05.66 | 2:01.35 | 9441 | 18550
3 | 4:07.26 | 1:48.06 | 18551 | 26656
4 | 5:55.32 | 3:43.13 | 26657 | 43394
5 | 9:38.45 | 1:11.11 | 43395 | 48730
6 | 10:49.56 | 4:05.50 | 48731 | 67155
7 | 14:55.31 | 2:53.11 | 67156 | 80141
8 | 17:48.42 | 1:47.48 | 80142 | 88214
9 | 19:36.15 | 2:58.63 | 88215 | 101627
10 | 22:35.03 | 1:53.05 | 101628 | 110107
11 | 24:28.08 | 2:01.54 | 110108 | 119236
12 | 26:29.62 | 4:21.08 | 119237 | 138819
13 | 30:50.70 | 15:47.11 | 138820 | 209855
14 | 46:38.06 | 2:21.40 | 209856 | 220470
15 | 48:59.46 | 2:14.19 | 220471 | 230539
16 | 51:13.65 | 4:04.18 | 230540 | 248857
17 | 55:18.08 | 3:55.44 | 248858 | 266526
18 | 59:13.52 | 1:51.56 | 266527 | 274907
19 | 61:05.33 | 2:41.50 | 274908 | 287032
20 | 63:47.08 | 5:25.01 | 287033 | 311408
21 | 69:12.09 | 0:41.05 | 311409 | 314488
22 | 69:53.14 | 4:31.15 | 314489 | 334828
23 | 74:24.29 | 2:37.68 | 334829 | 346671


Range status and errors

Selected range

Filename C:\Users\astarte\03. POST\corsica\2\Ocora - Corsica - Canti & Musica. Anthology of Profane Songs and Music, CD2.wav

Peak level 98.8 %
Extraction speed 3.5 X
Range quality 100.0 %
Copy CRC DCD357F3
Copy OK

No errors occurred


AccurateRip summary

Track 1 accurately ripped (confidence 1) [BCB1C8D8] (AR v2)
Track 2 accurately ripped (confidence 1) [FCAC54CC] (AR v2)
Track 3 accurately ripped (confidence 1) [73DA6C9F] (AR v2)
Track 4 accurately ripped (confidence 1) [BCF69C1B] (AR v2)
Track 5 accurately ripped (confidence 1) [92E97741] (AR v2)
Track 6 accurately ripped (confidence 1) [3F239277] (AR v2)
Track 7 accurately ripped (confidence 1) [467D4207] (AR v2)
Track 8 accurately ripped (confidence 1) [378B23A6] (AR v2)
Track 9 accurately ripped (confidence 1) [B0A2D3C6] (AR v2)
Track 10 accurately ripped (confidence 1) [4570A57C] (AR v2)
Track 11 accurately ripped (confidence 1) [D0278F22] (AR v2)
Track 12 accurately ripped (confidence 1) [EFE74D87] (AR v2)
Track 13 accurately ripped (confidence 1) [49FBACD3] (AR v2)
Track 14 accurately ripped (confidence 1) [07C2C4A7] (AR v2)
Track 15 accurately ripped (confidence 1) [9EBA39E5] (AR v2)
Track 16 accurately ripped (confidence 1) [6D1FAB02] (AR v2)
Track 17 accurately ripped (confidence 1) [E1992CC0] (AR v2)
Track 18 accurately ripped (confidence 1) [5F059AEA] (AR v2)
Track 19 accurately ripped (confidence 1) [FF69EEEA] (AR v2)
Track 20 accurately ripped (confidence 1) [400AF170] (AR v2)
Track 21 accurately ripped (confidence 1) [8AF5F1C1] (AR v2)
Track 22 accurately ripped (confidence 1) [109A185F] (AR v2)
Track 23 accurately ripped (confidence 1) [30E3D70F] (AR v2)

All tracks accurately ripped

End of status report

==== Log checksum 6F2C116FDE92CA7F378C4A356082FB8103DD955B714DED8B4C32FDB166F2D47D ====