Subcategories

Various Artists – South India: Music of the Nilgiri Hills (2012)

Posted By: d'Avignon
Various Artists – South India: Music of the Nilgiri Hills (2012)

Various Artists – South India: Music of the Nilgiri Hills (2012)
World/Ethnic | FLAC lossless/2cd | cuesheets+logs | covers+book A5 | | 1h52m45s | 537mb
Label: Ocora | cat. no. 3149028018929


Music from a very beautiful part of India, judging from photos on the net and from the book.
Request from a user.

Tracks:

Cd1
01. Appel - Duo de trompes kob [0:00:42.38]
02. Aynor kol - Air pour le dieu pere Aynor [0:04:19.86]
03. Les pieds du dieu-pere Aynor [0:02:57.98]
04. Nadujanai [0:03:23.08]
05. Aynor et Amnor [0:02:45.81]
06. Amman kol - Air pour la deesse Amman [0:02:57.52]
07. O kali, deesse-mere de la foret [0:03:25.30]
08. O Siva, fils du seigneur Siva [0:04:09.98]
09. Mere, Om Sakti [0:02:52.68]
10. At kol - Air de danse [0:01:30.06]
11. Nous celebrons le feu [0:02:36.78]
12. Pac tav kol - Air pour les funerailles vertes [0:04:57.40]
13. Öst [0:01:02.24]
14. Kon öst [0:03:31.36]
15. Nöw - J'ai peur du temps qui passe [0:03:14.26]
16. Nöw - Samala [0:02:18.29]
17. Nöw - Quand tu viens me voir [0:02:28.34]
18. Nöw - Mon garcon [0:02:28.33]
19. Nöw - Eguemorjia [0:02:59.01]
20. Nöw danse pour la ceremonie de l'arc [0:03:00.74]

Cd2
01. Dua uga kwal - Air de possession [0:03:41.32]
02. Cheri, le brouillard arrive [0:01:52.66]
03. Je n'ai pas d'enfant [0:01:11.56]
04. Ne t'inquiete pas [0:02:14.97]
05. Eh petit, dors [0:01:18.65]
06. Mon oncle adore [0:01:25.90]
07. Pe kwal - Air pour les demons [0:01:00.37]
08. Tu es parti [0:01:10.76]
09. Pere [0:03:13.10]
10. Dari kwat - Air a jouer en chemin [0:03:14.29]
11. Dans le lilas [0:00:52.18]
12. N'aie pas peur [0:01:35.52]
13. Donne-moi ta bague [0:01:30.26]
14. Nous vous offrons un bol de riz [0:02:00.37]
15. Serpent, serpent [0:02:05.52]
16. Le chacal mange les graines de ble [0:01:25.17]
17. Ata koval - Air de danse [0:01:49.64]
18. Rama-gujari [0:08:58.86]
19. Le chant du miel [0:04:49.16]
20. Ata koval - Air de danse [0:05:42.45]
21. Je vais te cueillir une goyave [0:04:10.20]

Performers:

Various Artists

Exact Audio Copy V1.0 beta 3 from 29. August 2011

EAC extraction logfile from 22. February 2013, 3:21

Various Artists / Music of the Nilgire Hills cd1

Used drive : TSSTcorpCDDVDW SH-216AB Adapter: 1 ID: 0

Read mode : Secure
Utilize accurate stream : Yes
Defeat audio cache : Yes
Make use of C2 pointers : No

Read offset correction : 6
Overread into Lead-In and Lead-Out : No
Fill up missing offset samples with silence : Yes
Delete leading and trailing silent blocks : No
Null samples used in CRC calculations : Yes
Used interface : Native Win32 interface for Win NT & 2000

Used output format : User Defined Encoder
Selected bitrate : 768 kBit/s
Quality : High
Add ID3 tag : No
Command line compressor : C:\Program Files (x86)\Exact Audio Copy\FLAC\FLAC.EXE
Additional command line options : -6 -V -T "ARTIST=%artist%" -T "TITLE=%title%" -T "ALBUM=%albumtitle%" -T "DATE=%year%" -T "TRACKNUMBER=%tracknr%" -T "GENRE=%genre%" -T "COMMENT=%comment%" -T "BAND=%albuminterpret%" -T "ALBUMARTIST=%albuminterpret%" -T "COMPOSER=%composer%" %haslyrics%–tag-from-file=LYRICS="%lyricsfile%"%haslyrics% -T "DISCNUMBER=%cdnumber%" -T "TOTALDISCS=%totalcds%" -T "TOTALTRACKS=%numtracks%" %hascover%–picture="%coverfile%"%hascover% %source% -o %dest%


TOC of the extracted CD

Track | Start | Length | Start sector | End sector
––––––––––––––––––––––––––––-
1 | 0:00.00 | 0:42.29 | 0 | 3178
2 | 0:42.29 | 4:19.65 | 3179 | 22668
3 | 5:02.19 | 2:57.74 | 22669 | 36017
4 | 8:00.18 | 3:23.06 | 36018 | 51248
5 | 11:23.24 | 2:45.61 | 51249 | 63684
6 | 14:09.10 | 2:57.39 | 63685 | 76998
7 | 17:06.49 | 3:25.23 | 76999 | 92396
8 | 20:31.72 | 4:09.74 | 92397 | 111145
9 | 24:41.71 | 2:52.51 | 111146 | 124096
10 | 27:34.47 | 1:30.05 | 124097 | 130851
11 | 29:04.52 | 2:36.59 | 130852 | 142610
12 | 31:41.36 | 4:57.30 | 142611 | 164915
13 | 36:38.66 | 1:02.18 | 164916 | 169583
14 | 37:41.09 | 3:31.27 | 169584 | 185435
15 | 41:12.36 | 3:14.20 | 185436 | 200005
16 | 44:26.56 | 2:18.22 | 200006 | 210377
17 | 46:45.03 | 2:28.26 | 210378 | 221503
18 | 49:13.29 | 2:28.25 | 221504 | 232628
19 | 51:41.54 | 2:59.01 | 232629 | 246054
20 | 54:40.55 | 3:00.56 | 246055 | 259610


Range status and errors

Selected range

Filename C:\Users\astarte\03. POST\Various Artists - Music of the Nilgiri Hills\Various Artists - Music of the Nilgire Hills cd1.wav

Peak level 79.1 %
Extraction speed 4.5 X
Range quality 100.0 %
Copy CRC 270E3176
Copy OK

No errors occurred


AccurateRip summary

Track 1 not present in database
Track 2 not present in database
Track 3 not present in database
Track 4 not present in database
Track 5 not present in database
Track 6 not present in database
Track 7 not present in database
Track 8 not present in database
Track 9 not present in database
Track 10 not present in database
Track 11 not present in database
Track 12 not present in database
Track 13 not present in database
Track 14 not present in database
Track 15 not present in database
Track 16 not present in database
Track 17 not present in database
Track 18 not present in database
Track 19 not present in database
Track 20 not present in database

None of the tracks are present in the AccurateRip database

End of status report

==== Log checksum 5107A7F85F0EF873AE7170BBE0D38111339AFFA25416A9D664FEE5A5971C739B ====


Exact Audio Copy V1.0 beta 3 from 29. August 2011

EAC extraction logfile from 22. February 2013, 3:55

Various Artists / Music of the Nilgiri Hills cd2

Used drive : TSSTcorpCDDVDW SH-216AB Adapter: 1 ID: 0

Read mode : Secure
Utilize accurate stream : Yes
Defeat audio cache : Yes
Make use of C2 pointers : No

Read offset correction : 6
Overread into Lead-In and Lead-Out : No
Fill up missing offset samples with silence : Yes
Delete leading and trailing silent blocks : No
Null samples used in CRC calculations : Yes
Used interface : Native Win32 interface for Win NT & 2000

Used output format : User Defined Encoder
Selected bitrate : 768 kBit/s
Quality : High
Add ID3 tag : No
Command line compressor : C:\Program Files (x86)\Exact Audio Copy\FLAC\FLAC.EXE
Additional command line options : -6 -V -T "ARTIST=%artist%" -T "TITLE=%title%" -T "ALBUM=%albumtitle%" -T "DATE=%year%" -T "TRACKNUMBER=%tracknr%" -T "GENRE=%genre%" -T "COMMENT=%comment%" -T "BAND=%albuminterpret%" -T "ALBUMARTIST=%albuminterpret%" -T "COMPOSER=%composer%" %haslyrics%–tag-from-file=LYRICS="%lyricsfile%"%haslyrics% -T "DISCNUMBER=%cdnumber%" -T "TOTALDISCS=%totalcds%" -T "TOTALTRACKS=%numtracks%" %hascover%–picture="%coverfile%"%hascover% %source% -o %dest%


TOC of the extracted CD

Track | Start | Length | Start sector | End sector
––––––––––––––––––––––––––––-
1 | 0:00.00 | 3:41.24 | 0 | 16598
2 | 3:41.24 | 1:52.50 | 16599 | 25048
3 | 5:33.74 | 1:11.42 | 25049 | 30415
4 | 6:45.41 | 2:14.73 | 30416 | 40538
5 | 9:00.39 | 1:18.49 | 40539 | 46437
6 | 10:19.13 | 1:25.68 | 46438 | 52880
7 | 11:45.06 | 1:00.28 | 52881 | 57408
8 | 12:45.34 | 1:10.57 | 57409 | 62715
9 | 13:56.16 | 3:13.08 | 62716 | 77198
10 | 17:09.24 | 3:14.22 | 77199 | 91770
11 | 20:23.46 | 0:52.14 | 91771 | 95684
12 | 21:15.60 | 1:35.39 | 95685 | 102848
13 | 22:51.24 | 1:30.20 | 102849 | 109618
14 | 24:21.44 | 2:00.28 | 109619 | 118646
15 | 26:21.72 | 2:05.39 | 118647 | 128060
16 | 28:27.36 | 1:25.13 | 128061 | 134448
17 | 29:52.49 | 1:49.48 | 134449 | 142671
18 | 31:42.22 | 8:58.65 | 142672 | 183086
19 | 40:41.12 | 4:49.12 | 183087 | 204773
20 | 45:30.24 | 5:42.34 | 204774 | 230457
21 | 51:12.58 | 4:10.15 | 230458 | 249222


Range status and errors

Selected range

Filename C:\Users\astarte\03. POST\Various Artists - Music of the Nilgiri Hills\2\Various Artists - Music of the Nilgiri Hills cd2.wav

Peak level 100.0 %
Extraction speed 7.4 X
Range quality 99.9 %
Copy CRC 2287D816
Copy OK

No errors occurred


AccurateRip summary

Track 1 not present in database
Track 2 not present in database
Track 3 not present in database
Track 4 not present in database
Track 5 not present in database
Track 6 not present in database
Track 7 not present in database
Track 8 not present in database
Track 9 not present in database
Track 10 not present in database
Track 11 not present in database
Track 12 not present in database
Track 13 not present in database
Track 14 not present in database
Track 15 not present in database
Track 16 not present in database
Track 17 not present in database
Track 18 not present in database
Track 19 not present in database
Track 20 not present in database
Track 21 not present in database

None of the tracks are present in the AccurateRip database

End of status report

==== Log checksum 08FE0255C3031A875F98944AC1214E01272A96F046209AC3830426B05C9923A2 ====