Subcategories

Vassilis Papakonstantinou - Studio albums 1994 - 2007 (4CD, 2013)

Posted By: Speedyclick
Vassilis Papakonstantinou - Studio albums 1994 - 2007 (4CD, 2013)

Vassilis Papakonstantinou - Studio albums 1994 - 2007 (4CD, 2013)
EAC Rips | FLAC (image & cue & log) & mp3 @ 320 kbps | tracks: 52 | Scans | 3:33:44 | ~ 1.44 Gb & 583 Mb
Label: MINOS-EMI | 5% recovery record | First releases: 1994-2007 | Folk, rock, ballads

Four great albums from the mature period of the legendary greek rocker Vassilis Papakonstantinou. "Not tolerated" in 1994, the second brilliant cooperation with Thanos Mikroutsikos "The sea at the port" in 1999, "Lost loves" from 2001 and the powerful "Frontal crash" in 2007. Enjoy a wonderful musical journey with the mesmerizing voice of Vassilis Papakonstantinou.

Vassilis Papakonstantinou - Studio albums 1994 - 2007 (4CD, 2013)

CD01:Not tolerated (De sikoni) [1994] (42:03 | ~ 265 Mb & 108 Mb)

TRACKLIST
01. Greeks street (Odos Ellinon)
02. Not tolerated (De sikoni)
03. Puerto Rico (Porto riko)
04. As if I hadn't lost you (Sa na mi s' ehasa)
05. Sweet dreams (Onira glika)
06. We have given (Dosame)
07. Complaints to Lina (Parapona sti Lina)
08. Goodnight to you (Kalinihta sas)
09. Extremely (Idiazontos)
10. Hold me (Na me kratas)

Exact Audio Copy V1.0 beta 3 from 29. August 2011

EAC extraction logfile from 30. December 2012, 8:23

Vassilis Papakonstantinou / De sikonei

Used drive : HL-DT-STDVDRAM GH10N Adapter: 1 ID: 1

Read mode : Secure
Utilize accurate stream : Yes
Defeat audio cache : Yes
Make use of C2 pointers : No

Read offset correction : 667
Overread into Lead-In and Lead-Out : No
Fill up missing offset samples with silence : Yes
Delete leading and trailing silent blocks : No
Null samples used in CRC calculations : Yes
Used interface : Native Win32 interface for Win NT & 2000

Used output format : User Defined Encoder
Selected bitrate : 1024 kBit/s
Quality : High
Add ID3 tag : Yes
Command line compressor : C:\Program Files\Exact Audio Copy New\Flac\flac.exe
Additional command line options : -V -5 -T "artist=%artist%" -T "title=%title%" -T "album=%albumtitle%" -T "tracknumber=%tracknr2%" -T "genre=%genre%" -5 %source%


TOC of the extracted CD

Track | Start | Length | Start sector | End sector
––––––––––––––––––––––––––––-
1 | 0:00.00 | 4:55.25 | 0 | 22149
2 | 4:55.25 | 3:20.59 | 22150 | 37208
3 | 8:16.09 | 5:40.38 | 37209 | 62746
4 | 13:56.47 | 4:30.34 | 62747 | 83030
5 | 18:27.06 | 2:50.34 | 83031 | 95814
6 | 21:17.40 | 4:15.62 | 95815 | 115001
7 | 25:33.27 | 5:43.43 | 115002 | 140769
8 | 31:16.70 | 3:13.05 | 140770 | 155249
9 | 34:30.00 | 3:16.21 | 155250 | 169970
10 | 37:46.21 | 4:17.38 | 169971 | 189283


Range status and errors

Selected range

Filename S:\MUSIC\Uploaded\GREEK\Vassilis Papakonstantinou\1994 De sikonei\Vassilis Papakonstantinou - De sikonei.wav

Peak level 96.5 %
Extraction speed 4.5 X
Range quality 99.9 %
Test CRC E4661D92
Copy CRC E4661D92
Copy OK

No errors occurred


AccurateRip summary

Track 1 not present in database
Track 2 not present in database
Track 3 not present in database
Track 4 not present in database
Track 5 not present in database
Track 6 not present in database
Track 7 not present in database
Track 8 not present in database
Track 9 not present in database
Track 10 not present in database

None of the tracks are present in the AccurateRip database

End of status report

–– CUETools DB Plugin V2.1.3

[CTDB TOCID: TF4EPe95EaMbwrAXE7nFYvP7mlc-] disk not present in database, Submit result: TF4EPe95EaMbwrAXE7nFYvP7mlc- has been uploaded


==== Log checksum D2C60220B9E9B6DC2148BDD18FA7579832EAB43B11EE1302600CB5BC3DE76C2B ====

Vassilis Papakonstantinou - Studio albums 1994 - 2007 (4CD, 2013)

CD02:The sea at the port (Thalasa sti skala) [1999] (58:04 | ~ 381 Mb & 157 Mb)

TRACKLIST
01. Small falsifications (Mikres nothies)
02. Don't go (Mi figis)
03. Young hawks (Efiva gerakia)
04. The life of others (I zoi ton alon)
05. Kid (Pitsirikas)
06. Still hold a little (Krata ligo akoma)
07. Let me buy the drinks (Giati na min keraso)
08. The train (To treno)
09. Queen (Vasilissa)
10. Give me a hug (Dose mou mia agkalia)
11. Spring is at the door (Anixi mpeni)
12. Hard blue (Skliro galazio)
13. Our best songs (Ta pio kala tragoudia mas)
14. Snitches (Katadotes)

Exact Audio Copy V1.0 beta 3 from 29. August 2011

EAC extraction logfile from 21. January 2013, 10:01

Vassilis Papakonstantinou / Thalassa sti skala

Used drive : HL-DT-STDVDRAM GH10N Adapter: 1 ID: 1

Read mode : Secure
Utilize accurate stream : Yes
Defeat audio cache : Yes
Make use of C2 pointers : No

Read offset correction : 667
Overread into Lead-In and Lead-Out : No
Fill up missing offset samples with silence : Yes
Delete leading and trailing silent blocks : No
Null samples used in CRC calculations : Yes
Used interface : Native Win32 interface for Win NT & 2000

Used output format : User Defined Encoder
Selected bitrate : 1024 kBit/s
Quality : High
Add ID3 tag : Yes
Command line compressor : C:\Program Files\Exact Audio Copy New\Flac\flac.exe
Additional command line options : -V -5 -T "artist=%artist%" -T "title=%title%" -T "album=%albumtitle%" -T "tracknumber=%tracknr2%" -T "genre=%genre%" -5 %source%


TOC of the extracted CD

Track | Start | Length | Start sector | End sector
––––––––––––––––––––––––––––-
1 | 0:00.00 | 4:51.36 | 0 | 21860
2 | 4:51.36 | 5:25.00 | 21861 | 46235
3 | 10:16.36 | 3:04.40 | 46236 | 60075
4 | 13:21.01 | 4:02.18 | 60076 | 78243
5 | 17:23.19 | 3:32.33 | 78244 | 94176
6 | 20:55.52 | 4:18.66 | 94177 | 113592
7 | 25:14.43 | 3:48.02 | 113593 | 130694
8 | 29:02.45 | 3:53.50 | 130695 | 148219
9 | 32:56.20 | 4:45.30 | 148220 | 169624
10 | 37:41.50 | 2:56.03 | 169625 | 182827
11 | 40:37.53 | 3:33.02 | 182828 | 198804
12 | 44:10.55 | 4:38.67 | 198805 | 219721
13 | 48:49.47 | 4:54.23 | 219722 | 241794
14 | 53:43.70 | 4:20.69 | 241795 | 261363


Range status and errors

Selected range

Filename S:\MUSIC\Uploaded\GREEK\Vassilis Papakonstantinou\1999 Thalassa sti skala\Vassilis Papakonstantinou - Thalassa sti skala.wav

Peak level 97.7 %
Extraction speed 2.1 X
Range quality 100.0 %
Test CRC E9DC9DB9
Copy CRC E9DC9DB9
Copy OK

No errors occurred


AccurateRip summary

Track 1 cannot be verified as accurate (confidence 1) [39E02619], AccurateRip returned [8A357573] (AR v2)
Track 2 cannot be verified as accurate (confidence 1) [D9491E83], AccurateRip returned [F0C8F1F9] (AR v2)
Track 3 cannot be verified as accurate (confidence 1) [A324E5BB], AccurateRip returned [A8DA152B] (AR v2)
Track 4 cannot be verified as accurate (confidence 1) [7E3AA3E9], AccurateRip returned [61C0EEA4] (AR v2)
Track 5 cannot be verified as accurate (confidence 1) [ED8847E1], AccurateRip returned [D810D4C0] (AR v2)
Track 6 cannot be verified as accurate (confidence 1) [D926B9BE], AccurateRip returned [B0C123CD] (AR v2)
Track 7 cannot be verified as accurate (confidence 1) [9DF6E702], AccurateRip returned [238B6917] (AR v2)
Track 8 cannot be verified as accurate (confidence 1) [7A8EC53A], AccurateRip returned [0D7F45D8] (AR v2)
Track 9 cannot be verified as accurate (confidence 1) [45092D18], AccurateRip returned [2024650E] (AR v2)
Track 10 cannot be verified as accurate (confidence 1) [672ABC48], AccurateRip returned [9F3628F3] (AR v2)
Track 11 cannot be verified as accurate (confidence 1) [6D84E22D], AccurateRip returned [61E86258] (AR v2)
Track 12 cannot be verified as accurate (confidence 1) [34C03B22], AccurateRip returned [58E58428] (AR v2)
Track 13 not present in database
Track 14 not present in database

12 track(s) could not be verified as accurate
2 track(s) not present in the AccurateRip database

No tracks could be verified as accurate
You may have a different pressing from the one(s) in the database

End of status report

–– CUETools DB Plugin V2.1.3

[CTDB TOCID: 5rHtWcnKivtfQwBJ77klFFsNtNQ-] found, Submit result: 5rHtWcnKivtfQwBJ77klFFsNtNQ- has been confirmed
[d2500ebc] (3/3) Accurately ripped


==== Log checksum B427504DDBA2ECCBB60109972A025BBC694B3F781AAD0F5E43F409228DCD111C ====

Vassilis Papakonstantinou - Studio albums 1994 - 2007 (4CD, 2013)

CD03:Lost loves (Hamenes agapes) [2001] (57:15 | ~ 395 Mb & 157 Mb)

TRACKLIST
01. Lost loves (Hamenes agapes)
02. OK
03. I can't wait anymore (Den eho ali ipomoni)
04. Tell him to go (Pes tou na pai)
05. You're changing (Alazis)
06. I feel very lonely (Niotho megali monaxia)
07. I need (Eho anagki)
08. My God send a rain (Vrexe thee mou)
09. For you (Gia sena)
10. Lie (Psema)
11. Shut up (Papse)
12. Perhaps (Isos)
13. Farewell (Sto kalo na pas)

Exact Audio Copy V1.0 beta 3 from 29. August 2011

EAC extraction logfile from 21. January 2013, 10:45

Vassilis Papakonstantinou / Xamenes agapes

Used drive : HL-DT-STDVDRAM GH10N Adapter: 1 ID: 1

Read mode : Secure
Utilize accurate stream : Yes
Defeat audio cache : Yes
Make use of C2 pointers : No

Read offset correction : 667
Overread into Lead-In and Lead-Out : No
Fill up missing offset samples with silence : Yes
Delete leading and trailing silent blocks : No
Null samples used in CRC calculations : Yes
Used interface : Native Win32 interface for Win NT & 2000

Used output format : User Defined Encoder
Selected bitrate : 1024 kBit/s
Quality : High
Add ID3 tag : Yes
Command line compressor : C:\Program Files\Exact Audio Copy New\Flac\flac.exe
Additional command line options : -V -5 -T "artist=%artist%" -T "title=%title%" -T "album=%albumtitle%" -T "tracknumber=%tracknr2%" -T "genre=%genre%" -5 %source%


TOC of the extracted CD

Track | Start | Length | Start sector | End sector
––––––––––––––––––––––––––––-
1 | 0:00.00 | 5:31.43 | 0 | 24867
2 | 5:31.43 | 4:02.30 | 24868 | 43047
3 | 9:33.73 | 4:09.31 | 43048 | 61753
4 | 13:43.29 | 3:50.21 | 61754 | 79024
5 | 17:33.50 | 5:12.19 | 79025 | 102443
6 | 22:45.69 | 6:02.50 | 102444 | 129643
7 | 28:48.44 | 4:56.23 | 129644 | 151866
8 | 33:44.67 | 3:15.09 | 151867 | 166500
9 | 37:00.01 | 4:05.15 | 166501 | 184890
10 | 41:05.16 | 3:49.47 | 184891 | 202112
11 | 44:54.63 | 4:13.61 | 202113 | 221148
12 | 49:08.49 | 4:03.14 | 221149 | 239387
13 | 53:11.63 | 4:03.26 | 239388 | 257638


Range status and errors

Selected range

Filename S:\MUSIC\Uploaded\GREEK\Vassilis Papakonstantinou\2001 Xamenes agapes\Vassilis Papakonstantinou - Xamenes agapes.wav

Peak level 97.7 %
Extraction speed 2.0 X
Range quality 99.9 %
Copy CRC E4522DAE
Copy OK

No errors occurred


AccurateRip summary

Track 1 cannot be verified as accurate (confidence 2) [41A68D81], AccurateRip returned [6439BBCD] (AR v2)
Track 2 cannot be verified as accurate (confidence 2) [305AB480], AccurateRip returned [4768DEEF] (AR v2)
Track 3 cannot be verified as accurate (confidence 2) [293B701B], AccurateRip returned [A72D89E2] (AR v2)
Track 4 cannot be verified as accurate (confidence 2) [143985B3], AccurateRip returned [62BEF180] (AR v2)
Track 5 cannot be verified as accurate (confidence 2) [B94AF000], AccurateRip returned [49567144] (AR v2)
Track 6 cannot be verified as accurate (confidence 2) [62185A0C], AccurateRip returned [9477D72E] (AR v2)
Track 7 cannot be verified as accurate (confidence 2) [D800274B], AccurateRip returned [C7F26A99] (AR v2)
Track 8 cannot be verified as accurate (confidence 2) [A36C2E46], AccurateRip returned [31295F7A] (AR v2)
Track 9 cannot be verified as accurate (confidence 2) [0FF9E6C4], AccurateRip returned [0AB1853F] (AR v2)
Track 10 cannot be verified as accurate (confidence 2) [1C26953F], AccurateRip returned [BA52FAD6] (AR v2)
Track 11 cannot be verified as accurate (confidence 2) [C699A5D4], AccurateRip returned [91D9544F] (AR v2)
Track 12 cannot be verified as accurate (confidence 2) [829D410C], AccurateRip returned [6F015D3A] (AR v2)
Track 13 cannot be verified as accurate (confidence 2) [D993C142], AccurateRip returned [7973C281] (AR v2)

No tracks could be verified as accurate
You may have a different pressing from the one(s) in the database

End of status report

–– CUETools DB Plugin V2.1.3

[CTDB TOCID: zRSbnqyL5KbMiXUQeMJwGS_XQTI-] found, Submit result: zRSbnqyL5KbMiXUQeMJwGS_XQTI- has been confirmed
[8b3e4801] (1/3) Differs in 8 samples @01:57:45
[2836fcc4] (2/3) Accurately ripped
You can use CUETools to repair this rip.


==== Log checksum B35633F89752AABABE66B636E9BD59546EB3824A05586EFAA384292A2488C546 ====

Vassilis Papakonstantinou - Studio albums 1994 - 2007 (4CD, 2013)

CD04:Frontal crash (Metopiki) [2007] (56:22 | ~ 429 Mb & 161 Mb)

TRACKLIST
01. Let's sleep together (Na kimithoume agkalia)
02. Mermaid (Gorgona)
03. Frontal crash (Metopiki)
04. Sunday afternoon (Apogevma Kiriakis)
05. God's guitarist (Kitharistas tou Theou)
06. I was born a Saturday (Eho genithi Savato)
07. Five minutes (Pente lepta)
08. Burn me (Kapse me)
09. I burn my name (Keo to onoma mou)
10. Helen's tango (To tango tis Elenis)
11. Stranger (Xenos)
12. Red magnet (Kokinos magnitis)
13. Sorry (Signomi)
14. Alcohol the rain (Alcohol i vrohi)
15. Blame you (Ftes)

Exact Audio Copy V1.0 beta 3 from 29. August 2011

EAC extraction logfile from 20. January 2013, 16:51

Vassilis Papakonstantinou / Metopiki

Used drive : HL-DT-STDVDRAM GH10N Adapter: 1 ID: 1

Read mode : Secure
Utilize accurate stream : Yes
Defeat audio cache : Yes
Make use of C2 pointers : No

Read offset correction : 667
Overread into Lead-In and Lead-Out : No
Fill up missing offset samples with silence : Yes
Delete leading and trailing silent blocks : No
Null samples used in CRC calculations : Yes
Used interface : Native Win32 interface for Win NT & 2000

Used output format : User Defined Encoder
Selected bitrate : 1024 kBit/s
Quality : High
Add ID3 tag : Yes
Command line compressor : C:\Program Files\Exact Audio Copy New\Flac\flac.exe
Additional command line options : -V -5 -T "artist=%artist%" -T "title=%title%" -T "album=%albumtitle%" -T "tracknumber=%tracknr2%" -T "genre=%genre%" -5 %source%


TOC of the extracted CD

Track | Start | Length | Start sector | End sector
––––––––––––––––––––––––––––-
1 | 0:00.00 | 3:40.17 | 0 | 16516
2 | 3:40.17 | 4:13.12 | 16517 | 35503
3 | 7:53.29 | 3:16.03 | 35504 | 50206
4 | 11:09.32 | 3:44.27 | 50207 | 67033
5 | 14:53.59 | 4:22.32 | 67034 | 86715
6 | 19:16.16 | 3:45.68 | 86716 | 103658
7 | 23:02.09 | 3:47.27 | 103659 | 120710
8 | 26:49.36 | 3:28.62 | 120711 | 136372
9 | 30:18.23 | 4:09.27 | 136373 | 155074
10 | 34:27.50 | 3:18.13 | 155075 | 169937
11 | 37:45.63 | 3:04.59 | 169938 | 183796
12 | 40:50.47 | 3:04.27 | 183797 | 197623
13 | 43:54.74 | 3:57.65 | 197624 | 215463
14 | 47:52.64 | 3:56.63 | 215464 | 233226
15 | 51:49.52 | 4:32.23 | 233227 | 253649


Range status and errors

Selected range

Filename S:\MUSIC\Uploaded\GREEK\Vassilis Papakonstantinou\2007 Metopiki\Vassilis Papakonstantinou - Metopiki.wav

Peak level 100.0 %
Extraction speed 2.0 X
Range quality 100.0 %
Copy CRC A084014F
Copy OK

No errors occurred


AccurateRip summary

Track 1 not present in database
Track 2 not present in database
Track 3 not present in database
Track 4 not present in database
Track 5 not present in database
Track 6 not present in database
Track 7 not present in database
Track 8 not present in database
Track 9 not present in database
Track 10 not present in database
Track 11 not present in database
Track 12 not present in database
Track 13 not present in database
Track 14 not present in database
Track 15 not present in database

None of the tracks are present in the AccurateRip database

End of status report

–– CUETools DB Plugin V2.1.3

[CTDB TOCID: MIwXTgndUd2.TYx1RLKrID6lTxg-] found, Submit result: MIwXTgndUd2.TYx1RLKrID6lTxg- has been confirmed
[ae3cb24c] (1/1) Accurately ripped


==== Log checksum C2366FA492F4437A6A3539F68662FFDE463D66984AD02C926294A6E3EEE7D9F2 ====