Subcategories

Vicky Mosholiou - Rusty lips (1994)

Posted By: Speedyclick
Vicky Mosholiou - Rusty lips (1994)

Vicky Mosholiou - Rusty lips (1994)
EAC Rip | FLAC (image & cue & log) & mp3 @ 320 kbps | tracks: 12 | ~ 239 Mb & 92 Mb | 36:12 | Scans
Label: LYRA | 5% recovery record | First release: 1981 | Genre: Greek folk songs, ballads

Stamatis Kraounakis is one of the top greek composers today with many platinum albums released and millions of fans. This album is the most important of his career, because it is his first, released in 1981, and mainly because his beloved idol, the unforgettable Vicky Mosholiou, acceded to participate by singing 12 new songs that where different than her "typical" style. The record company didn't even refer the unknown composer's name on the front cover. And of course the brilliant results justified Mosholiou's decision. The LP became platinum and Kraounakis skyrocketed to the top. At track no 6, participates the great Giorgos Zabetas, Vicky's mentor. Enjoy a real gem.

TRACKLIST
01. Red button (Kokino koumpi)
02. Electrified (Ilektrismena)
03. One way or another (Etsi ki alios)
04. I want you (Se thelo)
05. I searched for you (Se girepsa)
06. You interfere (Epemvenis)
07. Frequence (Sihnotita)
08. The voices out of here (Exo i fones)
09. Jet
10. Executive organ (Organo ektelestiko)
11. How did you leave (Pos efiges)
12. To blur your kiss (Na sou lerono to fili)

Exact Audio Copy V1.0 beta 1 from 15. November 2010

EAC extraction logfile from 8. August 2011, 23:11

Vicky Mosholiou / Skouriasmena Hilia

Used drive : HL-DT-STDVDRAM GH10N Adapter: 3 ID: 0

Read mode : Secure
Utilize accurate stream : Yes
Defeat audio cache : Yes
Make use of C2 pointers : No

Read offset correction : 667
Overread into Lead-In and Lead-Out : No
Fill up missing offset samples with silence : Yes
Delete leading and trailing silent blocks : No
Null samples used in CRC calculations : Yes
Used interface : Native Win32 interface for Win NT & 2000

Used output format : User Defined Encoder
Selected bitrate : 1024 kBit/s
Quality : High
Add ID3 tag : No
Command line compressor : C:\Program Files\FLAC\flac.exe
Additional command line options : -V -5 -T "artist=%a" -T "title=%t" -T "album=%g" -T "date=%y" -T "tracknumber=%n" -T "genre=%m" -5 %s


TOC of the extracted CD

Track | Start | Length | Start sector | End sector
––––––––––––––––––––––––––––-
1 | 0:00.00 | 2:46.17 | 0 | 12466
2 | 2:46.17 | 2:53.50 | 12467 | 25491
3 | 5:39.67 | 3:15.28 | 25492 | 40144
4 | 8:55.20 | 3:47.45 | 40145 | 57214
5 | 12:42.65 | 2:55.60 | 57215 | 70399
6 | 15:38.50 | 2:35.15 | 70400 | 82039
7 | 18:13.65 | 2:31.70 | 82040 | 93434
8 | 20:45.60 | 2:44.57 | 93435 | 105791
9 | 23:30.42 | 3:34.55 | 105792 | 121896
10 | 27:05.22 | 2:39.68 | 121897 | 133889
11 | 29:45.15 | 2:53.50 | 133890 | 146914
12 | 32:38.65 | 3:33.12 | 146915 | 162901


Range status and errors

Selected range

Filename U:\EAC Rips\GREEK\Vicky Mosholiou\Vicky Mosholiou - Skouriasmena Hilia\Vicky Mosholiou - Skouriasmena Hilia.wav

Peak level 99.3 %
Extraction speed 0.5 X
Range quality 99.9 %
Test CRC C4917C65
Copy CRC C4917C65
Copy OK

No errors occurred


AccurateRip summary

Track 1 not present in database
Track 2 not present in database
Track 3 not present in database
Track 4 not present in database
Track 5 not present in database
Track 6 not present in database
Track 7 not present in database
Track 8 not present in database
Track 9 not present in database
Track 10 not present in database
Track 11 not present in database
Track 12 not present in database

None of the tracks are present in the AccurateRip database

End of status report

==== Log checksum 7119A8530C3A7CEA21340A94C92AA95085A30B1BD3A5C99A3FD52EE9AFC8633E ====