Subcategories

Viktor Lazlo - Rarities (2005) {Delta Music}

Posted By: shamanicus
Viktor Lazlo - Rarities (2005) {Delta Music}

Viktor Lazlo - Rarities (2005)
EAC Rip | FLAC (tracks+.cue, log) | Artwork | 433 mb | MP3 CBR 320kbps | RAR | 148 mb
Pop, Jazz | Label: Delta Music GmbH - 32573

Viktor Lazlo is a French-Belgian singer of Grenadian and Martiniquan descent. She studied in Belgium, where she is primarily known. Her biggest hit was "Breathless" in 1987. That year she also hosted the Eurovision Song Contest 1987 held in Brussels.

Viktor Lazlo - Rarities (2005) {Delta Music}


Tracklist:

01. La Cite
02. Fever
03. Amour Puissance Six
04. Let Me Be The One
05. Tell Me Pourquoi Pas
06. In The Midnight Sky
07. With You I'm Born Again
08. Hot And Soul
09. City Never Sleeps
10. You Are My Arm
11. Wish You Were Here
12. Maxime
13. Pig My World
14. Club Desert

Viktor Lazlo - Rarities (2005) {Delta Music}


Exact Audio Copy V1.0 beta 3 from 29. August 2011

Отчёт EAC об извлечении, выполненном 23. сентября 2014, 1:24

Viktor Lazlo / Rarities

Дисковод: ASUS DRW-1814BLT Adapter: 4 ID: 0

Режим чтения : Достоверность
Использование точного потока : Да
Отключение кэша аудио : Да
Использование указателей C2 : Нет

Коррекция смещения при чтении : 6
Способность читать области Lead-in и Lead-out : Нет
Заполнение пропущенных сэмплов тишиной : Да
Удаление блоков с тишиной в начале и конце : Нет
При вычислениях CRC использовались нулевые сэмплы : Да
Интерфейс : Встроенный Win32-интерфейс для Win NT/2000
Обработка зазоров : Добавлено к предыдущему треку

Выходной формат : Пользовательский кодировщик
Выбранный битрейт : 128 kBit/s
Качество : Высокий
Добавление ID3-тега : Нет
Утилита сжатия : C:\Program Files\Exact Audio Copy\Flac\flac.exe
Дополнительные параметры : -V -8 -T "Genre=%genre%" -T "Artist=%artist%" -T "Title=%title%" -T "Album=%albumtitle%" -T "Date=%year%" -T "Tracknumber=%tracknr%" -T "Comment=EAC1.0b2 FLAC -8" %source%


TOC извлечённого CD

Трек | Старт | Длительность | Начальный сектор | Конечный сектор
––––––––––––––––––––––––––––––––––-
1 | 0:00.00 | 4:50.60 | 0 | 21809
2 | 4:50.60 | 4:33.56 | 21810 | 42340
3 | 9:24.41 | 5:25.16 | 42341 | 66731
4 | 14:49.57 | 4:08.55 | 66732 | 85386
5 | 18:58.37 | 3:53.41 | 85387 | 102902
6 | 22:52.03 | 4:36.39 | 102903 | 123641
7 | 27:28.42 | 3:35.57 | 123642 | 139823
8 | 31:04.24 | 4:18.04 | 139824 | 159177
9 | 35:22.28 | 4:19.32 | 159178 | 178634
10 | 39:41.60 | 3:30.19 | 178635 | 194403
11 | 43:12.04 | 5:47.41 | 194404 | 220469
12 | 48:59.45 | 4:31.12 | 220470 | 240806
13 | 53:30.57 | 4:10.71 | 240807 | 259627
14 | 57:41.53 | 3:20.03 | 259628 | 274630


Трек 1

Имя файла R:\Раздача 24\Viktor Lazlo - 2005 - Rarities\01 La Cite.wav

Длина предзазора 0:00:02.00

Пиковый уровень 98.8 %
Скорость извлечения 3.9 X
Качество трека 99.9 %
CRC теста FD471209
CRC копии FD471209
Точное извлечение (достоверность 2) [E99E6B94] (AR v1)
Копирование… OK

Трек 2

Имя файла R:\Раздача 24\Viktor Lazlo - 2005 - Rarities\02 Fever.wav

Длина предзазора 0:00:01.59

Пиковый уровень 98.8 %
Скорость извлечения 5.8 X
Качество трека 100.0 %
CRC теста 8E4E4D8C
CRC копии 8E4E4D8C
Точное извлечение (достоверность 2) [2A32DF5C] (AR v1)
Копирование… OK

Трек 3

Имя файла R:\Раздача 24\Viktor Lazlo - 2005 - Rarities\03 Amour Puissance Six.wav

Длина предзазора 0:00:01.59

Пиковый уровень 98.8 %
Скорость извлечения 6.5 X
Качество трека 100.0 %
CRC теста 9F82D5C3
CRC копии 9F82D5C3
Точное извлечение (достоверность 2) [445C4578] (AR v1)
Копирование… OK

Трек 4

Имя файла R:\Раздача 24\Viktor Lazlo - 2005 - Rarities\04 Let Me Be The One.wav

Длина предзазора 0:00:01.59

Пиковый уровень 98.8 %
Скорость извлечения 6.8 X
Качество трека 100.0 %
CRC теста 10C6B881
CRC копии 10C6B881
Точное извлечение (достоверность 2) [A1450A37] (AR v1)
Копирование… OK

Трек 5

Имя файла R:\Раздача 24\Viktor Lazlo - 2005 - Rarities\05 Tell Me Pourquoi Pas.wav

Длина предзазора 0:00:01.59

Пиковый уровень 98.8 %
Скорость извлечения 7.1 X
Качество трека 100.0 %
CRC теста 697D3B41
CRC копии 697D3B41
Точное извлечение (достоверность 2) [0B8842C9] (AR v1)
Копирование… OK

Трек 6

Имя файла R:\Раздача 24\Viktor Lazlo - 2005 - Rarities\06 In The Midnight Sky.wav

Длина предзазора 0:00:01.59

Пиковый уровень 98.8 %
Скорость извлечения 5.8 X
Качество трека 99.9 %
CRC теста F1D22B40
CRC копии F1D22B40
Точное извлечение (достоверность 2) [5DA0014C] (AR v1)
Копирование… OK

Трек 7

Имя файла R:\Раздача 24\Viktor Lazlo - 2005 - Rarities\07 With You I'm Born Again.wav

Длина предзазора 0:00:01.59

Пиковый уровень 98.3 %
Скорость извлечения 5.7 X
Качество трека 99.9 %
CRC теста 8B6ACDFC
CRC копии 8B6ACDFC
Точное извлечение (достоверность 2) [2489A4B7] (AR v1)
Копирование… OK

Трек 8

Имя файла R:\Раздача 24\Viktor Lazlo - 2005 - Rarities\08 Hot And Soul.wav

Длина предзазора 0:00:01.59

Пиковый уровень 98.8 %
Скорость извлечения 8.3 X
Качество трека 100.0 %
CRC теста CE755288
CRC копии CE755288
Точное извлечение (достоверность 2) [4D2597D0] (AR v1)
Копирование… OK

Трек 9

Имя файла R:\Раздача 24\Viktor Lazlo - 2005 - Rarities\09 City Never Sleeps.wav

Длина предзазора 0:00:01.59

Пиковый уровень 98.8 %
Скорость извлечения 8.6 X
Качество трека 100.0 %
CRC теста 55C07E88
CRC копии 55C07E88
Точное извлечение (достоверность 2) [57A7221E] (AR v1)
Копирование… OK

Трек 10

Имя файла R:\Раздача 24\Viktor Lazlo - 2005 - Rarities\10 You Are My Arm.wav

Длина предзазора 0:00:01.59

Пиковый уровень 98.8 %
Скорость извлечения 8.7 X
Качество трека 100.0 %
CRC теста AC97F121
CRC копии AC97F121
Точное извлечение (достоверность 2) [E6D35E6A] (AR v1)
Копирование… OK

Трек 11

Имя файла R:\Раздача 24\Viktor Lazlo - 2005 - Rarities\11 Wish You Were Here.wav

Длина предзазора 0:00:01.59

Пиковый уровень 98.8 %
Скорость извлечения 9.5 X
Качество трека 100.0 %
CRC теста 4D22A563
CRC копии 4D22A563
Точное извлечение (достоверность 2) [B223EADA] (AR v1)
Копирование… OK

Трек 12

Имя файла R:\Раздача 24\Viktor Lazlo - 2005 - Rarities\12 Maxime.wav

Длина предзазора 0:00:01.59

Пиковый уровень 98.8 %
Скорость извлечения 9.7 X
Качество трека 100.0 %
CRC теста 6F4A98C4
CRC копии 6F4A98C4
Точное извлечение (достоверность 2) [A46452BC] (AR v1)
Копирование… OK

Трек 13

Имя файла R:\Раздача 24\Viktor Lazlo - 2005 - Rarities\13 Pig My World.wav

Длина предзазора 0:00:01.59

Пиковый уровень 98.8 %
Скорость извлечения 9.8 X
Качество трека 100.0 %
CRC теста 4ACA0CD5
CRC копии 4ACA0CD5
Точное извлечение (достоверность 2) [ADD8E60E] (AR v1)
Копирование… OK

Трек 14

Имя файла R:\Раздача 24\Viktor Lazlo - 2005 - Rarities\14 Club Desert.wav

Длина предзазора 0:00:01.59

Пиковый уровень 96.9 %
Скорость извлечения 9.7 X
Качество трека 100.0 %
CRC теста 7E9E6C1E
CRC копии 7E9E6C1E
Точное извлечение (достоверность 2) [A1BB59A7] (AR v1)
Копирование… OK


Все треки извлечены точно

Ошибок не произошло

Конец отчёта

==== Контрольная сумма отчёта 78FEFAA450527816257C86B3C4D47340893121CC377576308B63F3D010F7F301 ====


Thanks to the Original customer.