Subcategories

Hildegard von Bingen & Peter Abelard - Jouissance - Ensemble Viriditas (1993) {Spectrum Publications 0 86786 344 7}

Posted By: ruskaval
Hildegard von Bingen & Peter Abelard - Jouissance - Ensemble Viriditas (1993) {Spectrum Publications 0 86786 344 7}

Hildegard von Bingen & Peter Abelard - Jouissance - Ensemble Viriditas (1993) {Spectrum Publications 0 86786 344 7}
EAC rip (secure mode) | FLAC (tracks)+CUE+LOG -> 231 Mb | MP3 @320 -> 153 Mb
Full Artwork @ 600 dpi (png) -> 178 Mb | 5% repair rar
© 1993 Spectrum Publications | 0 86786 344 7
Classical / Medieval / Early Music / Chant / 12th Century

VIRIDITAS was founded in 1991 by Juliette Hughes, initially to perform the Ordo Virtutum of Hildegard of Bingen. The group is dedicated to re-thinking the performance of music of the 12th-century Latin West in contemporary framework. It is also involved in the performance of 20th-century music, seeking to set up a dialogue between music of different traditions.
Hildegard von Bingen & Peter Abelard - Jouissance - Ensemble Viriditas (1993) {Spectrum Publications 0 86786 344 7}


Ensemble VIRIDITAS

soprano: Juliette HUGHES
tenor: Tyrone LANDAU
baritone: Bradley DALEY

chorus:
Morag FRASER, Geraldine HUGHES, Caroline SCHMIDT

percussion: Peter NEVILLE
shakuhachi: Anne NORMAN
double bass: Nick TSIAVOS

directors: Juliette HUGHES & Nick TSIAVOS

Works on This Recording

Hildegard von Bingen & Peter Abelard - Jouissance - Ensemble Viriditas (1993) {Spectrum Publications 0 86786 344 7}


Exact Audio Copy V1.3 from 2. September 2016

EAC extraction logfile from 5. October 2019, 15:00

Hildergard & Aberand / Jouissance

Used drive : SlimtypeDVD A DS8A5S Adapter: 1 ID: 0

Read mode : Secure
Utilize accurate stream : Yes
Defeat audio cache : Yes
Make use of C2 pointers : No

Read offset correction : 6
Overread into Lead-In and Lead-Out : No
Fill up missing offset samples with silence : Yes
Delete leading and trailing silent blocks : No
Null samples used in CRC calculations : Yes
Used interface : Native Win32 interface for Win NT & 2000
Gap handling : Appended to previous track

Used output format : User Defined Encoder
Selected bitrate : 1024 kBit/s
Quality : High
Add ID3 tag : No
Command line compressor : C:\Program Files (x86)\Exact Audio Copy\Flac\flac.exe
Additional command line options : -8 -V -T "ARTIST=%artist%" -T "TITLE=%title%" -T "ALBUM=%albumtitle%" -T "DATE=%year%" -T "TRACKNUMBER=%tracknr%" -T "GENRE=%genre%" -T "PERFORMER=%albuminterpret%" -T "COMPOSER=%composer%" %haslyrics%–tag-from-file=LYRICS="%lyricsfile%"%haslyrics% -T "ALBUMARTIST=%albumartist%" -T "DISCNUMBER=%cdnumber%" -T "TOTALDISCS=%totalcds%" -T "TOTALTRACKS=%numtracks%" -T "COMMENT=%comment%" %source% -o %dest%


TOC of the extracted CD

Track | Start | Length | Start sector | End sector
––––––––––––––––––––––––––––-
1 | 0:00.00 | 10:17.40 | 0 | 46314
2 | 10:17.40 | 6:21.00 | 46315 | 74889
3 | 16:38.40 | 5:00.35 | 74890 | 97424
4 | 21:39.00 | 6:46.00 | 97425 | 127874
5 | 28:25.00 | 16:36.00 | 127875 | 202574
6 | 45:01.00 | 8:38.00 | 202575 | 241424
7 | 53:39.00 | 9:59.00 | 241425 | 286349


Track 1

Filename C:\RippingAndTagging\01 - Epithalamica - Abelard.wav

Pre-gap length 0:00:02.00

Peak level 98.7 %
Extraction speed 1.2 X
Track quality 99.9 %
Test CRC 3D21DAC3
Copy CRC 3D21DAC3
Track not present in AccurateRip database
Copy OK

Track 2

Filename C:\RippingAndTagging\02 - O coruscans lux - Hildegard.wav

Peak level 76.2 %
Extraction speed 0.2 X
Track quality 100.0 %
Test CRC 1226CC3A
Copy CRC 1226CC3A
Track not present in AccurateRip database
Copy OK

Track 3

Filename C:\RippingAndTagging\03 - O pulchre facies - Hildergard.wav

Peak level 75.9 %
Extraction speed 1.4 X
Track quality 99.9 %
Test CRC 2BE005E5
Copy CRC 2BE005E5
Track not present in AccurateRip database
Copy OK

Track 4

Filename C:\RippingAndTagging\04 - Spiritus sanctus 0 Hildegard.wav

Peak level 94.0 %
Extraction speed 1.6 X
Track quality 99.9 %
Test CRC F4004B87
Copy CRC F4004B87
Track not present in AccurateRip database
Copy OK

Track 5

Filename C:\RippingAndTagging\05 - Dolorum solatium - Abelard.wav

Peak level 100.0 %
Extraction speed 2.1 X
Track quality 99.9 %
Test CRC 4AD12F31
Copy CRC 4AD12F31
Track not present in AccurateRip database
Copy OK

Track 6

Filename C:\RippingAndTagging\06 - Res noster - Hildegard.wav

Peak level 69.9 %
Extraction speed 2.3 X
Track quality 100.0 %
Test CRC 66740F6F
Copy CRC 66740F6F
Track not present in AccurateRip database
Copy OK

Track 7

Filename C:\RippingAndTagging\07 - O Ecclesia - Hildegard.wav

Peak level 57.8 %
Extraction speed 2.5 X
Track quality 100.0 %
Test CRC 92EF4AA3
Copy CRC 92EF4AA3
Track not present in AccurateRip database
Copy OK


None of the tracks are present in the AccurateRip database

No errors occurred

End of status report

–– CUETools DB Plugin V2.1.6

[CTDB TOCID: 64mcCIdqjkChBgBIxRkAY4G7enY-] disk not present in database
Submit result: 64mcCIdqjkChBgBIxRkAY4G7enY- has been uploaded


==== Log checksum 6A7488CC49402C0C4BB4271FF018A3E3D41D9C5CF961E03BE65FAD3EF23396D8 ====


Hildegard von Bingen & Peter Abelard - Jouissance - Ensemble Viriditas (1993) {Spectrum Publications 0 86786 344 7}



===