Subcategories

Wagner - Overtures and Preludes (1995) (CSO, Daniel Barenboim)

Posted By: shamanicus
Wagner - Overtures and Preludes (1995) (CSO, Daniel Barenboim)

Wagner - Overtures and Preludes (1995) (CSO, Daniel Barenboim)
XLD Rip | FLAC (tracks+.cue, log) | Covers | 293 mb | MP3 CBR 320kbps | RAR | 160 mb
Classical | Label: TELDEC / 4509-99595-2

Barenboim is an excellent Wagner conductor, and it's a pity his ongoing series of Wagner operas is often forced to make do with less than splendid voices. All the more reason, then, to enjoy this excellent disc of overtures and preludes, all of which are played to the hilt by the Chicago Symphony Orchestra and recorded in sound of superb amplitude.

There are many collections of this type available, many of them very fine, and even more of them very dull. Barenboim plays the music with the necessary flexibility of tempo, but at the same time never turns it into a lecture on Schopenhaurian philosophy. It's a good listen.
David Hurwitz



Tracklist:

01. Der fliegende Holländer: Overture
02. Tannhäuser und der Sängerkrieg auf der Wartburg: Overture
03. Lohengrin: Act I. Prelude
04. Lohengrin: Act III. Prelude
05. Die Meistersinger von Nürnberg: Prelude
06. Tristan und Isolde: Prelude / Act III. Liebestod

Wagner - Overtures and Preludes (1995) (CSO, Daniel Barenboim)


Composer:
Richard Wagner ‎
Performers:
Chicago Symphony Orchestra‎
Conducted by:
Daniel Barenboim

X Lossless Decoder version 20170729 (150.3)

XLD extraction logfile from 2017-10-10 17:12:31 -0700

Chicago Symphony Orchestra, Daniel Barenboim / Wagner: Overtures and Preludes

Used drive : MATSHITA BD-CMB UJ141EL (revision 1.10)
Media type : Pressed CD

Ripper mode : XLD Secure Ripper
Disable audio cache : OK for the drive with a cache less than 1375KiB
Make use of C2 pointers : NO
Read offset correction : 103
Max retry count : 20
Gap status : Analyzed, Appended (except HTOA)

TOC of the extracted CD
Track | Start | Length | Start sector | End sector
––––––––––––––––––––––––––––-
1 | 00:00:00 | 11:11:45 | 0 | 50369
2 | 11:11:45 | 15:35:32 | 50370 | 120526
3 | 26:47:02 | 10:42:25 | 120527 | 168701
4 | 37:29:27 | 02:49:55 | 168702 | 181431
5 | 40:19:07 | 10:13:48 | 181432 | 227454
6 | 50:32:55 | 17:09:42 | 227455 | 304671

List of alternate offset correction values
# | Absolute | Relative | Confidence
–––––––––––––––––––––
1 | 1002 | 899 | 18
2 | 326 | 223 | 2
3 | 333 | 230 | 2

AccurateRip Summary (DiscID: 001011e6-00548f5c-3f0fde06)
Track 01 : OK (v1+v2, confidence 13/32)
Track 02 : OK (v1+v2, confidence 13/35)
Track 03 : OK (v1+v2, confidence 13/35)
Track 04 : OK (v1+v2, confidence 13/35)
Track 05 : OK (v1+v2, confidence 13/33)
Track 06 : OK (v1+v2, confidence 13/35)
->All tracks accurately ripped.

All Tracks
Album gain : -1.95 dB
Peak : 0.977234
Statistics
Read error : 0
Jitter error (maybe fixed) : 0
Retry sector count : 0
Damaged sector count : 0

Track 01
Filename : /Rip/Chicago Symphony Orchestra, Daniel Barenboim - Wagner_ Overtures and Preludes (1995)/01 Der fliegende Holländer_ Overture.flac
Pre-gap length : 00:02:00

Track gain : -3.02 dB
Peak : 0.976868
CRC32 hash (test run) : CC6CEC6C
CRC32 hash : CC6CEC6C
CRC32 hash (skip zero) : 7136687D
AccurateRip v1 signature : 7FBB24CC
AccurateRip v2 signature : 578B6A56
->Accurately ripped (v1+v2, confidence 6+7/32)
Statistics
Read error : 0
Jitter error (maybe fixed) : 0
Retry sector count : 0
Damaged sector count : 0

Track 02
Filename : /Rip/Chicago Symphony Orchestra, Daniel Barenboim - Wagner_ Overtures and Preludes (1995)/02 Tannhäuser und der Sängerkrieg auf der Wartburg_ Overture.flac
Pre-gap length : 00:07:23

Track gain : -1.82 dB
Peak : 0.972229
CRC32 hash (test run) : 8BF43B03
CRC32 hash : 8BF43B03
CRC32 hash (skip zero) : DE824877
AccurateRip v1 signature : 7891E02E
AccurateRip v2 signature : 10787992
->Accurately ripped (v1+v2, confidence 6+7/35)
Statistics
Read error : 0
Jitter error (maybe fixed) : 0
Retry sector count : 0
Damaged sector count : 0

Track 03
Filename : /Rip/Chicago Symphony Orchestra, Daniel Barenboim - Wagner_ Overtures and Preludes (1995)/03 Lohengrin_ Act I Prelude.flac
Pre-gap length : 00:09:55

Track gain : 0.17 dB
Peak : 0.977234
CRC32 hash (test run) : 94D013CF
CRC32 hash : 94D013CF
CRC32 hash (skip zero) : 77F22AF2
AccurateRip v1 signature : 30E8AC50
AccurateRip v2 signature : 9C6E7338
->Accurately ripped (v1+v2, confidence 6+7/35)
Statistics
Read error : 0
Jitter error (maybe fixed) : 0
Retry sector count : 0
Damaged sector count : 0

Track 04
Filename : /Rip/Chicago Symphony Orchestra, Daniel Barenboim - Wagner_ Overtures and Preludes (1995)/04 Lohengrin_ Act III Prelude.flac
Pre-gap length : 00:09:37

Track gain : -4.02 dB
Peak : 0.977234
CRC32 hash (test run) : F9EB886C
CRC32 hash : F9EB886C
CRC32 hash (skip zero) : B866E87F
AccurateRip v1 signature : ECC55DAA
AccurateRip v2 signature : CEAB3E61
->Accurately ripped (v1+v2, confidence 6+7/35)
Statistics
Read error : 0
Jitter error (maybe fixed) : 0
Retry sector count : 0
Damaged sector count : 0

Track 05
Filename : /Rip/Chicago Symphony Orchestra, Daniel Barenboim - Wagner_ Overtures and Preludes (1995)/05 Die Meistersinger von Nürnberg_ Prelude.flac
Pre-gap length : 00:10:57

Track gain : -2.37 dB
Peak : 0.977234
CRC32 hash (test run) : 4B37EB12
CRC32 hash : 4B37EB12
CRC32 hash (skip zero) : 8B16A50D
AccurateRip v1 signature : 1EC861AF
AccurateRip v2 signature : 30700FCE
->Accurately ripped (v1+v2, confidence 6+7/33)
Statistics
Read error : 0
Jitter error (maybe fixed) : 0
Retry sector count : 0
Damaged sector count : 0

Track 06
Filename : /Rip/Chicago Symphony Orchestra, Daniel Barenboim - Wagner_ Overtures and Preludes (1995)/06 Tristan und Isolde_ Prelude _ Act III Liebestod.flac
Pre-gap length : 00:09:65

Track gain : 1.78 dB
Peak : 0.977234
CRC32 hash (test run) : 215C1BD7
CRC32 hash : 215C1BD7
CRC32 hash (skip zero) : 80213A22
AccurateRip v1 signature : 448C0495
AccurateRip v2 signature : 9CD37A1D
->Accurately ripped (v1+v2, confidence 6+7/35)
Statistics
Read error : 0
Jitter error (maybe fixed) : 0
Retry sector count : 0
Damaged sector count : 0

No errors occurred

End of status report

––-BEGIN XLD SIGNATURE––-
yVz_r9fmSzF6UMsng50xTfw8iz88UImmD9iQ7L4JhZQL4ljOH4E7TwdQwnPaTfQor_wziqvQli5jh_YvPOPNZpGfsWqR30B7XZPBNVm
––-END XLD SIGNATURE––-


Thanks to the Original customer.