Subcategories

Warhorse - Red Sea (1972)

Posted By: L@ter
Warhorse - Red Sea (1972)

Warhorse - Red Sea (1972)
EAC Rip | FLAC, IMG+CUE, LOG + MP3 | 415 MB | 69,01 min. | Covers
Label: Angel Air | Rock, Hard Rock | Recorded: 1972 | RAR 3% Rec.

Warhorse were a band formed by former Deep Purple bassist Nick Simper. He had left Deep Purple in 1969 and joined Marsha Hunt's backup band. Not long after, Simper replaced her backing band with Ged Peck on guitar and Mac Poole on drums. While this was going on, Simper would play in an extracurricular band along with Peck, Poole and singer Ashley Holt. When Hunt became pregnant, the band stopped touring and Simper re-organized the group as Warhorse. Holt became the band's singer, and they recruited keyboardist Rick Wakeman who proved unreliable. When their first demo was recorded in April 1970, Wakeman was replaced by Frank Wilson.
Exact Audio Copy V0.99 prebeta 4 from 23. January 2008

EAC extraction logfile from 30. April 2009, 19:11

Warhorse / Red Sea

Used drive : TSSTcorpCDDVDW SH-S223Q Adapter: 1 ID: 0

Read mode : Secure
Utilize accurate stream : Yes
Defeat audio cache : Yes
Make use of C2 pointers : No

Read offset correction : 6
Overread into Lead-In and Lead-Out : No
Fill up missing offset samples with silence : Yes
Delete leading and trailing silent blocks : No
Null samples used in CRC calculations : Yes
Used interface : Native Win32 interface for Win NT & 2000

Used output format : User Defined Encoder
Selected bitrate : 768 kBit/s
Quality : High
Add ID3 tag : No
Command line compressor : C:\Program Files\Exact Audio Copy\FLAC\FLAC.EXE
Additional command line options : -6 -V -T "ARTIST=%a" -T "TITLE=%t" -T "ALBUM=%g" -T "DATE=%y" -T "TRACKNUMBER=%n" -T "GENRE=%m" -T "COMMENT=%e" %s -o %d


TOC of the extracted CD

Track | Start | Length | Start sector | End sector
––––––––––––––––––––––––––––-
1 | 0:00.00 | 4:20.53 | 0 | 19552
2 | 4:20.53 | 7:49.57 | 19553 | 54784
3 | 12:10.35 | 4:43.23 | 54785 | 76032
4 | 16:53.58 | 5:31.45 | 76033 | 100902
5 | 22:25.28 | 5:35.32 | 100903 | 126059
6 | 28:00.60 | 8:44.02 | 126060 | 165361
7 | 36:44.62 | 5:15.57 | 165362 | 189043
8 | 42:00.44 | 4:19.17 | 189044 | 208485
9 | 46:19.61 | 4:40.29 | 208486 | 229514
10 | 51:00.15 | 4:55.71 | 229515 | 251710
11 | 55:56.11 | 4:08.41 | 251711 | 270351
12 | 60:04.52 | 4:19.37 | 270352 | 289813
13 | 64:24.14 | 4:37.02 | 289814 | 310590


Range status and errors

Selected range

Filename C:\Warhorse - Red Sea.wav

Peak level 98.3 %
Range quality 100.0 %
Copy CRC 99DBF4C7
Copy OK

No errors occurred

End of status report


Tracklist

01. Red Sea
02. Back In Time
03. Confident But Wrong
04. Feeling Better
05. Sybilla
06. Mouthpiece
07. I (Who Have Nothing)
08. Ritual (Live)
09. Bad Time (Demo)
10. She Was My Friend (Demo)
11. Gypsy Dancer (Demo)
12. House Of The Dolls (Demo)
13. Standing Right Behind You