Subcategories

The Weavers - Greatest Hits (1971, 1986)

Posted By: gesenius
The Weavers - Greatest Hits (1971, 1986)

The Weavers - Greatest Hits (1971, 1986)
Folk | EAC | FLAC, IMG+CUE, LOG | 436 MB | 5 Files | 1 CD | RAR 3% Rec.
Complete 300 dpi Scans | Label:Vanguard | Rapidshare

The Weavers - Greatest Hits (1971, 1986)

The Weaver's "Greatest Hits" CD lives up to its name, and presents the most memorable songs by one of America's most important and enjoyable folk bands. The CD is two albums in one, and part of Vanguard's "Twofer" series. The first 13 songs are live, and most of the remaining ones are studio (the order of the songs on the CD is completely different than that listed above). The Weavers' musical style varies greatly including American folk, blues, ethnic folk, and pop orchestration. They sound best - and most timeless – in recordings with minimal studio production and no background musicians. It is this unique sound that inspired Peter, Paul and Mary, and this also comes out more strongly in their live recordings. The sound quality of this CD is nice and crisp. - Amazon Reviewer

Audio CD (October 25, 1990)
Original Release Date: 1957
Number of Discs: 1
Label: Vanguard Records
UPC:015707151627

Tracks
1. When the Saints Go Marching In 2:12
2. Kisses Sweeter Than Wine3:15
3. Tzena, Tzena, Tzena1:14
4. Last Night I Had the Strangest Dream1:46
5. Wimoweh1:45
6. On Top of Old Smokey2:25
7. Follow the Drinking Gourd2:09
8. Sixteen Tons2:08
9. Guantanamera4:31
10. Wreck of the "John B"2:23
11. Rock Island Line2:18
12. Around the World2:52
13. Goodnight Irene3:56
14. Erie Canal2:19
15. Wild Goose Grasses (In Tarrytown)2:59
16. This Land Is Your Land2:44
17. House of the Rising Sun3:45
18. Aunt Rhodie1:53
19. Gotta Travel On3:38
20. Michael Row the Boat Ashore3:39
21. Old Riley2:28
22. Brother Can You Spare a Dime2:41
23. If I Had a Hammer2:15
24. Darling Corey1:53
25. So Long It's Been Good To Know You


Exact Audio Copy V0.99 prebeta 4 from 23. January 2008

EAC extraction logfile from 24. May 2009, 10:41

Weavers / Greatest Hits

Used drive : Adapter: 1 ID: 0

Read mode : Secure
Utilize accurate stream : Yes
Defeat audio cache : No
Make use of C2 pointers : No

Read offset correction : 102
Overread into Lead-In and Lead-Out : No
Fill up missing offset samples with silence : Yes
Delete leading and trailing silent blocks : No
Null samples used in CRC calculations : Yes
Used interface : Native Win32 interface for Win NT & 2000

Used output format : Internal WAV Routines
Sample format : 44.100 Hz; 16 Bit; Stereo


TOC of the extracted CD

Track | Start | Length | Start sector | End sector
––––––––––––––––––––––––––––-
1 | 0:00.00 | 2:12.20 | 0 | 9919
2 | 2:12.20 | 3:15.32 | 9920 | 24576
3 | 5:27.52 | 1:14.55 | 24577 | 30181
4 | 6:42.32 | 1:46.28 | 30182 | 38159
5 | 8:28.60 | 1:45.55 | 38160 | 46089
6 | 10:14.40 | 2:25.50 | 46090 | 57014
7 | 12:40.15 | 2:09.55 | 57015 | 66744
8 | 14:49.70 | 2:08.30 | 66745 | 76374
9 | 16:58.25 | 4:31.30 | 76375 | 96729
10 | 21:29.55 | 2:23.10 | 96730 | 107464
11 | 23:52.65 | 2:18.57 | 107465 | 117871
12 | 26:11.47 | 2:52.23 | 117872 | 130794
13 | 29:03.70 | 3:56.05 | 130795 | 148499
14 | 33:00.00 | 2:19.00 | 148500 | 158924
15 | 35:19.00 | 2:59.37 | 158925 | 172386
16 | 38:18.37 | 2:44.15 | 172387 | 184701
17 | 41:02.52 | 3:45.25 | 184702 | 201601
18 | 44:48.02 | 1:53.45 | 201602 | 210121
19 | 46:41.47 | 3:38.70 | 210122 | 226541
20 | 50:20.42 | 3:39.03 | 226542 | 242969
21 | 53:59.45 | 2:28.25 | 242970 | 254094
22 | 56:27.70 | 2:41.17 | 254095 | 266186
23 | 59:09.12 | 2:15.10 | 266187 | 276321
24 | 61:24.22 | 1:53.10 | 276322 | 284806
25 | 63:17.32 | 2:30.60 | 284807 | 296116


Range status and errors

Selected range

Filename C:\Weavers - Greatest Hits.wav

Peak level 69.6 %
Range quality 99.9 %
Copy CRC 6002AE46
Copy OK

No errors occurred


AccurateRip summary

Track 1 accurately ripped (confidence 3) [16C132BB]
Track 2 accurately ripped (confidence 3) [BD2AD5F8]
Track 3 accurately ripped (confidence 3) [A9C5C8AD]
Track 4 accurately ripped (confidence 3) [B3D34AA0]
Track 5 accurately ripped (confidence 3) [45FE5B40]
Track 6 accurately ripped (confidence 3) [7B41C351]
Track 7 accurately ripped (confidence 3) [A8753B5F]
Track 8 accurately ripped (confidence 3) [7719FA09]
Track 9 accurately ripped (confidence 3) [D20045B2]
Track 10 accurately ripped (confidence 3) [11057ACB]
Track 11 accurately ripped (confidence 3) [96B5DD1F]
Track 12 accurately ripped (confidence 3) [E1ABBD04]
Track 13 accurately ripped (confidence 3) [3040F40B]
Track 14 accurately ripped (confidence 3) [5D5E69E9]
Track 15 accurately ripped (confidence 3) [4492E829]
Track 16 accurately ripped (confidence 3) [3A49D849]
Track 17 accurately ripped (confidence 3) [DA113E7E]
Track 18 accurately ripped (confidence 3) [91C098C0]
Track 19 accurately ripped (confidence 3) [86457E65]
Track 20 accurately ripped (confidence 3) [91F5A8DD]
Track 21 accurately ripped (confidence 3) [B18523D4]
Track 22 accurately ripped (confidence 3) [9261631F]
Track 23 accurately ripped (confidence 3) [19645325]
Track 24 accurately ripped (confidence 3) [2A59D4FF]
Track 25 accurately ripped (confidence 3) [09DCBD38]

All tracks accurately ripped

End of status report