Subcategories

Webern - Boulez - Complete Webern (2000, Deutsche Grammophon # 457 637-2) [6x CD BOX] (RE-UP)

Posted By: luckburz
Webern - Boulez - Complete Webern (2000, Deutsche Grammophon # 457 637-2) [6x CD BOX] (RE-UP)

Anton Webern (1883-1945) - Complete Works
Pierre Boulez - Berliner Philharmoniker
EAC+LOG+CUE | FLAC: 1,16 GB | Full Artwork | 5% Recovery Info
Label/Cat#: Deutsche Grammophon # 457 637-2 | Country/Year: Europe 2000
Genre: Classical | Style: Modern

MD5 [X] CUE [X] LOG [X] INFO TEXT [X] ARTWORK [X]

selfrip [X] not my rip []

Webern - Boulez - Complete Webern (2000, Deutsche Grammophon # 457 637-2) [6x CD BOX] (RE-UP)


Exact Audio Copy V1.0 beta 3 from 29. August 2011

EAC extraction logfile from 9. October 2012, 18:04

Pierre Boulez - Berliner Philharmoniker / Webern I

Used drive : PIONEER BD-RW BDR-206 Adapter: 0 ID: 2

Read mode : Secure
Utilize accurate stream : Yes
Defeat audio cache : Yes
Make use of C2 pointers : No

Read offset correction : 667
Overread into Lead-In and Lead-Out : No
Fill up missing offset samples with silence : Yes
Delete leading and trailing silent blocks : No
Null samples used in CRC calculations : Yes
Used interface : Native Win32 interface for Win NT & 2000

Used output format : User Defined Encoder
Selected bitrate : 1024 kBit/s
Quality : High
Add ID3 tag : Yes
Command line compressor : C:\Program Files\FLAC\flac.exe
Additional command line options : -5 -T "Artist=%artist%" -T "Title=%title%" -T "Album=%albumtitle%" -T "Date=%year%" -T "Tracknumber=%tracknr%" -T "Genre=%genre%" %source% -o %dest%


TOC of the extracted CD

Track | Start | Length | Start sector | End sector
––––––––––––––––––––––––––––-
1 | 0:00.33 | 10:13.00 | 33 | 46007
2 | 10:13.33 | 2:53.00 | 46008 | 58982
3 | 13:06.33 | 2:13.00 | 58983 | 68957
4 | 15:19.33 | 0:43.00 | 68958 | 72182
5 | 16:02.33 | 1:28.00 | 72183 | 78782
6 | 17:30.33 | 3:28.00 | 78783 | 94382
7 | 20:58.33 | 1:05.00 | 94383 | 99257
8 | 22:03.33 | 1:30.00 | 99258 | 106007
9 | 23:33.33 | 0:50.00 | 106008 | 109757
10 | 24:23.33 | 4:20.00 | 109758 | 129257
11 | 28:43.33 | 2:22.00 | 129258 | 139907
12 | 31:05.33 | 1:51.00 | 139908 | 148232
13 | 32:56.33 | 7:18.00 | 148233 | 181082
14 | 40:14.33 | 4:28.00 | 181083 | 201182
15 | 44:42.33 | 6:06.00 | 201183 | 228632
16 | 50:48.33 | 16:00.00 | 228633 | 300632


Range status and errors

Selected range

Filename F:\=== VINYL RIPS ===\=== EAC===\X FRESH RIP\Pierre Boulez - Berliner Philharmoniker - Webern I.wav

Peak level 99.9 %
Extraction speed 7.9 X
Range quality 100.0 %
Test CRC 92626F98
Copy CRC 92626F98
Copy OK

No errors occurred


AccurateRip summary

Track 1 accurately ripped (confidence 3) [02F3CD8D] (AR v2)
Track 2 accurately ripped (confidence 3) [00507E9D] (AR v2)
Track 3 accurately ripped (confidence 3) [8517D130] (AR v2)
Track 4 accurately ripped (confidence 3) [4E15274C] (AR v2)
Track 5 accurately ripped (confidence 3) [0E99EED4] (AR v2)
Track 6 accurately ripped (confidence 3) [F1CB1708] (AR v2)
Track 7 accurately ripped (confidence 3) [E818EE65] (AR v2)
Track 8 accurately ripped (confidence 3) [A76DE196] (AR v2)
Track 9 accurately ripped (confidence 3) [C94C7C09] (AR v2)
Track 10 accurately ripped (confidence 3) [24985E85] (AR v2)
Track 11 accurately ripped (confidence 3) [82580CD0] (AR v2)
Track 12 accurately ripped (confidence 3) [6F9C89DD] (AR v2)
Track 13 accurately ripped (confidence 3) [C6CB471D] (AR v2)
Track 14 accurately ripped (confidence 3) [1AA2452D] (AR v2)
Track 15 accurately ripped (confidence 3) [D66B4439] (AR v2)
Track 16 accurately ripped (confidence 3) [46F702A7] (AR v2)

All tracks accurately ripped

End of status report

–– CUETools DB Plugin V2.1.3

[CTDB TOCID: kOQ3w3WXnpp5l627kDkjoACqsyI-] found, Submit result: discs with pregaps not supported in this protocol version
[5b841737] (26/26) Differs in 0 samples @
You can use CUETools to repair this rip.


==== Log checksum CBC9BA97316CC0C73613715E025930A00595056214844710831C5CCBBFFC6F58 ====

Exact Audio Copy V1.0 beta 3 from 29. August 2011

EAC extraction logfile from 9. October 2012, 18:23

Pierre Boulez - Berliner Philharmoniker / Webern II

Used drive : PIONEER BD-RW BDR-206 Adapter: 0 ID: 2

Read mode : Secure
Utilize accurate stream : Yes
Defeat audio cache : Yes
Make use of C2 pointers : No

Read offset correction : 667
Overread into Lead-In and Lead-Out : No
Fill up missing offset samples with silence : Yes
Delete leading and trailing silent blocks : No
Null samples used in CRC calculations : Yes
Used interface : Native Win32 interface for Win NT & 2000

Used output format : User Defined Encoder
Selected bitrate : 1024 kBit/s
Quality : High
Add ID3 tag : Yes
Command line compressor : C:\Program Files\FLAC\flac.exe
Additional command line options : -5 -T "Artist=%artist%" -T "Title=%title%" -T "Album=%albumtitle%" -T "Date=%year%" -T "Tracknumber=%tracknr%" -T "Genre=%genre%" %source% -o %dest%


TOC of the extracted CD

Track | Start | Length | Start sector | End sector
––––––––––––––––––––––––––––-
1 | 0:00.00 | 0:58.00 | 0 | 4349
2 | 0:58.00 | 1:31.00 | 4350 | 11174
3 | 2:29.00 | 1:09.00 | 11175 | 16349
4 | 3:38.00 | 1:02.00 | 16350 | 20999
5 | 4:40.00 | 1:20.00 | 21000 | 26999
6 | 6:00.00 | 1:43.00 | 27000 | 34724
7 | 7:43.00 | 1:39.00 | 34725 | 42149
8 | 9:22.00 | 2:00.00 | 42150 | 51149
9 | 11:22.00 | 6:30.00 | 51150 | 80399
10 | 17:52.00 | 3:14.00 | 80400 | 94949
11 | 21:06.00 | 5:45.00 | 94950 | 120824
12 | 26:51.00 | 2:17.00 | 120825 | 131099
13 | 29:08.00 | 2:19.00 | 131100 | 141524
14 | 31:27.00 | 4:11.00 | 141525 | 160349
15 | 35:38.00 | 7:43.00 | 160350 | 195074
16 | 43:21.00 | 2:08.00 | 195075 | 204674
17 | 45:29.00 | 3:49.00 | 204675 | 221849
18 | 49:18.00 | 2:25.00 | 221850 | 232724
19 | 51:43.00 | 1:12.00 | 232725 | 238124
20 | 52:55.00 | 3:41.00 | 238125 | 254699
21 | 56:36.00 | 2:12.00 | 254700 | 264599


Range status and errors

Selected range

Filename F:\=== VINYL RIPS ===\=== EAC===\X FRESH RIP\Pierre Boulez - Berliner Philharmoniker - Webern II.wav

Peak level 100.0 %
Extraction speed 7.3 X
Range quality 100.0 %
Test CRC 8FF667F3
Copy CRC 8FF667F3
Copy OK

No errors occurred


AccurateRip summary

Track 1 accurately ripped (confidence 3) [DA025916] (AR v2)
Track 2 accurately ripped (confidence 3) [A8991A09] (AR v2)
Track 3 accurately ripped (confidence 3) [1491B441] (AR v2)
Track 4 accurately ripped (confidence 3) [3107D244] (AR v2)
Track 5 accurately ripped (confidence 3) [DFFC8F96] (AR v2)
Track 6 accurately ripped (confidence 3) [9702820B] (AR v2)
Track 7 accurately ripped (confidence 3) [27693788] (AR v2)
Track 8 accurately ripped (confidence 3) [BD0D40D7] (AR v2)
Track 9 accurately ripped (confidence 3) [9156FF21] (AR v2)
Track 10 accurately ripped (confidence 3) [690014C4] (AR v2)
Track 11 accurately ripped (confidence 3) [4CC8D8DA] (AR v2)
Track 12 accurately ripped (confidence 3) [039AD18C] (AR v2)
Track 13 accurately ripped (confidence 3) [0C0E27A2] (AR v2)
Track 14 accurately ripped (confidence 3) [3D1C3431] (AR v2)
Track 15 accurately ripped (confidence 3) [6D86CFB5] (AR v2)
Track 16 accurately ripped (confidence 3) [904DA8F3] (AR v2)
Track 17 accurately ripped (confidence 3) [76C44050] (AR v2)
Track 18 accurately ripped (confidence 3) [EFA29D01] (AR v2)
Track 19 accurately ripped (confidence 3) [E8B7DB0B] (AR v2)
Track 20 accurately ripped (confidence 3) [194EACF4] (AR v2)
Track 21 accurately ripped (confidence 3) [F75A8CAE] (AR v2)

All tracks accurately ripped

End of status report

–– CUETools DB Plugin V2.1.3

[CTDB TOCID: lef5whFC1Tq0NYi3UaH3OM5G6kM-] found, Submit result: lef5whFC1Tq0NYi3UaH3OM5G6kM- has been confirmed
[d0e17359] (30/31) Accurately ripped
[1f25016b] (01/31) No match


==== Log checksum 407198A018BFBC7AEB72CC8FD5115496EF2D23FAE67EAE75D789F80FC0829B83 ====

Exact Audio Copy V1.0 beta 3 from 29. August 2011

EAC extraction logfile from 9. October 2012, 18:44

Pierre Boulez - Berliner Philharmoniker / Webern III

Used drive : PIONEER BD-RW BDR-206 Adapter: 0 ID: 2

Read mode : Secure
Utilize accurate stream : Yes
Defeat audio cache : Yes
Make use of C2 pointers : No

Read offset correction : 667
Overread into Lead-In and Lead-Out : No
Fill up missing offset samples with silence : Yes
Delete leading and trailing silent blocks : No
Null samples used in CRC calculations : Yes
Used interface : Native Win32 interface for Win NT & 2000

Used output format : User Defined Encoder
Selected bitrate : 1024 kBit/s
Quality : High
Add ID3 tag : Yes
Command line compressor : C:\Program Files\FLAC\flac.exe
Additional command line options : -5 -T "Artist=%artist%" -T "Title=%title%" -T "Album=%albumtitle%" -T "Date=%year%" -T "Tracknumber=%tracknr%" -T "Genre=%genre%" %source% -o %dest%


TOC of the extracted CD

Track | Start | Length | Start sector | End sector
––––––––––––––––––––––––––––-
1 | 0:00.33 | 13:15.00 | 33 | 59657
2 | 13:15.33 | 2:48.00 | 59658 | 72257
3 | 16:03.33 | 1:05.00 | 72258 | 77132
4 | 17:08.33 | 1:16.00 | 77133 | 82832
5 | 18:24.33 | 0:44.00 | 82833 | 86132
6 | 19:08.33 | 0:39.00 | 86133 | 89057
7 | 19:47.33 | 1:48.00 | 89058 | 97157
8 | 21:35.33 | 0:29.00 | 97158 | 99332
9 | 22:04.33 | 1:01.00 | 99333 | 103907
10 | 23:05.33 | 2:14.00 | 103908 | 113957
11 | 25:19.33 | 1:30.00 | 113958 | 120707
12 | 26:49.33 | 1:03.00 | 120708 | 125432
13 | 27:52.33 | 2:17.00 | 125433 | 135707
14 | 30:09.33 | 1:42.00 | 135708 | 143357
15 | 31:51.33 | 1:27.00 | 143358 | 149882
16 | 33:18.33 | 1:16.00 | 149883 | 155582
17 | 34:34.33 | 1:35.00 | 155583 | 162707
18 | 36:09.33 | 0:51.00 | 162708 | 166532
19 | 37:00.33 | 1:25.00 | 166533 | 172907
20 | 38:25.33 | 0:59.00 | 172908 | 177332
21 | 39:24.33 | 0:52.00 | 177333 | 181232
22 | 40:16.33 | 0:59.00 | 181233 | 185657
23 | 41:15.33 | 0:59.00 | 185658 | 190082
24 | 42:14.33 | 1:38.00 | 190083 | 197432
25 | 43:52.33 | 0:31.00 | 197433 | 199757
26 | 44:23.33 | 1:05.00 | 199758 | 204632
27 | 45:28.33 | 0:50.00 | 204633 | 208382
28 | 46:18.33 | 0:37.00 | 208383 | 211157
29 | 46:55.33 | 0:31.00 | 211158 | 213482
30 | 47:26.33 | 0:45.00 | 213483 | 216857
31 | 48:11.33 | 1:03.00 | 216858 | 221582
32 | 49:14.33 | 0:53.00 | 221583 | 225557
33 | 50:07.33 | 0:56.00 | 225558 | 229757
34 | 51:03.33 | 1:11.00 | 229758 | 235082
35 | 52:14.33 | 1:29.00 | 235083 | 241757
36 | 53:43.33 | 1:23.00 | 241758 | 247982
37 | 55:06.33 | 1:13.00 | 247983 | 253457
38 | 56:19.33 | 3:09.00 | 253458 | 267632
39 | 59:28.33 | 3:20.00 | 267633 | 282632
40 | 62:48.33 | 2:38.00 | 282633 | 294482
41 | 65:26.33 | 2:35.00 | 294483 | 306107
42 | 68:01.33 | 1:24.00 | 306108 | 312407


Range status and errors

Selected range

Filename F:\=== VINYL RIPS ===\=== EAC===\X FRESH RIP\Pierre Boulez - Berliner Philharmoniker - Webern III.wav

Peak level 96.4 %
Extraction speed 8.0 X
Range quality 100.0 %
Test CRC 22D3B48F
Copy CRC 22D3B48F
Copy OK

No errors occurred


AccurateRip summary

Track 1 accurately ripped (confidence 3) [AF3CE3C1] (AR v2)
Track 2 accurately ripped (confidence 3) [F26B8981] (AR v2)
Track 3 accurately ripped (confidence 3) [6F0BBC87] (AR v2)
Track 4 accurately ripped (confidence 3) [CDBB2635] (AR v2)
Track 5 accurately ripped (confidence 3) [AA5EDC10] (AR v2)
Track 6 accurately ripped (confidence 3) [C24A675D] (AR v2)
Track 7 accurately ripped (confidence 3) [9FCC6BEC] (AR v2)
Track 8 accurately ripped (confidence 3) [8A903AC4] (AR v2)
Track 9 accurately ripped (confidence 3) [7355D8BD] (AR v2)
Track 10 accurately ripped (confidence 3) [123D3B8D] (AR v2)
Track 11 accurately ripped (confidence 3) [7B67A7AA] (AR v2)
Track 12 accurately ripped (confidence 3) [EDD004C6] (AR v2)
Track 13 accurately ripped (confidence 3) [9BB10E2B] (AR v2)
Track 14 accurately ripped (confidence 3) [66F6196B] (AR v2)
Track 15 accurately ripped (confidence 3) [5906B3D0] (AR v2)
Track 16 accurately ripped (confidence 3) [C527AF84] (AR v2)
Track 17 accurately ripped (confidence 3) [46022CB3] (AR v2)
Track 18 accurately ripped (confidence 3) [17AE0E6F] (AR v2)
Track 19 accurately ripped (confidence 3) [AFFCEEE5] (AR v2)
Track 20 accurately ripped (confidence 3) [E75FCEC5] (AR v2)
Track 21 accurately ripped (confidence 3) [19F778E4] (AR v2)
Track 22 accurately ripped (confidence 3) [E605A928] (AR v2)
Track 23 accurately ripped (confidence 3) [838B3D69] (AR v2)
Track 24 accurately ripped (confidence 3) [81CC5233] (AR v2)
Track 25 accurately ripped (confidence 3) [3D2834EC] (AR v2)
Track 26 accurately ripped (confidence 3) [08EB006C] (AR v2)
Track 27 accurately ripped (confidence 3) [F71CD0B6] (AR v2)
Track 28 accurately ripped (confidence 3) [F2F171F2] (AR v2)
Track 29 accurately ripped (confidence 3) [A328E45B] (AR v2)
Track 30 accurately ripped (confidence 3) [8D102F67] (AR v2)
Track 31 accurately ripped (confidence 3) [E4BF79F4] (AR v2)
Track 32 accurately ripped (confidence 3) [F3035CB7] (AR v2)
Track 33 accurately ripped (confidence 3) [5D7F552B] (AR v2)
Track 34 accurately ripped (confidence 3) [66235A4E] (AR v2)
Track 35 accurately ripped (confidence 3) [FF28FA24] (AR v2)
Track 36 accurately ripped (confidence 3) [F340BAD7] (AR v2)
Track 37 accurately ripped (confidence 3) [A7B28D20] (AR v2)
Track 38 accurately ripped (confidence 3) [1AA57F41] (AR v2)
Track 39 accurately ripped (confidence 3) [D94B7B6F] (AR v2)
Track 40 accurately ripped (confidence 3) [C42D2C47] (AR v2)
Track 41 accurately ripped (confidence 3) [CBD3D859] (AR v2)
Track 42 accurately ripped (confidence 3) [1DE45885] (AR v2)

All tracks accurately ripped

End of status report

–– CUETools DB Plugin V2.1.3

[CTDB TOCID: _zZw3Fy8ff.Pdl.TbSW9kBupt0I-] disk not present in database, Submit result: discs with pregaps not supported in this protocol version


==== Log checksum 451E967A54661B7361648830DC4ACBF8568B6ECF4D39993217A03048D5FA99EB ====

Exact Audio Copy V1.0 beta 3 from 29. August 2011

EAC extraction logfile from 9. October 2012, 19:09

Pierre Boulez - Berliner Philharmoniker / Webern IV

Used drive : PIONEER BD-RW BDR-206 Adapter: 0 ID: 2

Read mode : Secure
Utilize accurate stream : Yes
Defeat audio cache : Yes
Make use of C2 pointers : No

Read offset correction : 667
Overread into Lead-In and Lead-Out : No
Fill up missing offset samples with silence : Yes
Delete leading and trailing silent blocks : No
Null samples used in CRC calculations : Yes
Used interface : Native Win32 interface for Win NT & 2000

Used output format : User Defined Encoder
Selected bitrate : 1024 kBit/s
Quality : High
Add ID3 tag : Yes
Command line compressor : C:\Program Files\FLAC\flac.exe
Additional command line options : -5 -T "Artist=%artist%" -T "Title=%title%" -T "Album=%albumtitle%" -T "Date=%year%" -T "Tracknumber=%tracknr%" -T "Genre=%genre%" %source% -o %dest%


TOC of the extracted CD

Track | Start | Length | Start sector | End sector
––––––––––––––––––––––––––––-
1 | 0:00.00 | 1:20.74 | 0 | 6073
2 | 1:20.74 | 2:40.01 | 6074 | 18074
3 | 4:01.00 | 1:58.05 | 18075 | 26929
4 | 5:59.05 | 1:15.20 | 26930 | 32574
5 | 7:14.25 | 2:41.59 | 32575 | 44708
6 | 9:56.09 | 1:28.57 | 44709 | 51365
7 | 11:24.66 | 1:37.25 | 51366 | 58665
8 | 13:02.16 | 2:34.66 | 58666 | 70281
9 | 15:37.07 | 1:11.64 | 70282 | 75670
10 | 16:48.71 | 1:08.12 | 75671 | 80782
11 | 17:57.08 | 3:40.58 | 80783 | 97340
12 | 21:37.66 | 1:27.39 | 97341 | 103904
13 | 23:05.30 | 1:31.51 | 103905 | 110780
14 | 24:37.06 | 1:34.66 | 110781 | 117896
15 | 26:11.72 | 2:19.50 | 117897 | 128371
16 | 28:31.47 | 1:33.66 | 128372 | 135412
17 | 30:05.38 | 2:56.65 | 135413 | 148677
18 | 33:02.28 | 2:36.41 | 148678 | 160418
19 | 35:38.69 | 2:56.48 | 160419 | 173666
20 | 38:35.42 | 1:08.34 | 173667 | 178800
21 | 39:44.01 | 0:40.68 | 178801 | 181868
22 | 40:24.69 | 1:02.02 | 181869 | 186520
23 | 41:26.71 | 1:16.14 | 186521 | 192234
24 | 42:43.10 | 1:36.47 | 192235 | 199481
25 | 44:19.57 | 3:12.43 | 199482 | 213924
26 | 47:32.25 | 1:42.02 | 213925 | 221576
27 | 49:14.27 | 2:03.26 | 221577 | 230827
28 | 51:17.53 | 0:58.48 | 230828 | 235225
29 | 52:16.26 | 1:34.06 | 235226 | 242281
30 | 53:50.32 | 2:44.34 | 242282 | 254615
31 | 56:34.66 | 1:21.37 | 254616 | 260727
32 | 57:56.28 | 1:53.29 | 260728 | 269231
33 | 59:49.57 | 0:59.69 | 269232 | 273725
34 | 60:49.51 | 1:37.17 | 273726 | 281017
35 | 62:26.68 | 1:53.20 | 281018 | 289512
36 | 64:20.13 | 1:57.54 | 289513 | 298341
37 | 66:17.67 | 0:55.17 | 298342 | 302483
38 | 67:13.09 | 3:33.46 | 302484 | 318504
39 | 70:46.55 | 2:02.11 | 318505 | 327665
40 | 72:48.66 | 2:55.14 | 327666 | 340804
41 | 75:44.05 | 1:04.48 | 340805 | 345652
42 | 76:48.53 | 2:04.40 | 345653 | 354992
43 | 78:53.18 | 1:34.54 | 354993 | 362096


Range status and errors

Selected range

Filename F:\=== VINYL RIPS ===\=== EAC===\X FRESH RIP\Pierre Boulez - Berliner Philharmoniker - Webern IV.wav

Peak level 93.1 %
Extraction speed 8.2 X
Range quality 99.9 %
Test CRC 0288EB9F
Copy CRC 0288EB9F
Copy OK

No errors occurred


AccurateRip summary

Track 1 accurately ripped (confidence 4) [238D0F79] (AR v2)
Track 2 accurately ripped (confidence 4) [7A01D8B1] (AR v2)
Track 3 accurately ripped (confidence 4) [F5588F86] (AR v2)
Track 4 accurately ripped (confidence 4) [7B944A18] (AR v2)
Track 5 accurately ripped (confidence 4) [3FE49C14] (AR v2)
Track 6 accurately ripped (confidence 4) [787D5659] (AR v2)
Track 7 accurately ripped (confidence 4) [A196C38A] (AR v2)
Track 8 accurately ripped (confidence 4) [C8CED149] (AR v2)
Track 9 accurately ripped (confidence 4) [79D4DD8B] (AR v2)
Track 10 accurately ripped (confidence 4) [B54D405C] (AR v2)
Track 11 accurately ripped (confidence 4) [226E1AD8] (AR v2)
Track 12 accurately ripped (confidence 4) [F66E27FD] (AR v2)
Track 13 accurately ripped (confidence 4) [F4F7BDAE] (AR v2)
Track 14 accurately ripped (confidence 4) [7B29613D] (AR v2)
Track 15 accurately ripped (confidence 4) [0A1A3B3A] (AR v2)
Track 16 accurately ripped (confidence 4) [E9E3A493] (AR v2)
Track 17 accurately ripped (confidence 4) [57227805] (AR v2)
Track 18 accurately ripped (confidence 4) [85C31568] (AR v2)
Track 19 accurately ripped (confidence 4) [817B1FD1] (AR v2)
Track 20 accurately ripped (confidence 4) [A0BE2F56] (AR v2)
Track 21 accurately ripped (confidence 4) [5C889D22] (AR v2)
Track 22 accurately ripped (confidence 4) [F6B32482] (AR v2)
Track 23 accurately ripped (confidence 4) [DC3D29B6] (AR v2)
Track 24 accurately ripped (confidence 4) [65DD2DC9] (AR v2)
Track 25 accurately ripped (confidence 4) [15BA8CA8] (AR v2)
Track 26 accurately ripped (confidence 4) [8AB99E27] (AR v2)
Track 27 accurately ripped (confidence 4) [3879F186] (AR v2)
Track 28 accurately ripped (confidence 4) [FF409838] (AR v2)
Track 29 accurately ripped (confidence 4) [E7DA8D6B] (AR v2)
Track 30 accurately ripped (confidence 4) [D24385F0] (AR v2)
Track 31 accurately ripped (confidence 4) [B9DEA3EE] (AR v2)
Track 32 accurately ripped (confidence 4) [E3712F0F] (AR v2)
Track 33 accurately ripped (confidence 4) [067D931B] (AR v2)
Track 34 accurately ripped (confidence 4) [6AA44394] (AR v2)
Track 35 accurately ripped (confidence 4) [E0DB7629] (AR v2)
Track 36 accurately ripped (confidence 4) [CCCC3064] (AR v2)
Track 37 accurately ripped (confidence 4) [25704247] (AR v2)
Track 38 accurately ripped (confidence 4) [E17628D0] (AR v2)
Track 39 accurately ripped (confidence 4) [EE6DD3CE] (AR v2)
Track 40 accurately ripped (confidence 4) [49F98871] (AR v2)
Track 41 accurately ripped (confidence 4) [E87216AD] (AR v2)
Track 42 accurately ripped (confidence 4) [D773061F] (AR v2)
Track 43 accurately ripped (confidence 4) [54F659A2] (AR v2)

All tracks accurately ripped

End of status report

–– CUETools DB Plugin V2.1.3

[CTDB TOCID: lRslvhD7d20QhWMblS0_VaQLR5g-] found, Submit result: lRslvhD7d20QhWMblS0_VaQLR5g- has been confirmed
[5e621f9e] (26/27) Accurately ripped
[09774b9a] (01/27) No match


==== Log checksum FE0D971D39403B44E2E32E633C57588AD7874D92543058C4E6D697DFFBBC9264 ====

Exact Audio Copy V1.0 beta 3 from 29. August 2011

EAC extraction logfile from 9. October 2012, 19:31

Pierre Boulez - Emmerson String Quartet / Webern V

Used drive : PIONEER BD-RW BDR-206 Adapter: 0 ID: 2

Read mode : Secure
Utilize accurate stream : Yes
Defeat audio cache : Yes
Make use of C2 pointers : No

Read offset correction : 667
Overread into Lead-In and Lead-Out : No
Fill up missing offset samples with silence : Yes
Delete leading and trailing silent blocks : No
Null samples used in CRC calculations : Yes
Used interface : Native Win32 interface for Win NT & 2000

Used output format : User Defined Encoder
Selected bitrate : 1024 kBit/s
Quality : High
Add ID3 tag : Yes
Command line compressor : C:\Program Files\FLAC\flac.exe
Additional command line options : -5 -T "Artist=%artist%" -T "Title=%title%" -T "Album=%albumtitle%" -T "Date=%year%" -T "Tracknumber=%tracknr%" -T "Genre=%genre%" %source% -o %dest%


TOC of the extracted CD

Track | Start | Length | Start sector | End sector
––––––––––––––––––––––––––––-
1 | 0:00.33 | 9:06.00 | 33 | 40982
2 | 9:06.33 | 2:22.00 | 40983 | 51632
3 | 11:28.33 | 2:30.00 | 51633 | 62882
4 | 13:58.33 | 0:42.00 | 62883 | 66032
5 | 14:40.33 | 1:50.00 | 66033 | 74282
6 | 16:30.33 | 3:38.00 | 74283 | 90632
7 | 20:08.33 | 15:28.00 | 90633 | 160232
8 | 35:36.33 | 0:34.00 | 160233 | 162782
9 | 36:10.33 | 0:27.00 | 162783 | 164807
10 | 36:37.33 | 0:22.00 | 164808 | 166457
11 | 36:59.33 | 0:50.00 | 166458 | 170207
12 | 37:49.33 | 1:14.00 | 170208 | 175757
13 | 39:03.33 | 0:38.00 | 175758 | 178607
14 | 39:41.33 | 6:49.00 | 178608 | 209282
15 | 46:30.33 | 2:07.00 | 209283 | 218807
16 | 48:37.33 | 0:36.00 | 218808 | 221507
17 | 49:13.33 | 1:26.00 | 221508 | 227957
18 | 50:39.33 | 0:36.00 | 227958 | 230657
19 | 51:15.33 | 3:27.00 | 230658 | 246182
20 | 54:42.33 | 5:28.00 | 246183 | 270782
21 | 60:10.33 | 3:49.00 | 270783 | 287957
22 | 63:59.33 | 1:45.00 | 287958 | 295832
23 | 65:44.33 | 2:11.00 | 295833 | 305657


Range status and errors

Selected range

Filename F:\=== VINYL RIPS ===\=== EAC===\X FRESH RIP\Pierre Boulez - Emmerson String Quartet - Webern V.wav

Peak level 98.1 %
Extraction speed 8.0 X
Range quality 100.0 %
Test CRC 263978A9
Copy CRC 263978A9
Copy OK

No errors occurred


AccurateRip summary

Track 1 accurately ripped (confidence 2) [B3FFD0FC] (AR v2)
Track 2 accurately ripped (confidence 2) [535C922E] (AR v2)
Track 3 accurately ripped (confidence 2) [2C2C6F20] (AR v2)
Track 4 accurately ripped (confidence 2) [A8B2734F] (AR v2)
Track 5 accurately ripped (confidence 2) [2E884147] (AR v2)
Track 6 accurately ripped (confidence 2) [EB72A885] (AR v2)
Track 7 accurately ripped (confidence 2) [1C5A3AB8] (AR v2)
Track 8 accurately ripped (confidence 2) [132FE4AB] (AR v2)
Track 9 accurately ripped (confidence 2) [172F7791] (AR v2)
Track 10 accurately ripped (confidence 2) [A890C3E1] (AR v2)
Track 11 accurately ripped (confidence 2) [68838AD3] (AR v2)
Track 12 accurately ripped (confidence 2) [D520B178] (AR v2)
Track 13 accurately ripped (confidence 2) [F1F46D77] (AR v2)
Track 14 accurately ripped (confidence 2) [D818EE9D] (AR v2)
Track 15 accurately ripped (confidence 2) [DA40DEE5] (AR v2)
Track 16 accurately ripped (confidence 2) [BE276DF9] (AR v2)
Track 17 accurately ripped (confidence 2) [BEFCAD01] (AR v2)
Track 18 accurately ripped (confidence 2) [D604A4FF] (AR v2)
Track 19 accurately ripped (confidence 2) [F8D1FF3B] (AR v2)
Track 20 accurately ripped (confidence 2) [50048C57] (AR v2)
Track 21 accurately ripped (confidence 2) [D820CB4F] (AR v2)
Track 22 accurately ripped (confidence 2) [0EBF152A] (AR v2)
Track 23 accurately ripped (confidence 2) [1100C173] (AR v2)

All tracks accurately ripped

End of status report

–– CUETools DB Plugin V2.1.3

[CTDB TOCID: Tm3S1n1VLHjcpzJ7GvAVPficRzM-] disk not present in database, Submit result: discs with pregaps not supported in this protocol version


==== Log checksum 01D97885145B5F055965E91797D33968965E0121B96B2C4DC0529F75B477BB86 ====

Exact Audio Copy V1.0 beta 3 from 29. August 2011

EAC extraction logfile from 9. October 2012, 19:45

Pierre Boulez / Webern VI

Used drive : PIONEER BD-RW BDR-206 Adapter: 0 ID: 2

Read mode : Secure
Utilize accurate stream : Yes
Defeat audio cache : Yes
Make use of C2 pointers : No

Read offset correction : 667
Overread into Lead-In and Lead-Out : No
Fill up missing offset samples with silence : Yes
Delete leading and trailing silent blocks : No
Null samples used in CRC calculations : Yes
Used interface : Native Win32 interface for Win NT & 2000

Used output format : User Defined Encoder
Selected bitrate : 1024 kBit/s
Quality : High
Add ID3 tag : Yes
Command line compressor : C:\Program Files\FLAC\flac.exe
Additional command line options : -5 -T "Artist=%artist%" -T "Title=%title%" -T "Album=%albumtitle%" -T "Date=%year%" -T "Tracknumber=%tracknr%" -T "Genre=%genre%" %source% -o %dest%


TOC of the extracted CD

Track | Start | Length | Start sector | End sector
––––––––––––––––––––––––––––-
1 | 0:00.00 | 2:05.70 | 0 | 9444
2 | 2:05.70 | 3:04.25 | 9445 | 23269
3 | 5:10.20 | 6:06.00 | 23270 | 50719
4 | 11:16.20 | 6:21.40 | 50720 | 79334
5 | 17:37.60 | 0:56.22 | 79335 | 83556
6 | 18:34.07 | 1:30.47 | 83557 | 90353
7 | 20:04.54 | 0:56.74 | 90354 | 94627
8 | 21:01.53 | 1:07.30 | 94628 | 99682
9 | 22:09.08 | 1:09.37 | 99683 | 104894
10 | 23:18.45 | 0:21.32 | 104895 | 106501
11 | 23:40.02 | 1:09.55 | 106502 | 111731
12 | 24:49.57 | 1:48.63 | 111732 | 119894
13 | 26:38.45 | 0:53.50 | 119895 | 123919
14 | 27:32.20 | 1:30.00 | 123920 | 130669
15 | 29:02.20 | 2:01.69 | 130670 | 139813
16 | 31:04.14 | 0:44.47 | 139814 | 143160
17 | 31:48.61 | 4:00.35 | 143161 | 161195


Range status and errors

Selected range

Filename F:\=== VINYL RIPS ===\=== EAC===\X FRESH RIP\Pierre Boulez - Webern VI.wav

Peak level 99.6 %
Extraction speed 6.6 X
Range quality 100.0 %
Test CRC 988D71C1
Copy CRC 988D71C1
Copy OK

No errors occurred


AccurateRip summary

Track 1 accurately ripped (confidence 3) [772DFCAC] (AR v2)
Track 2 accurately ripped (confidence 3) [2F01BE65] (AR v2)
Track 3 accurately ripped (confidence 3) [77372ECB] (AR v2)
Track 4 accurately ripped (confidence 3) [71B71F7B] (AR v2)
Track 5 accurately ripped (confidence 3) [3A2C0D5B] (AR v2)
Track 6 accurately ripped (confidence 3) [7E290632] (AR v2)
Track 7 accurately ripped (confidence 3) [12BE1AAD] (AR v2)
Track 8 accurately ripped (confidence 3) [D62284A7] (AR v2)
Track 9 accurately ripped (confidence 3) [BCD2E524] (AR v2)
Track 10 accurately ripped (confidence 3) [C3A21FAE] (AR v2)
Track 11 accurately ripped (confidence 3) [FBA9A41D] (AR v2)
Track 12 accurately ripped (confidence 3) [E6DB49B2] (AR v2)
Track 13 accurately ripped (confidence 3) [99163FD0] (AR v2)
Track 14 accurately ripped (confidence 3) [F570E859] (AR v2)
Track 15 accurately ripped (confidence 3) [E63683F8] (AR v2)
Track 16 accurately ripped (confidence 3) [738CC5BC] (AR v2)
Track 17 accurately ripped (confidence 3) [CC9D1B54] (AR v2)

All tracks accurately ripped

End of status report

–– CUETools DB Plugin V2.1.3

[CTDB TOCID: N4oqZLvooWV7PWQjvw5zoZ8DGVg-] found, Submit result: N4oqZLvooWV7PWQjvw5zoZ8DGVg- has been confirmed
[62872ecf] (3/3) Accurately ripped


==== Log checksum 26F2CD9F6E3371AB37D0B60AEAF58D33E000185DA01945605921EB0D9B5BAB87 ====

foobar2000 1.1.14a / Dynamic Range Meter 1.1.1
log date: 2013-02-27 05:19:01

––––––––––––––––––––––––––––––––––––––––
Analyzed: Pierre Boulez - Berliner Philharmoniker / Webern I
––––––––––––––––––––––––––––––––––––––––

DR Peak RMS Duration Track
––––––––––––––––––––––––––––––––––––––––
DR14 0.00 dB -20.23 dB 10:13 01-Passacaglia for Orchestra, op.1 (1908)
DR14 -3.24 dB -26.33 dB 2:53 02-5 Movements, op.5 (1909) - 1. Heftig bewegt
DR14 -18.92 dB -40.97 dB 2:13 03-5 Movements, op.5 (1909) - 2. Sehr langsam
DR12 -6.28 dB -25.67 dB 0:43 04-5 Movements, op.5 (1909) - 3. Sehr lebhaft
DR12 -26.67 dB -44.14 dB 1:28 05-5 Movements, op.5 (1909) - 4. Sehr langsam
DR15 -13.37 dB -36.32 dB 3:28 06-5 Movements, op.5 (1909) - 5. In zarter Bewegung
DR12 -12.44 dB -32.84 dB 1:05 07-6 Pieces for Orchestra, op.6 (1909) - 1. Etwas bewegte Achtel
DR15 0.00 dB -23.12 dB 1:30 08-6 Pieces for Orchestra, op.6 (1909) - 2. Bewegt
DR10 -27.40 dB -44.84 dB 0:50 09-6 Pieces for Orchestra, op.6 (1909) - 3. Zart bewegt
DR14 0.00 dB -20.91 dB 4:20 10-6 Pieces for Orchestra, op.6 (1909) - 4. Langsam. Marcia funebre
DR12 -25.23 dB -42.16 dB 2:22 11-6 Pieces for Orchestra, op.6 (1909) - 5. Sehr langsam
DR10 -24.00 dB -41.30 dB 1:51 12-6 Pieces for Orchestra, op.6 (1909) - 6. Zart bewegt
DR14 -6.89 dB -27.11 dB 7:18 13-Bach-Webern: Fuga a 6 voci from 'The Musical Offering' (orch.1934-5) - sehr m…
DR14 -10.93 dB -30.00 dB 4:28 14-Schubert-Webern: German Dances, D820 (orch.1931) - 1. A-flat major
DR15 -6.38 dB -27.40 dB 6:06 15-Schubert-Webern: German Dances, D820 (orch.1931) - 2. B-flat major
DR14 -0.57 dB -23.35 dB 16:00 16-Im Sommerwind, Idyll for Large Orchestra (1904)
––––––––––––––––––––––––––––––––––––––––

Number of tracks: 16
Official DR value: DR13

Samplerate: 44100 Hz
Channels: 2
Bits per sample: 16
Bitrate: 455 kbps
Codec: FLAC
================================================================================

––––––––––––––––––––––––––––––––––––––––
Analyzed: Pierre Boulez - Berliner Philharmoniker / Webern II
––––––––––––––––––––––––––––––––––––––––

DR Peak RMS Duration Track
––––––––––––––––––––––––––––––––––––––––
DR10 -4.55 dB -33.72 dB 0:58 01-5 Orchesterstücke (1913) - 1. Bewegt
DR16 -14.56 dB -37.27 dB 1:31 02-5 Orchesterstücke (1913) - 2. Langsam (sostenuto)
DR13 -0.20 dB -19.03 dB 1:09 03-5 Orchesterstücke (1913) - 3. Sehr bewegte Viertel
DR11 -18.94 dB -39.12 dB 1:02 04-5 Orchesterstücke (1913) - 4. Langsame Viertel
DR7 -0.11 dB -27.24 dB 1:20 05-5 Orchesterstücke (1913) - 5. (Alla breve)
DR13 -15.19 dB -34.44 dB 1:43 06-3 Orchesterlieder (1913-4) - 1. Leise Dürfte: 'Leise Dürfte, Blüten so zart'
DR14 -7.80 dB -28.48 dB 1:39 07-3 Orchesterlieder (1913-4) - 2. Kunfttag III: 'Nun wird es wieder Lenz'
DR14 -12.31 dB -35.21 dB 2:00 08-3 Orchesterlieder (1913-4) - 3. 'O sanftes Glühn der Berge'
DR13 -12.22 dB -32.84 dB 6:30 09-Symphony, op.21 - 1. Ruhig schreitend
DR15 -12.14 dB -33.13 dB 3:14 10-Symphony, op.21 - 2. Variationen
DR16 -6.38 dB -30.44 dB 5:45 11-Das Augenlicht, op.26 - 'Durch Unsre Offnen Augen'
DR17 0.00 dB -28.26 dB 2:17 12-Kantate Nr.1, op.29 - 1. Zündender Lichtblitz des Lebens
DR14 -6.62 dB -26.70 dB 2:19 13-Kantate Nr.1, op.29 - 2. Kleiner Fl'ugel Ahornsamen
DR17 -7.23 dB -31.18 dB 4:11 14-Kantate Nr.1, op.29 - 3. T'onen die seligen Saiten Apolls
DR18 -5.25 dB -32.61 dB 7:43 15-Variationen für Orchester, op.30
DR14 -11.66 dB -33.21 dB 2:08 16-Kantate Nr.2, op.31 - 1. Schweigt auch die Welt
DR15 -12.79 dB -34.13 dB 3:49 17-Kantate Nr.2, op.31 - 2. Sehr tief verhalten innerst Leben
DR13 -2.75 dB -23.34 dB 2:25 18-Kantate Nr.2, op.31 - 3. Schöpfen aus Brunnen des Himmels
DR12 -12.35 dB -31.34 dB 1:12 19-Kantate Nr.2, op.31 - 4. Leichteste Bürden der Bäume
DR16 -6.41 dB -29.54 dB 3:41 20-Kantate Nr.2, op.31 - 5. Freundselig ist das Wort
DR15 -5.86 dB -28.43 dB 2:12 21-Kantate Nr.2, op.31 - 6. Gelockert aus dem Schoße
––––––––––––––––––––––––––––––––––––––––

Number of tracks: 21
Official DR value: DR14

Samplerate: 44100 Hz
Channels: 2
Bits per sample: 16
Bitrate: 404 kbps
Codec: FLAC
================================================================================

––––––––––––––––––––––––––––––––––––––––
Analyzed: Pierre Boulez - Berliner Philharmoniker / Webern III
––––––––––––––––––––––––––––––––––––––––

DR Peak RMS Duration Track
––––––––––––––––––––––––––––––––––––––––
DR14 -0.32 dB -20.99 dB 13:15 01-Quintett für Streicher und Klavier (1907)
DR14 -3.13 dB -24.81 dB 2:48 02-'Entflieht auf leichten Kähnen', op.2
DR11 -2.45 dB -28.39 dB 1:05 03-2 Lieder, op.8 - 1. Du, der ichs nicht sage
DR16 -5.16 dB -27.89 dB 1:16 04-2 Lieder, op.8 - 2. Du machst mich allein
DR7 -16.62 dB -36.09 dB 0:44 05-5 Orchesterstücke, op.10 - 1. Sehr ruhig und zart
DR12 -2.56 dB -23.88 dB 0:39 06-5 Orchesterstücke, op.10 - 2. Lebhaft und zart bewegt
DR10 -16.48 dB -37.66 dB 1:48 07-5 Orchesterstücke, op.10 - 3. Sehr langsam und äußerst ruhig
DR12 -26.46 dB -43.86 dB 0:29 08-5 Orchesterstücke, op.10 - 4. Fließend, äußerst zart
DR14 -2.30 dB -29.37 dB 1:01 09-5 Orchesterstücke, op.10 - 5. Sehr fließend
DR14 -1.57 dB -28.73 dB 2:14 10-4 Lieder, op.13 - 1. Wiese im Park: 'Wie wird mir zeitlos'
DR13 -5.99 dB -26.17 dB 1:30 11-4 Lieder, op.13 - 2. Die Einsame: 'An dunkelblauem Himmel'
DR12 -6.51 dB -27.60 dB 1:03 12-4 Lieder, op.13 - 3. In der Fremde: 'In fremdem Lande lag ich'
DR13 -7.32 dB -31.15 dB 2:17 13-4 Lieder, op.13 - 4. Ein Winterabend: 'Wenn der Schnee ans Fenster fällt'
DR14 -3.53 dB -24.57 dB 1:42 14-6 Lieder, op.14 - 1. Die Sonne: 'Täglich kommt die gelbe Sonne'
DR13 -7.20 dB -25.98 dB 1:27 15-6 Lieder, op.14 - 2. Abendland I: 'Mond, als träte ein Totes'
DR14 -2.51 dB -28.20 dB 1:16 16-6 Lieder, op.14 - 3. Abendland II: 'So leise sind die grünen Wälder'
DR14 -7.68 dB -29.35 dB 1:35 17-6 Lieder, op.14 - 4. Abendland IV: 'Ihr großen Städte steinern aufgebaut'
DR11 -3.02 dB -21.64 dB 0:51 18-6 Lieder, op.14 - 5. Nachts: 'Die Bläue meiner Augen'
DR16 -2.29 dB -27.33 dB 1:25 19-6 Lieder, op.14 - 6. Gesang einer gefangenen Amsel: 'Dunkler Odem im grünen G…
DR11 -6.49 dB -27.67 dB 0:59 20-5 Geistliche Lieder, op.15 - 1. Das Kreuz, das mußt' er tragen
DR13 -4.49 dB -23.76 dB 0:52 21-5 Geistliche Lieder, op.15 - 2. Morgenlied: 'Steht auf, ihr lieben Kinderlein'
DR13 -8.66 dB -27.47 dB 0:59 22-5 Geistliche Lieder, op.15 - 3. In Gottes Namen aufstehn
DR11 -9.22 dB -28.75 dB 0:59 23-5 Geistliche Lieder, op.15 - 4. Mein Weg geht jetzt vorüber
DR14 -8.08 dB -28.23 dB 1:38 24-5 Geistliche Lieder, op.15 - 5. Fahr hin, o Seel', zu deinem Gott
DR12 -6.59 dB -23.93 dB 0:31 25-4 Canons, op.16 - 1. Christus factus est
DR12 -10.93 dB -28.71 dB 1:05 26-4 Canons, op.16 - 2. Dormi Jesu, mater ridet (from Des Knaben Wunderhorn)
DR9 -7.02 dB -29.00 dB 0:50 27-4 Canons, op.16 - 3. Crux fidelis
DR12 -9.84 dB -29.31 dB 0:37 28-4 Canons, op.16 - 4. Asperges me, Domine
DR10 -2.88 dB -22.81 dB 0:31 29-4 Canons, op.16 - 5. Crucem tuam adoramus, Domine
DR13 -4.09 dB -23.92 dB 0:45 30-3 Volkstexte, op.17 - 1. Armer Sünder, du
DR14 -6.37 dB -24.80 dB 1:03 31-3 Volkstexte, op.17 - 2. Liebste Jungfrau, wir sind dein
DR12 -7.16 dB -24.06 dB 0:53 32-3 Volkstexte, op.17 - 3. Heiland, unsre Missetaten
DR14 -2.74 dB -25.11 dB 0:56 33-3 Lieder, op.18 - 1. Schatzerl klein
DR13 -1.77 dB -22.48 dB 1:11 34-3 Lieder, op.18 - 2. Erlösung: 'Mein Kind, sieh an'
DR13 -5.75 dB -26.57 dB 1:29 35-3 Lieder, op.18 - 3. Ave, Regina coelorum
DR14 -4.21 dB -25.24 dB 1:23 36-2 Lieder, op.19 - 1. Weiß wie Lilien
DR14 -6.28 dB -26.74 dB 1:13 37-2 Lieder, op.19 - 2. Ziehn die Schafe
DR15 -12.98 dB -34.20 dB 3:09 38-Quartett, op.22 - 1. Sehr mäßig
DR16 -10.13 dB -30.44 dB 3:20 39-Quartett, op.22 - 2. Sehr schwungvoll
DR16 -4.74 dB -27.44 dB 2:38 40-Konzert, op.24 - 1. Etwaslebhaft
DR14 -15.29 dB -35.49 dB 2:35 41-Konzert, op.24 - 2. Sehr schwungvoll
DR16 -5.96 dB -27.03 dB 1:24 42-Konzert, op.24 - 3. Sehr rasch
––––––––––––––––––––––––––––––––––––––––

Number of tracks: 42
Official DR value: DR13

Samplerate: 44100 Hz
Channels: 2
Bits per sample: 16
Bitrate: 459 kbps
Codec: FLAC
================================================================================

––––––––––––––––––––––––––––––––––––––––
Analyzed: Pierre Boulez - Berliner Philharmoniker / Webern IV
––––––––––––––––––––––––––––––––––––––––

DR Peak RMS Duration Track
––––––––––––––––––––––––––––––––––––––––
DR13 -11.67 dB -31.82 dB 1:21 01-3 Gedichte (1899-1903) - 1. Vorfrühling: 'Leise tritt auf…'
DR12 -3.68 dB -22.51 dB 2:40 02-3 Gedichte (1899-1903) - 2. Nachtgebet der Braut: 'O mein Geliebter'
DR14 -9.60 dB -30.89 dB 1:58 03-3 Gedichte (1899-1903) - 3. Fromm: 'Der Mond scheint auf mein Lager'
DR12 -8.56 dB -29.26 dB 1:15 04-8 Frühe Lieder (1901-4) - 1. Tief von fern: 'Aus des Abends weißen Wogen'
DR15 -7.89 dB -30.30 dB 2:42 05-8 Frühe Lieder (1901-4) - 2. Aufblick: 'Über unsre Liebe hängt eine tiefe Tra…
DR13 -7.38 dB -26.91 dB 1:29 06-8 Frühe Lieder (1901-4) - 3. Blumengruß: 'Der Strauß, den ich gepflücket'
DR9 -7.69 dB -31.34 dB 1:37 07-8 Frühe Lieder (1901-4) - 4. Bild der Liebe: 'Von Wald umgeben'
DR12 -14.63 dB -32.75 dB 2:35 08-8 Frühe Lieder (1901-4) - 5. Sommerabend: 'Du SOmmerabend! Heilig, goldnes Li…
DR10 -4.27 dB -26.80 dB 1:12 09-8 Frühe Lieder (1901-4) - 6. Heiter: 'Mein Herz ist wie ein See so weit'
DR13 -5.85 dB -27.15 dB 1:08 10-8 Frühe Lieder (1901-4) - 7. Der Tod: 'Ach, es ist so dunket in des Todes Kam…
DR15 -0.62 dB -24.29 dB 3:41 11-8 Frühe Lieder (1901-4) - 8. Heimgang in der FrÜhe: 'In der Dämmerung'
DR13 -3.76 dB -22.41 dB 1:28 12-3 Lieder nach Gedichten von F. Avenarius (1903-4) - 1. Gefunden: 'Nun wir uns…
DR13 -9.06 dB -29.62 dB 1:32 13-3 Lieder nach Gedichten von F. Avenarius (1903-4) - 2. Gebet: 'Ertrage du's, …
DR10 -3.35 dB -21.14 dB 1:35 14-3 Lieder nach Gedichten von F. Avenarius (1903-4) - 3. Freunde: 'Schmerze und…
DR11 -6.49 dB -28.66 dB 2:20 15-5 Lieder nach Gedichten von R. Dehmel (1906-8) - 1. Ideale Landschaft: 'Du ha…
DR13 -12.11 dB -31.53 dB 1:34 16-5 Lieder nach Gedichten von R. Dehmel (1906-8) - 2. Am Ufer: 'Die Welt verstu…
DR14 -3.93 dB -25.46 dB 2:57 17-5 Lieder nach Gedichten von R. Dehmel (1906-8) - 3. Himmelfahrt: 'Schwebst du…
DR14 -5.96 dB -28.96 dB 2:37 18-5 Lieder nach Gedichten von R. Dehmel (1906-8) - 4. Nächtliche Scheu: 'Zaghaf…
DR14 -8.25 dB -29.68 dB 2:57 19-5 Lieder nach Gedichten von R. Dehmel (1906-8) - 5. Helle Nacht: 'Weich küßt …
DR12 -13.62 dB -34.27 dB 1:08 20-5 Lieder aus 'Der siebente Ring' von Stefan George, op.3 - 1. Dies ist ein lied
DR9 -1.76 dB -22.53 dB 0:41 21-5 Lieder aus 'Der siebente Ring' von Stefan George, op.3 - 2. Im windes-weben
DR7 -10.40 dB -30.52 dB 1:02 22-5 Lieder aus 'Der siebente Ring' von Stefan George, op.3 - 3. An baches ranft
DR13 -11.13 dB -32.36 dB 1:16 23-5 Lieder aus 'Der siebente Ring' von Stefan George, op.3 - 4. Im morgen-taun
DR10 -9.76 dB -28.91 dB 1:37 24-5 Lieder aus 'Der siebente Ring' von Stefan George, op.3 - 5. Kahl reckt der …
DR12 -8.93 dB -29.90 dB 3:13 25-5 Lieder nach Gedichten von S. George, op.4 - 1. Eingang: 'Welt der gestalten…
DR15 -4.35 dB -27.12 dB 1:42 26-5 Lieder nach Gedichten von S. George, op.4 - 2. Noch zwingt mich treue über …
DR11 -12.57 dB -30.17 dB 2:03 27-5 Lieder nach Gedichten von S. George, op.4 - 3. Ja heil und dank dir
DR11 -16.81 dB -34.68 dB 0:59 28-5 Lieder nach Gedichten von S. George, op.4 - 4. So ich traurig bin
DR15 -8.86 dB -30.34 dB 1:34 29-5 Lieder nach Gedichten von S. George, op.4 - 5. Ihr tratet zu dem herde
DR13 -4.70 dB -26.73 dB 2:44 30-4 Lieder nach Gedichten von S. George (1908-9) - 1. Erwachen aus dem tiefsten…
DR12 -16.38 dB -33.94 dB 1:21 31-4 Lieder nach Gedichten von S. George (1908-9) - 2. Kunfttag I: 'Dem bist du …
DR14 -6.91 dB -27.37 dB 1:53 32-4 Lieder nach Gedichten von S. George (1908-9) - 3. Trauer I: 'So wart bis ic…
DR13 -8.10 dB -26.83 dB 1:00 33-4 Lieder nach Gedichten von S. George (1908-9) - 4. Das lockere saatgefilde l…
DR11 -9.33 dB -28.78 dB 1:37 34-4 Lieder, op.12 - 1. Der Tag ist vergangen
DR12 -10.87 dB -31.77 dB 1:53 35-4 Lieder, op.12 - 2. Die geheimnisvolle Flöte: 'An einem Abend, da die Blumen…
DR13 -4.88 dB -25.23 dB 1:58 36-4 Lieder, op.12 - 3. Schien mir's, als ich sah die Sonne
DR10 -7.04 dB -28.19 dB 0:55 37-4 Lieder, op.12 - 4. Gleich und gleich: 'Ein Blumenglöckchen'
DR14 -1.98 dB -22.51 dB 3:34 38-3 Gesänge aus 'Viae inviae' von Hildegard Jone, op.23 - 1. Das dunkle Herz, d…
DR14 -2.46 dB -22.12 dB 2:02 39-3 Gesänge aus 'Viae inviae' von Hildegard Jone, op.23 - 2. Es stürzt aus Höhe…
DR13 -3.72 dB -25.06 dB 2:55 40-3 Gesänge aus 'Viae inviae' von Hildegard Jone, op.23 - 3. Herr Jesus mein
DR12 -6.88 dB -24.82 dB 1:05 41-3 Lieder nach Gedichten von Hildegard Jone, op.25 - 1. Wie bin ich froh!
DR15 -3.02 dB -26.21 dB 2:05 42-3 Lieder nach Gedichten von Hildegard Jone, op.25 - 2. Des Herzens Pupurvogel…
DR13 -1.92 dB -24.16 dB 1:35 43-3 Lieder nach Gedichten von Hildegard Jone, op.25 - 3. Sterne, Ihr silbernen …
––––––––––––––––––––––––––––––––––––––––

Number of tracks: 43
Official DR value: DR13

Samplerate: 44100 Hz
Channels: 2
Bits per sample: 16
Bitrate: 389 kbps
Codec: FLAC
================================================================================

––––––––––––––––––––––––––––––––––––––––
Analyzed: Pierre Boulez - Emmerson String Quartet / Webern V
––––––––––––––––––––––––––––––––––––––––

DR Peak RMS Duration Track
––––––––––––––––––––––––––––––––––––––––
DR15 -3.94 dB -25.13 dB 9:06 01-Langsamer Satz für Streichquartett (1905): Langsam, mit bewegtem Ausdruck
DR16 -0.17 dB -23.16 dB 2:22 02-Fünf Sätze für Streichquartett (1909) | 1. Heftig bewegt
DR13 -18.94 dB -40.55 dB 2:30 03-Fünf Sätze für Streichquartett (1909) | 2. Sehr langsam
DR15 -0.84 dB -26.06 dB 0:42 04-Fünf Sätze für Streichquartett (1909) | 3. Sehr bewegt
DR14 -27.05 dB -46.70 dB 1:50 05-Fünf Sätze für Streichquartett (1909) | 4. Sehr langsam
DR14 -7.85 dB -34.78 dB 3:38 06-Fünf Sätze für Streichquartett (1909) | 5. In zarter Bewegung
DR15 -1.73 dB -24.98 dB 15:28 07-Streichquartett (1905)
DR16 -5.30 dB -31.47 dB 0:34 08-Six Bagatellen für Streichquartett op. 9 (1911-13) | 1. Mäßig
DR17 -2.41 dB -31.17 dB 0:27 09-Six Bagatellen für Streichquartett op. 9 (1911-13) | 2. Leicht bewegt
DR13 -7.40 dB -29.58 dB 0:22 10-Six Bagatellen für Streichquartett op. 9 (1911-13) | 3. Ziemlich fließend
DR8 -29.01 dB -47.01 dB 0:50 11-Six Bagatellen für Streichquartett op. 9 (1911-13) | 4. Sehr langsam
DR12 -28.55 dB -46.60 dB 1:14 12-Six Bagatellen für Streichquartett op. 9 (1911-13) | 5. Äußerst langsam
DR8 -9.15 dB -35.15 dB 0:38 13-Six Bagatellen für Streichquartett op. 9 (1911-13) | 6. Fließend
DR14 -3.19 dB -23.69 dB 6:49 14-Rondo für Streichquartett (1906): Bewegt
DR17 -12.50 dB -35.82 dB 2:07 15-Satz für Streichtrio op. post. (1925): Ruhig fließend
DR12 -10.73 dB -31.81 dB 0:36 16-Drei Stücke für Streichquartett (1913) | 1. Bewegt
DR13 -8.00 dB -30.89 dB 1:26 17-Drei Stücke für Streichquartett (1913) | 2. Langsam
DR11 -9.66 dB -32.38 dB 0:36 18-Drei Stücke für Streichquartett (1913) | 3. Nicht zu langsam
DR17 -3.11 dB -31.59 dB 3:27 19-Streichtrio op. 20 (1926-27) | 1. Sehr langsam
DR16 -1.73 dB -24.36 dB 5:28 20-Streichtrio op. 20 (1926-27) | 2. Sehr getragen und ausdrucksvoll
DR16 -2.00 dB -24.34 dB 3:49 21-Streichquartett op. 28 (1936-38) | 1. Mäßig
DR16 -6.88 dB -28.20 dB 1:45 22-Streichquartett op. 28 (1936-38) | 2. Gemächlich - Bewegt
DR16 -3.36 dB -25.05 dB 2:11 23-Streichquartett op. 28 (1936-38) | 3. Sehr fließend
––––––––––––––––––––––––––––––––––––––––

Number of tracks: 23
Official DR value: DR14

Samplerate: 44100 Hz
Channels: 2
Bits per sample: 16
Bitrate: 511 kbps
Codec: FLAC
================================================================================

––––––––––––––––––––––––––––––––––––––––
Analyzed: Pierre Boulez / Webern VI
––––––––––––––––––––––––––––––––––––––––

DR Peak RMS Duration Track
––––––––––––––––––––––––––––––––––––––––
DR13 -2.95 dB -23.58 dB 2:06 01-2 Stücke für Violoncello und Klavier (1899) - 1. Langsam
DR14 -6.36 dB -27.64 dB 3:04 02-2 Stücke für Violoncello und Klavier (1899) - 2. Langsam
DR14 -2.74 dB -21.98 dB 6:06 03-Satz für Klavier (~1906)
DR15 -0.03 dB -20.61 dB 6:22 04-Sonatensatz (Rondo) für Klavier (~1906)
DR10 -20.87 dB -41.18 dB 0:56 05-4 Stücke füre Violine und Klavier, op.7 (1910) - 1. Sehr langsam
DR15 -0.65 dB -22.71 dB 1:31 06-4 Stücke füre Violine und Klavier, op.7 (1910) - 2. Rasch
DR12 -29.64 dB -48.05 dB 0:57 07-4 Stücke füre Violine und Klavier, op.7 (1910) - 3. Sehr langsam
DR17 -6.53 dB -31.43 dB 1:07 08-4 Stücke füre Violine und Klavier, op.7 (1910) - 4. Bewegt
DR6 -4.07 dB -33.21 dB 1:09 09-3 Kleine Stücke für Violoncello und Klavier, op.11 (1914) - 1. Mäßig
DR12 -2.95 dB -17.85 dB 0:21 10-3 Kleine Stücke für Violoncello und Klavier, op.11 (1914) - 2. Sehr bewegt
DR15 -7.20 dB -32.84 dB 1:10 11-3 Kleine Stücke für Violoncello und Klavier, op.11 (1914) - 3. Äußerst ruhig
DR14 -2.95 dB -20.72 dB 1:49 12-Cello-Sonate (1914)
DR13 -13.92 dB -35.75 dB 0:54 13-Kinderstück für Klavier (1924)
DR12 -3.63 dB -26.55 dB 1:30 14-Klavierstück (1925)
DR15 -4.30 dB -27.60 dB 2:02 15-Variationen für Klavier, op.27 (1935-6) - 1. Sehr mäßig
DR15 -4.47 dB -22.21 dB 0:45 16-Variationen für Klavier, op.27 (1935-6) - 2. Sehr schnell
DR16 -3.57 dB -26.43 dB 4:00 17-Variationen für Klavier, op.27 (1935-6) - 3. Ruhig fließend
––––––––––––––––––––––––––––––––––––––––

Number of tracks: 17
Official DR value: DR13

Samplerate: 44100 Hz
Channels: 2
Bits per sample: 16
Bitrate: 396 kbps
Codec: FLAC
================================================================================



CD Info:

Anton Webern (1883-1945) - Complete Works

Pierre Boulez - Berliner Philharmoniker

Label: Deutsche Grammophon
Catalog#: 457 637-2
Format: 6x CD, Album
Country: Europe
Released: 2000
Genre: Classical
Style: Modern

Tracklist:

Passacaglia For Orchestra Op. 1
1-01 Sehr Mäßig, Tempo I - Mäßig Bewegt, Tempo II - Sehr Lebhaft, Tempo III 10:04
5 Movements Op. 5 - Version For String Orchestra (10:36)
1-02 I. Heftig Bewegt 2:53
1-03 II. Sehr Langsam 2:13
1-04 III. Sehr Lebhaft 0:43
1-05 IV. Sehr Langsam 1:28
1-06 V. In Zarter Bewegung 3:19
6 Pieces For Orchestra Op. 6 (11:48)
1-07 I. Etwas Bewegte Achtel 1:05
1-08 II. Bewegt 1:30
1-09 III. Zart Bewegt 0:50
1-10 IV. Langsam. Marcia Funebre 4:20
1-11 V. Sehr Langsam 2:22
1-12 VI. Zart Bewegt 1:41
J. S. Bach: Fuga (Ricercata) A 6 Voci - From "The Musical Offering"
1-13 Sehr Mäßig 7:11
Franz Schubert: German Dances Op. Post. D 820 (10:25)
1-14 No. 1 - No. 2 (No. 1) - No. 3 (No. 1) In A Flat Major 4:28
1-15 No. 4 - No. 5 (No. 4) - No. 6 (No. 4) In B Flat Major 5:57
Im Sommerwind - Idyll For Large Orchestra
1-16 Ruhig Bewegt - Ruhig - Lustig - Schnell - Feierlich Bewegt - Voll Schwung - Aufjauchzend - Sehr Ruhig Und Weihevoll 16:00
5 Pieces For Orchestra (5:54)
2-01 I. Bewegt 0:58
2-02 II. Langsam (Sostenuto) 1:31
2-03 III. Sehr Bewegte Viertel 1:09
2-04 IV. Langsame Viertel 1:02
2-05 V. (Alla Breve) 1:14
3 Orchestral Songs (5:15)
2-06 I. Leise Düfte: "Leise Düfte, Blüten So Zart" 1:43
2-07 II. Kunfttag III: "Nun Wird Es Wieder Lenz" 1:39
2-08 III. "O Sanftes Glühn Der Berge" 1:53
Symphony Op. 21 (9:38)
2-09 I. Ruhig Schreitend 6:30
2-10 II. Variationen: Thema. Sehr Ruhig - Var. I. Lebhafter - Var. II. Sehr Lebhaft - Var. III. Wieder Mäßiger - Var. IV. Äußerst Ruhig - Var. V. Sehr Lebhaft - Var. VI. Marschmäßig. Nicht Eilen - Var. VII. Etwas Breiter - Coda 3:08
Das Augenlicht Op. 26 - For Mixed Chorus And Orchestra
2-11 "Durch Unsre Offnen Augen" - Langsam 5:38
Cantata No. 1 Op. 29 - For Soprano Solo, Mixed Chorus And Orchestra (8:41)
2-12 I. "Zündender Lichtblitz Des Lebens" - Getragen - Lebhaft 2:17
2-13 II. "Kleiner Flügel Ahornsamen" - Leicht Bewegt 2:19
2-14 III. "Tönen Die Seligen Saiten Apolls" - Ruhig 4:05
Variations For Orchestra Op. 30
2-15 Variations For Orchestra Op. 30 7:37
Cantata No. 2 Op. 31 - For Soprano Solo, Bass Solo, Mixed Chorus And Orchestra (15:27)
2-16 I. "Schweigt Auch Die Welt" - Sehr Lebhaft - Ruhig 2:08
2-17 II. "Sehr Tief Verhalten Innerst Leben" - Sehr Verhalten 3:49
2-18 III. "Schöpfen Aus Brunnen Des Himmels" - Sehr Bewegt 2:25
2-19 IV. "Leichteste Bürden Der Bäume" - Sehr Lebhaft 1:12
2-20 V. "Freundselig Ist Das Wort" - Sehr Mäßig 3:41
2-21 VI. "Gelockert Aus Dem Schoße" - Sehr Fließend 2:12
Piano Quintet
3-01 Moderato 13:11
"Entflieht Auf Leichten Kähnen" Op. 2 - For Mixed Choir
3-02 Zart Bewegt 2:43
2 Lieder Op. 8 - For Voice And Eight Instruments (2:19)
3-03 I. "Du, Der Ichs Nicht Sage" - Langsam 1:05
3-04 II. "Du Machst Mich Allein" - Sehr Langsam 1:14
5 Pieces For Orchestra Op. 10 (4:36)
3-05 I. Sehr Ruhig Und Zart 0:44
3-06 II. Lebhaft Und Zart Bewegt 0:39
3-07 III. Sehr Langsam Und Äußerst Ruhig 1:48
3-08 IV. Fließend, Äußerst Zart 0:29
3-09 V. Sehr Fließend 0:56
4 Lieder Op. 13 - For Voice And Orchestra (7:03)
3-10 I. Wiese Im Park: "Wie Wird Mir Zeitlos" - Sehr Ruhig 2:14
3-11 II. Die Einsame: "An Dunkelblauem Himmel" - Bewegt 1:30
3-12 III. In Der Fremde: "In Fremden Lande Lag Ich" - Fließend 1:03
3-13 IV. Ein Winterabend: "Wenn Der Schnee Ans Fenster Fällt" - Sehr Ruhig 2:16
6 Lieder Op. 14 - For Voice, Clarinet, Bass Clarinet, Violin And Cello (8:12)
3-14 I. Die Sonne: "Täglich Kommt Die Gelbe Sonne" - Ruhig Fließend 1:42
3-15 II. Abendland I: "Mond, Als Träte Ein Totes" - Sehr Lebhaft 1:27
3-16 III. Abendland II: "So Leise Sind Die Grünen Wälder" - Langsam 1:16
3-17 IV. Abendland IV: "Ihr Großen Städte Steinern Aufgebaut" - Langsam 1:35
3-18 V. Nachts: "Die Bläue Meiner Augen" - Sehr Lebhaft 0:51
3-19 VI. Gesang Einer Gefangenen Amsel: "Dunkler Odem Im Grünen Gezweig" - Sehr Fließende Achtel 1:21
5 Sacred Songs Op. 15 - For Voice, Flute, Clarinet, Bass Clarinet, Trumpet, Harp, Violin And Viola (5:25)
3-20 I. "Das Kreuz, Das Mußt' Er Tragen" - Getragen 0:59
3-21 II. Morgenlied: "Steht Auf, Ihr Lieben Kinderlein" From "Des Knaben Wunderhorn" - Zart Bewegt 0:52
3-22 III. "In Gottes Namen Aufstehn" - Gemächlich 0:59
3-23 IV. "Mein Weg Geht Jetzt Vorüber" - Sehr Ruhig 0:59
3-24 V. "Fahr Hin, O Seel', Zu Deinem Gott" - Doppelcanon In Motu Contrario: Fließend 1:36
5 Canons Op. 16 - For High Soprano, Clarinet And Bass Clarinet (3:32)
3-25 I. "Christus Factus Est" - Rasch 0:31
3-26 II. "Dormi Jesu, Mater Ridet" From "Des Knaben Wunderhorn" - Ruhig 1:05
3-27 III. "Crux Fidelis" - Langsam 0:50
3-28 IV. "Asperges Me, Domine" - Sehr Lebhaft 0:37
3-29 V. "Crucem Tuam Adoramus, Domine" - Bewegt 0:29
3 Traditional Rhymes Op. 17 - For Voice, Violin, Viola, Clarinet And Bass Clarinet (2:37)
3-30 I. "Armer Sünder, Du" - Gemächlich 0:45
3-31 II. "Liebste Jungfrau, Wir Sind Dein" - Fließend 1:03
3-32 III. "Heiland, Unsre Missetaten" - Langsam 0:49
3 Lieder For Voice, E Flat Clarinet And Guitar Op. 18 (3:28)
3-33 I. "Schatzerl Klein" - Sehr Ruhig 0:45
3-34 II. Erlösung: "Mein Kind, Sieh An" From "Des Knaben Wunderhorn" - Sehr Bewegt 1:03
3-35 III. "Ave, Regina Coelorum" - Langsam 0:49
2 Lieder Op. 19 For Mixed Choir - Accompanied By Celesta, Guitar, Violin, Clarinet And Bass Clarinet (2:24)
3-36 I. "Weiß Wie Lilien" - Lebhaft, Leicht Und Frei 1:23
3-37 II. "Ziehn Die Schafe" - Sehr Gemächlich 1:01
Quartet Op. 22 - For Violin, Clarinet, Tenor Saxophone And Piano (6:18)
3-38 I. Sehr Mäßig 3:09
3-39 II. Sehr Schwungvoll 3:09
Concerto Op. 24 - For Flute, Oboe, Clarinet, Horn, Trumpet, Trombone, Violin, Viola And Piano (6:37)
3-40 I. Etwas Lebhaft 2:38
3-41 II. Sehr Schwungvoll 2:35
3-42 III. Sehr Rasch 1:24
3 Poems (5:56)
4-01 I. Vorfrühling: "Leise Tritt Auf …" 1:21
4-02 II. Nachtgebet Der Braut: "O Mein Geliebter" 2:40
4-03 III. Fromm: "Der Mond Scheint Auf Mein Lager" 1:55
8 Early Lieder (15:33)
4-04 I. Tief Von Fern: "Aus Des Abends Weißen Wogen" 1:15
4-05 II. Aufblick: "Über Unsre Liebe Hängt Eine Tiefe Trauerweide" 2:42
4-06 III. Blumengruß: "Der Strauß, Den Ich Gepflücket" 1:29
4-07 IV. Bild Der Liebe: "Von Wald Umgeben" 1:37
4-08 V. Sommerabend: "Du Sommerabend! Heilig, Goldnes Licht!" 2:35
4-09 VI. Heiter: "Mein Herz Ist Wie Ein See So Weit" 1:12
4-10 VII. Der Tod: "Ach, Es Ist So Dunkel In Des Todes Kammer" 1:08
4-11 VIII. Heimgang In Der Frühe: "In Der Dämmerung" 3:35
3 Lieder On Poems By Ferdinand Avenarius (4:31)
4-12 I. Gefunden: "Nun Wir Uns Lieben, Rauscht Mein Stolzes Glück" 1:28
4-13 II. Gebet: "Ertrage Du's, Laß Schneiden Dir Den Schmerz" 1:32
4-14 III. Freunde: "Schmerze Und Freuden Reift Jede Stunde" 1:31
5 Lieder On Poems By Richard Dehmel (12:20)
4-15 I. Ideale Landschaft: "Du Hattest Einen Glanz Auf Deiner Stirn" 2:20
4-16 II. Am Ufer: "Die Welt Verstummt, Dein Blut Erklingt" 1:34
4-17 III. Himmelfahrt: "Schwebst Du Nieder Aus Den Weiten" 2:57
4-18 IV. Nächtliche Scheu: "Zaghaft Vom Gewölk Ins Land" 2:37
4-19 V. Helle Nacht: "Weich Küßt Die Zweige Der Weiße Mond" 2:52
5 Lieder From "Der Siebente Ring" By Stefan George Op. 3 (5:40)
4-20 I. "Dies Ist Ein Lied" 1:08
4-21 II. "Im Windes-Weben" 0:41
4-22 III. "An Baches Ranft" 1:02
4-23 IV. "Im Morgen-Taun" 1:16
4-24 V. "Kahl Reckt Der Baum" 1:33
5 Lieder On Poems By Stefan George Op. 4 (9:27)
4-25 I. Eingang: "Welt Der Gestalten Lang Lebewohl!" 3:13
4-26 II. "Noch Zwingt Mich Treue Über Dir Zu Wachen" 1:42
4-27 III. "Ja Heil Und Dank Dir" 2:03
4-28 IV. "So Ich Traurig Bin" 0:59
4-29 V. "Ihr Tratet Zu Dem Herde" 1:30
4 Lieder On Poems By Stefan George (6:56)
4-30 I. "Erwachen Aus Dem Tiefsten Traumes-Schooße" 2:44
4-31 II. Kunfttag I: "Dem Bist Du Kind, Dem Freund" 1:22
4-32 III. Trauer I: "So Wart Bis Ich Dies Dir Noch Künde" 1:53
4-33 IV. "Das Lockere Saatgefilde Lechzet Krank" 0:57
4 Lieder Op. 12 (6:20)
4-34 I. "Der Tag Ist Vergangen" 1:37
4-35 II. Die Geheimnisvolle Flöte: "An Einem Abend, Da Die Blumen Dufteten" 1:53
4-36 III. "Schien Mir's, Als Ich Sah Die Sonne" 1:58
4-37 IV. Gleich Und Gleich: "Ein Blumenglöckchen" 0:52
3 Songs From "Viae Inviae" By Hildegard Jone Op. 23 (8:24)
4-38 I. "Das Dunkle Herz, Das In Sich Lauscht" 3:34
4-39 II. "Es Stürzt Aus Höhen Frische" 2:02
4-40 III. "Herr Jesus Mein" 2:48
3 Lieder On Poems By Hildegard Jone Op. 25 (4:45)
4-41 I. "Wie Bin Ich Froh!" 1:05
4-42 II. "Des Herzens Purpurvogel Fliegt Durch Nacht" 2:05
4-43 III. "Sterne, Ihr Silbernen Bienen Der Nacht" 1:35
Slow Movement For String Quartet
5-01 Langsam, Mit Bewegtem Ausdruck 9:02
5 Movements For String Quartet (10:56)
5-02 I. Heftig Bewegt 2:22
5-03 II. Sehr Langsam 2:30
5-04 III. Sehr Bewegt 0:42
5-05 IV. Sehr Langsam 1:50
5-06 V. In Zarter Bewegung 3:32
String Quartet
5-07 Düster Und Schwer - Mit Großem Schwung - Sehr Schnell Und Stark - Langsam - Sehr Langsam - Sehr Ausdrucksvoll Und Sehr Lebhaft - Mit Größter Wärme - Mit Größter Macht - Sehr Breit - Mit Innigstem Und Ganz Zartem Ausdruck - Zart Bewegt - Sehr Langsam 15:22
6 Bagatelles For String Quartet Op. 9 (3:59)
5-08 I. Mäßig 0:34
5-09 II. Leicht Bewegt 0:27
5-10 III. Ziemlich Fließend 0:22
5-11 IV. Sehr Langsam 0:50
5-12 V. Äußerst Langsam 1:14
5-13 VI. Fließend 0:32
Rondo For String Quartet
5-14 Bewegt 6:44
Movement For String Trio Op. Post.
5-15 Ruhig Fließend 2:02
3 Pieces For String Quartet (2:32)
5-16 I. Bewegt 0:36
5-17 II. Langsam: Schmerz Immer - Blick Nach Oben - Himmelstau - Erinnerung - Schwarze Blüten - Auf Herz - Aus Mutter. 1:26
5-18 III. Nicht Zu Langsam 0:30
String Trio Op. 20 (8:49)
5-19 I. Sehr Langsam 3:27
5-20 II. Sehr Getragen Und Ausdrucksvoll 5:22
String Quartet Op. 28 (7:45)
5-21 I. Mäßig 3:49
5-22 II. Gemächlich - Bewegt 1:45
5-23 III. Sehr Fließend 2:11
2 Pieces For Cello And Piano (5:05)
6-01 I. Langsam 2:05
6-02 II. Langsam 3:00
Movement For Piano
6-03 Lebhaft 6:02
Sonata Movement (Rondo) For Piano
6-04 (Bewegt) - Ruhig Bewegt - Sehr Ruhig 6:18
4 Pieces For Violin And Piano Op. 7 (4:27)
6-05 I. Sehr Langsam 0:57
6-06 II. Rasch 1:31
6-07 III. Sehr Langsam 0:57
6-08 IV. Bewegt 1:02
3 Little Pieces For Cello And Piano Op. 11 (2:34)
6-09 I. Mäßige ? 1:10
6-10 II. Sehr Bewegt 0:22
6-11 III. Äußerst Ruhig 1:02
Cello Sonata
6-12 Sehr Bewegt 1:43
Kinderstück Für Klavier
6-13 Lieblich 0:48
Piano Piece
6-14 Im Tempo Eines Menuetts 1:24
Variations For Piano Op. 27 (6:41)
6-15 I. Sehr Mäßig 2:02
6-16 II. Sehr Schnell 0:45
6-17 III. Ruhig Fließend 4:00


Notes:


Box: Complete Webern - 457 637-2
G|X6
? 1995 / 1996 / 1997 / 2000 Deutsche Grammophon GmbH, Hamburg
Printed and Made in Germany
UN 793

Webern 1: Orchestral Works - 66'48 - 457 638-2
G|X
? 1995 Deutsche Grammophon GmbH, Hamburg, a Universal Music company
Printed in Germany by Neef, Wittingen
Made in Germany by EDC

Webern 2: Orchestral And Vocal Works - 58'48 - 457 639-2
G|X
? 1996 Deutsche Grammophon GmbH, Hamburg, a Universal Music company
Printed in Germany by Neef, Wittingen
Made in Germany by EDC

Webern 3: Vocal And Instrumental Works - 69'25 - 457 640-2
G|X
? 1995 Deutsche Grammophon GmbH, Hamburg, a Universal Music company
Printed in Germany by Neef, Wittingen
Made in Germany by EDC

Webern 4: Lieder - 80'25 - 457 641-2
G|X
? 1, 2, 4-10: 1995 / 3: 2000 Deutsche Grammophon GmbH, Hamburg, a Universal Music company
Printed in Germany by Neef, Wittingen
Made in Germany by Universal M & L

Webern 5: String Quartets And Trios - 67'55 - 457 642-2
G|X
? 1995 Deutsche Grammophon GmbH, Hamburg, a Universal Music company
Printed in Germany by Neef, Wittingen
Made in Germany by Universal M & L

Webern 6: Works For Piano • Violin • Cello - 35'49 - 457 643-2
G|X
? 1, 4-6: 1995 / 2, 3: 1997 / 7-9: 2000 Deutsche Grammophon GmbH, Hamburg, a Universal Music company
Printed in Germany by Neef, Wittingen
Made in Germany by EDC

204 page booklet in German, English, French

Webern - Boulez - Complete Webern (2000, Deutsche Grammophon # 457 637-2) [6x CD BOX] (RE-UP)


Those who are familiar with Pierre Boulez's earlier "Complete Webern" on Sony will notice that his new Deutsche Grammophon edition contains six discs to Sony's three. That's because Sony only included works for which Webern assigned opus numbers, plus the composer's Schubert and Bach arrangements. DG fleshes out the picture with all of Webern's posthumously published music, mostly dating from his apprentice years. Virtually all of these recordings already have been available. Discs one through three are given over to orchestral, choral, and chamber works with Boulez leading the Berlin Philharmonic, BBC Singers, and the Ensemble Intercontemporain. Soprano Christiane Oelze's survey of Webern's lieder with voice and piano occupies disc four, with the addition of three unreleased songs set to poems by Ferdinand Avenarius. On disc five, the Emerson Quartet plays all the string trio and quartet works. The final disc brings together the cello and piano music, the four pieces Op. 7 for violin and piano, and the piano works. Gianluca Cascioli's traversals of both 1906 movements for piano were previously released, while Krystian Zimerman recorded two tiny pieces and the Op. 27 Piano Variations especially for this collection.
We first encounter Webern writing music in a style that resembles Brahms with a little Grieg mixed in for good measure. Soon his harmonic palette blossoms with chromatic complexity and takes a refined turn during studies with Arnold Schoenberg. Finally, Webern's singular voice emerges by way of pocket pieces whose ascetic contours sport asymmetrical rhythms, canonic lines that leapfrog from instrument to instrument, and rigorously organized pitches. There's no filler, no fat, and every note counts.
Sometimes it's hard to grasp such fleeting, fragile, and texturally exposed music in a single hearing. When I hear a Webern work in concert, for instance, it's usually over before it begins. Imagine passing a Joan Miró painting while riding a bicycle and you'll understand what I mean. You need to find quiet listening space and know that you can play a movement or even a whole piece more than once.
Performing Webern well demands the utmost in precision and concentration, yet without negating the music's passionate undercurrents. Boulez has lived with this music a long time, and the refinement of his latest interpretations beggar description. The sonic advantages of the DG recordings play no small part, in that fine-tuned dyanmic adjustments at quiet levels can be heard with no compromise. The conductor's tempos have broadened since his 1967-72 recordings in the aforementioned Sony set, and instrumental balances are smoother, more blended than before. Yet the ferocity and edginess of the earlier versions haven't been superceded. Nor is the elemental force and dynamism of Dohnanyi's superb Cleveland Webern readings surpassed here.
No qualms, though, concerning Christiane Oelze, who negotiates Webern's treacherous, leaping lines as if they were nursery rhymes. Similarly, the Emersons leave no little detail unscrutinized, and make a lean contrast to the more opulent, aristocratic Quartetto Italiano Webern recordings from the 1970s. I'm sorry the not-so-famous Cascioli wasn't brought back to record the piano works assigned to the better-known Zimerman, whose mincing, overwrought Variations lack the grace and eloquence of Peter Serkin's recent Koch version.
An excellent booklet includes an introduction by Boulez, numerous photos of Webern at work and play, an informative essay by Paul Griffiths, a comprehensive Webern timeline, and complete texts and translations. Whatever reservations one might harbor about this or that individual performance, it is unlikely that this set as a whole will be surpassed in the near future. It belongs in every serious music library, private or public. [9/9/2000]
–Jed Distler, ClassicsToday.com

Webern - Boulez - Complete Webern (2000, Deutsche Grammophon # 457 637-2) [6x CD BOX] (RE-UP)


// all of my uploads \\

===