Subcategories

Egon Wellesz - Margarete Babinsky - Das Klavierwerk / The Piano Works [Capriccio 67181] {2006, 3CD}

Posted By: luckburz
Egon Wellesz - Margarete Babinsky - Das Klavierwerk / The Piano Works [Capriccio 67181] {2006, 3CD}

Egon Wellesz - Margarete Babinsky - Das Klavierwerk / The Piano Works
EAC+LOG+CUE | FLAC: 525 MB | Full Artwork | 5% Recovery Info
Label/Cat#: Capriccio # 67181 | Country/Year: Germany 2006
Genre: Classical | Style: Contemporary

MD5 [X] CUE [X] LOG [X] INFO TEXT [X] ARTWORK [X]

selfrip [X] not my rip []

Egon Wellesz - Margarete Babinsky - Das Klavierwerk / The Piano Works [Capriccio 67181] {2006, 3CD}


Exact Audio Copy V1.0 beta 3 from 29. August 2011

EAC extraction logfile from 3. September 2012, 13:22

Margarete Babinsky / Egon Wellesz - Das Klavierwerk - CD 1

Used drive : PIONEER BD-RW BDR-206 Adapter: 0 ID: 2

Read mode : Secure
Utilize accurate stream : Yes
Defeat audio cache : Yes
Make use of C2 pointers : No

Read offset correction : 667
Overread into Lead-In and Lead-Out : No
Fill up missing offset samples with silence : Yes
Delete leading and trailing silent blocks : No
Null samples used in CRC calculations : Yes
Used interface : Native Win32 interface for Win NT & 2000

Used output format : User Defined Encoder
Selected bitrate : 1024 kBit/s
Quality : High
Add ID3 tag : Yes
Command line compressor : C:\Program Files\FLAC\flac.exe
Additional command line options : -5 -T "Artist=%artist%" -T "Title=%title%" -T "Album=%albumtitle%" -T "Date=%year%" -T "Tracknumber=%tracknr%" -T "Genre=%genre%" %source% -o %dest%


TOC of the extracted CD

Track | Start | Length | Start sector | End sector
––––––––––––––––––––––––––––-
1 | 0:00.00 | 3:31.43 | 0 | 15867
2 | 3:31.43 | 7:56.66 | 15868 | 51633
3 | 11:28.34 | 5:07.26 | 51634 | 74684
4 | 16:35.60 | 3:29.03 | 74685 | 90362
5 | 20:04.63 | 1:27.01 | 90363 | 96888
6 | 21:31.64 | 1:03.16 | 96889 | 101629
7 | 22:35.05 | 1:47.58 | 101630 | 109712
8 | 24:22.63 | 1:18.21 | 109713 | 115583
9 | 25:41.09 | 2:22.45 | 115584 | 126278
10 | 28:03.54 | 6:52.09 | 126279 | 157187
11 | 34:55.63 | 2:12.05 | 157188 | 167092
12 | 37:07.68 | 2:45.16 | 167093 | 179483
13 | 39:53.09 | 2:44.54 | 179484 | 191837
14 | 42:37.63 | 3:17.54 | 191838 | 206666
15 | 45:55.42 | 2:09.48 | 206667 | 216389
16 | 48:05.15 | 2:03.34 | 216390 | 225648
17 | 50:08.49 | 4:09.14 | 225649 | 244337
18 | 54:17.63 | 0:57.02 | 244338 | 248614
19 | 55:14.65 | 1:14.30 | 248615 | 254194
20 | 56:29.20 | 1:32.11 | 254195 | 261105


Range status and errors

Selected range

Filename F:\=== VINYL RIPS ===\=== EAC===\X FRESH RIP\Egon Wellesz - Margarete Babinsky - Das Klavierwerk - CD 1.wav

Peak level 98.6 %
Extraction speed 7.2 X
Range quality 100.0 %
Test CRC AC6F8DD9
Copy CRC AC6F8DD9
Copy OK

No errors occurred


AccurateRip summary

Track 1 not present in database
Track 2 not present in database
Track 3 not present in database
Track 4 not present in database
Track 5 not present in database
Track 6 not present in database
Track 7 not present in database
Track 8 not present in database
Track 9 not present in database
Track 10 not present in database
Track 11 not present in database
Track 12 not present in database
Track 13 not present in database
Track 14 not present in database
Track 15 not present in database
Track 16 not present in database
Track 17 not present in database
Track 18 not present in database
Track 19 not present in database
Track 20 not present in database

None of the tracks are present in the AccurateRip database

End of status report

–– CUETools DB Plugin V2.1.3

[CTDB TOCID: Rop3dobBmfSlW7a9CqWPsiK4oP0-] disk not present in database, Submit result: database access error: Die Anfrage wurde abgebrochen: Die Anfrage wurde abgebrochen..


==== Log checksum 2684F26C904D17ABCA0A002C83C72F88D22D4B2FB58699CE89CACAAB7E95350D ====

Exact Audio Copy V1.0 beta 3 from 29. August 2011

EAC extraction logfile from 3. September 2012, 13:47

Margarete Babinsky / Egon Wellesz - Das Klavierwerk - CD 2

Used drive : PIONEER BD-RW BDR-206 Adapter: 0 ID: 2

Read mode : Secure
Utilize accurate stream : Yes
Defeat audio cache : Yes
Make use of C2 pointers : No

Read offset correction : 667
Overread into Lead-In and Lead-Out : No
Fill up missing offset samples with silence : Yes
Delete leading and trailing silent blocks : No
Null samples used in CRC calculations : Yes
Used interface : Native Win32 interface for Win NT & 2000

Used output format : User Defined Encoder
Selected bitrate : 1024 kBit/s
Quality : High
Add ID3 tag : Yes
Command line compressor : C:\Program Files\FLAC\flac.exe
Additional command line options : -5 -T "Artist=%artist%" -T "Title=%title%" -T "Album=%albumtitle%" -T "Date=%year%" -T "Tracknumber=%tracknr%" -T "Genre=%genre%" %source% -o %dest%


TOC of the extracted CD

Track | Start | Length | Start sector | End sector
––––––––––––––––––––––––––––-
1 | 0:00.00 | 2:24.20 | 0 | 10819
2 | 2:24.20 | 1:42.42 | 10820 | 18511
3 | 4:06.62 | 3:01.29 | 18512 | 32115
4 | 7:08.16 | 3:08.13 | 32116 | 46228
5 | 10:16.29 | 4:26.46 | 46229 | 66224
6 | 14:43.00 | 3:06.16 | 66225 | 80190
7 | 17:49.16 | 3:44.47 | 80191 | 97037
8 | 21:33.63 | 3:31.63 | 97038 | 112925
9 | 25:05.51 | 3:12.52 | 112926 | 127377
10 | 28:18.28 | 8:40.47 | 127378 | 166424
11 | 36:59.00 | 1:47.20 | 166425 | 174469
12 | 38:46.20 | 1:36.70 | 174470 | 181739
13 | 40:23.15 | 2:24.25 | 181740 | 192564
14 | 42:47.40 | 1:37.30 | 192565 | 199869
15 | 44:24.70 | 2:46.57 | 199870 | 212376
16 | 47:11.52 | 3:03.23 | 212377 | 226124
17 | 50:15.00 | 2:02.02 | 226125 | 235276
18 | 52:17.02 | 2:27.53 | 235277 | 246354
19 | 54:44.55 | 0:43.49 | 246355 | 249628


Range status and errors

Selected range

Filename F:\=== VINYL RIPS ===\=== EAC===\X FRESH RIP\Egon Wellesz - Margarete Babinsky - Das Klavierwerk - CD 2.wav

Peak level 98.6 %
Extraction speed 7.1 X
Range quality 100.0 %
Test CRC 1869EEA1
Copy CRC 1869EEA1
Copy OK

No errors occurred


AccurateRip summary

Track 1 not present in database
Track 2 not present in database
Track 3 not present in database
Track 4 not present in database
Track 5 not present in database
Track 6 not present in database
Track 7 not present in database
Track 8 not present in database
Track 9 not present in database
Track 10 not present in database
Track 11 not present in database
Track 12 not present in database
Track 13 not present in database
Track 14 not present in database
Track 15 not present in database
Track 16 not present in database
Track 17 not present in database
Track 18 not present in database
Track 19 not present in database

None of the tracks are present in the AccurateRip database

End of status report

–– CUETools DB Plugin V2.1.3

[CTDB TOCID: io79V_8fdy2DJvIYP02QS16i6BU-] disk not present in database, Submit result: io79V_8fdy2DJvIYP02QS16i6BU- has been uploaded


==== Log checksum 09913776260E5DE1F13330063F09027073374CFD9EB772BD1F089AD05425AB38 ====

Exact Audio Copy V1.0 beta 3 from 29. August 2011

EAC extraction logfile from 3. September 2012, 14:04

Margarete Babinsky / Egon Wellesz - Das Klavierwerk - CD 3

Used drive : PIONEER BD-RW BDR-206 Adapter: 0 ID: 2

Read mode : Secure
Utilize accurate stream : Yes
Defeat audio cache : Yes
Make use of C2 pointers : No

Read offset correction : 667
Overread into Lead-In and Lead-Out : No
Fill up missing offset samples with silence : Yes
Delete leading and trailing silent blocks : No
Null samples used in CRC calculations : Yes
Used interface : Native Win32 interface for Win NT & 2000

Used output format : User Defined Encoder
Selected bitrate : 1024 kBit/s
Quality : High
Add ID3 tag : Yes
Command line compressor : C:\Program Files\FLAC\flac.exe
Additional command line options : -5 -T "Artist=%artist%" -T "Title=%title%" -T "Album=%albumtitle%" -T "Date=%year%" -T "Tracknumber=%tracknr%" -T "Genre=%genre%" %source% -o %dest%


TOC of the extracted CD

Track | Start | Length | Start sector | End sector
––––––––––––––––––––––––––––-
1 | 0:00.00 | 2:41.10 | 0 | 12084
2 | 2:41.10 | 4:12.06 | 12085 | 30990
3 | 6:53.16 | 1:31.55 | 30991 | 37870
4 | 8:24.71 | 2:29.34 | 37871 | 49079
5 | 10:54.30 | 4:05.45 | 49080 | 67499
6 | 15:00.00 | 3:49.07 | 67500 | 84681
7 | 18:49.07 | 1:40.04 | 84682 | 92185
8 | 20:29.11 | 0:52.72 | 92186 | 96157
9 | 21:22.08 | 2:53.42 | 96158 | 109174
10 | 24:15.50 | 1:41.25 | 109175 | 116774
11 | 25:57.00 | 1:38.53 | 116775 | 124177
12 | 27:35.53 | 1:35.69 | 124178 | 131371
13 | 29:11.47 | 2:23.28 | 131372 | 142124
14 | 31:35.00 | 1:18.35 | 142125 | 148009
15 | 32:53.35 | 2:17.40 | 148010 | 158324
16 | 35:11.00 | 2:17.72 | 158325 | 168671
17 | 37:28.72 | 1:57.35 | 168672 | 177481
18 | 39:26.32 | 3:26.43 | 177482 | 192974
19 | 42:53.00 | 1:04.42 | 192975 | 197816
20 | 43:57.42 | 0:54.33 | 197817 | 201899
21 | 44:52.00 | 2:48.12 | 201900 | 214511
22 | 47:40.12 | 2:21.63 | 214512 | 225149
23 | 50:02.00 | 1:21.20 | 225150 | 231244
24 | 51:23.20 | 1:31.36 | 231245 | 238105


Range status and errors

Selected range

Filename F:\=== VINYL RIPS ===\=== EAC===\X FRESH RIP\Egon Wellesz - Margarete Babinsky - Das Klavierwerk - CD 3.wav

Peak level 98.6 %
Extraction speed 7.1 X
Range quality 100.0 %
Test CRC 46E538B2
Copy CRC 46E538B2
Copy OK

No errors occurred


AccurateRip summary

Track 1 not present in database
Track 2 not present in database
Track 3 not present in database
Track 4 not present in database
Track 5 not present in database
Track 6 not present in database
Track 7 not present in database
Track 8 not present in database
Track 9 not present in database
Track 10 not present in database
Track 11 not present in database
Track 12 not present in database
Track 13 not present in database
Track 14 not present in database
Track 15 not present in database
Track 16 not present in database
Track 17 not present in database
Track 18 not present in database
Track 19 not present in database
Track 20 not present in database
Track 21 not present in database
Track 22 not present in database
Track 23 not present in database
Track 24 not present in database

None of the tracks are present in the AccurateRip database

End of status report

–– CUETools DB Plugin V2.1.3

[CTDB TOCID: g_jL2zUDt8jS3CmcSPUOKuK9ofs-] disk not present in database, Submit result: database access error: Die Anfrage wurde abgebrochen: Die Anfrage wurde abgebrochen..


==== Log checksum F626ACE0D774D7D7209D60677B117BA02A958EC7DDA43A7730E6B24F41C1ED30 ====

foobar2000 1.1.14a / Dynamic Range Meter 1.1.1
log date: 2012-09-10 12:57:24

––––––––––––––––––––––––––––––––––––––––
Analyzed: Margarete Babinsky / Egon Wellesz - Das Klavierwerk - CD 1
––––––––––––––––––––––––––––––––––––––––

DR Peak RMS Duration Track
––––––––––––––––––––––––––––––––––––––––
DR15 -11.61 dB -32.44 dB 3:32 01-Egon Wellesz - Der Abend op.4: Vier Impressionen für Klavier - 1. Pastorale
DR16 -0.57 dB -22.56 dB 7:57 02-Egon Wellesz - Der Abend op.4: Vier Impressionen für Klavier - 2. Angelus
DR15 -12.58 dB -35.44 dB 5:07 03-Egon Wellesz - Der Abend op.4: Vier Impressionen für Klavier - 3. Dämmerstunde
DR12 -4.71 dB -22.50 dB 3:29 04-Egon Wellesz - Der Abend op.4: Vier Impressionen für Klavier - 4. Wind auf de…
DR13 -4.33 dB -26.92 dB 1:27 05-Egon Wellesz - Drei Skizzen op.6 - 1. Verträumt
DR12 -0.19 dB -16.42 dB 1:03 06-Egon Wellesz - Drei Skizzen op.6 - 2. Heftig
DR13 -2.32 dB -22.69 dB 1:48 07-Egon Wellesz - Drei Skizzen op.6 - 3. Trotzig
DR13 -3.74 dB -23.98 dB 1:18 08-Egon Wellesz - Drei Klavierstücke op.9 - 1. Anmutig bewegt
DR11 -0.12 dB -15.41 dB 2:23 09-Egon Wellesz - Drei Klavierstücke op.9 - 2. Lebhaft
DR15 -0.11 dB -21.10 dB 6:52 10-Egon Wellesz - Drei Klavierstücke op.9 - 3. Thema mit Variationen
DR13 -14.51 dB -32.82 dB 2:12 11-Egon Wellesz - Tänze für das Klavier op.10 - 1. Im tempo einer Sarabande
DR15 -8.20 dB -31.43 dB 2:45 12-Egon Wellesz - Tänze für das Klavier op.10 - 2. Langsam, visionär
DR15 -0.13 dB -21.23 dB 2:45 13-Egon Wellesz - Tänze für das Klavier op.10 - 3. Übermütig
DR14 -1.64 dB -23.51 dB 3:18 14-Egon Wellesz - Eklogen op.11 - 1. Nänie
DR12 -19.34 dB -35.42 dB 2:10 15-Egon Wellesz - Eklogen op.11 - 2. Intermezzo
DR15 -1.69 dB -26.45 dB 2:03 16-Egon Wellesz - Eklogen op.11 - 3. Burleske
DR16 -4.60 dB -27.33 dB 4:09 17-Egon Wellesz - Eklogen op.11 - 4. Epilog
DR11 -6.00 dB -20.66 dB 0:57 18-Egon Wellesz - Drei Studien für Klavier op.13 - 1. Allegretto
DR12 -1.61 dB -17.37 dB 1:14 19-Egon Wellesz - Drei Studien für Klavier op.13 - 2. Leidenschaftlich bewegt
DR13 -1.89 dB -20.35 dB 1:32 20-Egon Wellesz - Drei Studien für Klavier op.13 - 3. Lebhaft
––––––––––––––––––––––––––––––––––––––––

Number of tracks: 20
Official DR value: DR14

Samplerate: 44100 Hz
Channels: 2
Bits per sample: 16
Bitrate: 442 kbps
Codec: FLAC
================================================================================

––––––––––––––––––––––––––––––––––––––––
Analyzed: Margarete Babinsky / Egon Wellesz - Das Klavierwerk - CD 2
––––––––––––––––––––––––––––––––––––––––

DR Peak RMS Duration Track
––––––––––––––––––––––––––––––––––––––––
DR14 -5.02 dB -27.38 dB 2:24 01-Epigramme for Pno Op 17 (1914) - Danse
DR14 -5.66 dB -26.54 dB 1:43 02-Epigramme for Pno Op 17 (1914) - Capriccio
DR18 -7.07 dB -33.68 dB 3:01 03-Epigramme for Pno Op 17 (1914) - Vision
DR16 -1.68 dB -26.79 dB 3:08 04-Epigramme for Pno Op 17 (1914) - Nocturno
DR15 -0.15 dB -21.89 dB 4:27 05-Epigramme for Pno Op 17 (1914) - Elegie Fantastique
DR13 -6.99 dB -26.91 dB 3:06 06-Idyllen for Pno Op 21 (1917) - In ruhiger fliesender Bewegung
DR15 -2.12 dB -23.74 dB 3:45 07-Idyllen for Pno Op 21 (1917) - Schwebend
DR14 -9.93 dB -30.60 dB 3:32 08-Idyllen for Pno Op 21 (1917) - Masig
DR16 -2.07 dB -27.67 dB 3:13 09-Idyllen for Pno Op 21 (1917) - Vertraumt
DR14 -1.39 dB -22.27 dB 8:41 10-Idyllen for Pno Op 21 (1917) - Langsam_ Frei im Vortrag
DR14 -13.94 dB -35.37 dB 1:47 11-6 Klavierstucke Op 26 (1919) - Tranquillo
DR13 -7.98 dB -26.02 dB 1:37 12-6 Klavierstucke Op 26 (1919) - Moderato
DR17 -2.76 dB -28.61 dB 2:24 13-6 Klavierstucke Op 26 (1919) - Lento
DR13 -12.87 dB -31.79 dB 1:37 14-6 Klavierstucke Op 26 (1919) - Allegretto
DR16 -1.35 dB -25.91 dB 2:47 15-6 Klavierstucke Op 26 (1919) - Adagio
DR15 -0.12 dB -20.25 dB 3:03 16-6 Klavierstucke Op 26 (1919) - Wuchtig
DR13 -16.62 dB -36.84 dB 2:02 17-3 Studien for Pno Op 29 (1921) - Langsam
DR14 -0.98 dB -24.89 dB 2:28 18-3 Studien for Pno Op 29 (1921) - Sehr ruhig
DR14 -2.76 dB -22.32 dB 0:44 19-3 Studien for Pno Op 29 (1921) - Leidenschaftlich
––––––––––––––––––––––––––––––––––––––––

Number of tracks: 19
Official DR value: DR15

Samplerate: 44100 Hz
Channels: 2
Bits per sample: 16
Bitrate: 419 kbps
Codec: FLAC
================================================================================

––––––––––––––––––––––––––––––––––––––––
Analyzed: Margarete Babinsky / Egon Wellesz - Das Klavierwerk - CD 3
––––––––––––––––––––––––––––––––––––––––

DR Peak RMS Duration Track
––––––––––––––––––––––––––––––––––––––––
DR12 -0.12 dB -16.37 dB 2:41 01-Egon Wellesz - Fünf Tanzstücke op.42 - 1. Langsam. Kraftvoll
DR13 -3.78 dB -23.75 dB 4:12 02-Egon Wellesz - Fünf Tanzstücke op.42 - 2. Pastorale. Ruhig
DR13 -6.23 dB -24.12 dB 1:32 03-Egon Wellesz - Fünf Tanzstücke op.42 - 3. Allegretto grazioso
DR13 -2.03 dB -19.00 dB 2:29 04-Egon Wellesz - Fünf Tanzstücke op.42 - 4. Lebhaft
DR13 -0.27 dB -19.09 dB 4:06 05-Egon Wellesz - Fünf Tanzstücke op.42 - 5. Getragen - Allegro energico - Lebha…
DR14 -2.86 dB -24.71 dB 3:49 06-Egon Wellesz - Fünf Klavierstücke op.83 - 1. Nänie
DR10 -6.57 dB -29.48 dB 1:40 07-Egon Wellesz - Fünf Klavierstücke op.83 - 2. Ein Lied
DR11 -2.49 dB -19.78 dB 0:53 08-Egon Wellesz - Fünf Klavierstücke op.83 - 3. Bewegung
DR12 -16.17 dB -34.69 dB 2:54 09-Egon Wellesz - Fünf Klavierstücke op.83 - 4. Stille
DR13 -0.13 dB -18.23 dB 1:41 10-Egon Wellesz - Fünf Klavierstücke op.83 - 5. Der Entschluss
DR16 -1.76 dB -24.75 dB 1:39 11-Egon Wellesz - Triptychon op.98 - 1. Grazioso
DR13 -10.41 dB -30.09 dB 1:36 12-Egon Wellesz - Triptychon op.98 - 2. Cantabile
DR12 -0.98 dB -17.02 dB 2:23 13-Egon Wellesz - Triptychon op.98 - 3. Appassionato
DR13 -0.46 dB -18.96 dB 1:18 14-Egon Wellesz - Studien in Grau op.106 - 1. Moderato
DR12 -0.12 dB -18.24 dB 2:18 15-Egon Wellesz - Studien in Grau op.106 - 2. Tranquillo
DR13 -0.15 dB -18.07 dB 2:18 16-Egon Wellesz - Studien in Grau op.106 - 3. Andante
DR15 -2.35 dB -28.44 dB 1:57 17-Egon Wellesz - Studien in Grau op.106 - 4. Allegretto
DR15 -0.13 dB -20.76 dB 3:27 18-Egon Wellesz - Studien in Grau op.106 - 5. Poco animato
DR10 -11.35 dB -23.88 dB 1:05 19-Egon Wellesz - 2 Couranten - Courante I
DR10 -11.71 dB -25.75 dB 0:54 20-Egon Wellesz - 2 Couranten - Courante II
DR14 -1.47 dB -21.64 dB 2:48 21-Egon Wellesz - Gaillard
DR15 -0.73 dB -24.31 dB 2:22 22-Egon Wellesz - 2 Couranten - Klavierstück
DR9 -10.11 dB -26.68 dB 1:21 23-Egon Wellesz - Variation über einen Walzer von Franz Schubert - Walzer
DR12 -9.31 dB -26.54 dB 1:31 24-Egon Wellesz - Variation über einen Walzer von Franz Schubert - Variation
––––––––––––––––––––––––––––––––––––––––

Number of tracks: 24
Official DR value: DR13

Samplerate: 44100 Hz
Channels: 2
Bits per sample: 16
Bitrate: 465 kbps
Codec: FLAC
================================================================================



CD Info:

Egon Wellesz (1885-1974) - Margarete Babinsky - The Piano Works / Complete Recording

Label: Capriccio
Catalog#: 67181
Format: 3x CD, Album
Country: Germany
Released: 2006
Genre: Classical
Style: Contemporary

Tracklist:

CD1:
Drie Skizzen Opus 6
Drei Lavierstucke Opus 9
Tanze for Klavier Opus 10
Eklogen Opus 11
Drie Studien for Klavier Opus 13

CD 2:
Epigramme Opus 17
Idyllen Opus 21(br /> Sechs Klavierstucke Opus 26
Drei Studien Opus 29

CD 3:
Five Tanzstucke Opus 42
Five Klavierstucke Opus 83
Triptychon Opus 98
Studien in Grau Opus 106
2 Couranten
Gaillarde
Klavierstuck
Variation uber einen Walzer von Franz Schubert

Egon Wellesz - Margarete Babinsky - Das Klavierwerk / The Piano Works [Capriccio 67181] {2006, 3CD}


The life of Egon Wellesz (1885-1974) is representative for many composers whose career was abruptly interrupted by National- Socialist machinations. Until 1938, Wellesz, an Austrian, was one of the most popular composers of the younger generation. His enforced flight to England ended this successful development abruptly. Fortunately, Wellesz, who had enjoyed a thorough extended education and was an expert on music history, was able to continue working as a professor in Oxford. However, it took him a long time before he was able to continue his activities as a composer, too – many compositions from his earlier period have been lost. The complete recording of Egon Wellesz’ works for piano presented here is the first full anthology of the works from 1909 to 1969. Viennese pianist Margarete Babinsky created it in co-operation with the Egon Wellesz Foundation Vienna – a fascinating journey through the entire 20th century. Premiere Classical
Egon Wellesz - Margarete Babinsky - Das Klavierwerk / The Piano Works [Capriccio 67181] {2006, 3CD}

// classical music \\
// all of my uploads \\
________________

Download:

Filepost FLAC Part I
Filepost FLAC Part II
Filepost Artwork
________________