Subcategories

Tim Presley's White Fence - I Have To Feed Larry's Hawk (2019)

Posted By: delpotro
Tim Presley's White Fence - I Have To Feed Larry's Hawk (2019)

Tim Presley's White Fence - I Have To Feed Larry's Hawk (2019)
XLD Rip | FLAC (tracks+log+.cue) - 271 Mb | MP3 CBR 320 kbps - 129 Mb | 00:56:08
Psychedelic Rock, Garage Rock | Label: Drag City

Gliding past ghostly statues of mythic entities and through the mist into the present world, Tim Presley's White Fence shed their multicolored-shroud for a heartfelt yet enigmatic, cycle of songs about losing the thing that's killing you that you love in order to gain the thing that makes you love what you love, with loads of Heartbreakers and other new pop classix.
Tracklist:
1. I Have to Feed Larry's Hawk (05:13)
2. Phone (03:49)
3. Fog City (01:59)
4. I Love You (02:52)
5. Lorelei (03:21)
6. Neighborhood Light (02:53)
7. I Can See You (03:14)
8. Until You Walk (04:01)
9. I Saw Snow Today (02:18)
10. Indisposed (04:37)
11. Forever Chained (02:59)
12. Fog City (2) (02:05)
13. Harm Reduction (A: Morning) (08:50)
14. Harm Reduction (B: Street & Inside Mind) (07:53)

X Lossless Decoder version 20160920 (149.2)

XLD extraction logfile from 2019-04-26 16:00:57 +0200

White Fence / I Have To Feed Larry's Hawk

Used drive : HL-DT-ST DVDRW GX40N (revision RQ00)
Media type : Pressed CD

Ripper mode : XLD Secure Ripper
Disable audio cache : OK for the drive with a cache less than 1375KiB
Make use of C2 pointers : NO
Read offset correction : 6
Max retry count : 20
Gap status : Analyzed, Appended (except HTOA)

TOC of the extracted CD
Track | Start | Length | Start sector | End sector
––––––––––––––––––––––––––––-
1 | 00:00:00 | 05:13:39 | 0 | 23513
2 | 05:13:39 | 03:49:00 | 23514 | 40688
3 | 09:02:39 | 01:59:01 | 40689 | 49614
4 | 11:01:40 | 02:52:04 | 49615 | 62518
5 | 13:53:44 | 03:21:68 | 62519 | 77661
6 | 17:15:37 | 02:53:26 | 77662 | 90662
7 | 20:08:63 | 03:14:28 | 90663 | 105240
8 | 23:23:16 | 04:01:40 | 105241 | 123355
9 | 27:24:56 | 02:18:48 | 123356 | 133753
10 | 29:43:29 | 04:37:06 | 133754 | 154534
11 | 34:20:35 | 02:59:12 | 154535 | 167971
12 | 37:19:47 | 02:05:32 | 167972 | 177378
13 | 39:25:04 | 08:50:17 | 177379 | 217145
14 | 48:15:21 | 07:53:14 | 217146 | 252634

AccurateRip Summary
Disc not found in AccurateRip DB.

All Tracks
Album gain : -7.95 dB
Peak : 0.971649
Statistics
Read error : 0
Jitter error (maybe fixed) : 0
Retry sector count : 0
Damaged sector count : 0

Track 01
Filename : /rips/White Fence - I Have To Feed Larry's Hawk (2019) [FLAC]/01 I Have To Feed Larry's Hawk.flac
Pre-gap length : 00:02:00

Track gain : -6.48 dB
Peak : 0.935181
CRC32 hash (test run) : E9D0BA38
CRC32 hash : E9D0BA38
CRC32 hash (skip zero) : 355D42CE
AccurateRip v1 signature : 83C97CF9
AccurateRip v2 signature : 3960CA6E
->Track not present in AccurateRip database.
Statistics
Read error : 0
Jitter error (maybe fixed) : 0
Retry sector count : 0
Damaged sector count : 0

Track 02
Filename : /rips/White Fence - I Have To Feed Larry's Hawk (2019) [FLAC]/02 Phone.flac

Track gain : -8.84 dB
Peak : 0.952362
CRC32 hash (test run) : 66A94CB4
CRC32 hash : 66A94CB4
CRC32 hash (skip zero) : 64B05CB7
AccurateRip v1 signature : 447A9E62
AccurateRip v2 signature : C9F0F1DE
->Track not present in AccurateRip database.
Statistics
Read error : 0
Jitter error (maybe fixed) : 0
Retry sector count : 0
Damaged sector count : 0

Track 03
Filename : /rips/White Fence - I Have To Feed Larry's Hawk (2019) [FLAC]/03 Fog City.flac

Track gain : -7.66 dB
Peak : 0.937073
CRC32 hash (test run) : F1AED8E4
CRC32 hash : F1AED8E4
CRC32 hash (skip zero) : E0BD32D8
AccurateRip v1 signature : 33C8CE3C
AccurateRip v2 signature : 4AEAE6AB
->Track not present in AccurateRip database.
Statistics
Read error : 0
Jitter error (maybe fixed) : 0
Retry sector count : 0
Damaged sector count : 0

Track 04
Filename : /rips/White Fence - I Have To Feed Larry's Hawk (2019) [FLAC]/04 I Love You.flac

Track gain : -7.73 dB
Peak : 0.944885
CRC32 hash (test run) : 451EBD98
CRC32 hash : 451EBD98
CRC32 hash (skip zero) : 737A1C98
AccurateRip v1 signature : 4A51F373
AccurateRip v2 signature : 05B3EA3C
->Track not present in AccurateRip database.
Statistics
Read error : 0
Jitter error (maybe fixed) : 0
Retry sector count : 0
Damaged sector count : 0

Track 05
Filename : /rips/White Fence - I Have To Feed Larry's Hawk (2019) [FLAC]/05 Lorelei.flac

Track gain : -8.08 dB
Peak : 0.939056
CRC32 hash (test run) : 95EFCEC0
CRC32 hash : 95EFCEC0
CRC32 hash (skip zero) : CE4783FC
AccurateRip v1 signature : C6679B0F
AccurateRip v2 signature : C85C5A79
->Track not present in AccurateRip database.
Statistics
Read error : 0
Jitter error (maybe fixed) : 0
Retry sector count : 0
Damaged sector count : 0

Track 06
Filename : /rips/White Fence - I Have To Feed Larry's Hawk (2019) [FLAC]/06 Neighborhood Light.flac

Track gain : -8.92 dB
Peak : 0.970032
CRC32 hash (test run) : 970F0B94
CRC32 hash : 970F0B94
CRC32 hash (skip zero) : 4E55CAA9
AccurateRip v1 signature : 946CF825
AccurateRip v2 signature : 1CFD06F0
->Track not present in AccurateRip database.
Statistics
Read error : 0
Jitter error (maybe fixed) : 0
Retry sector count : 0
Damaged sector count : 0

Track 07
Filename : /rips/White Fence - I Have To Feed Larry's Hawk (2019) [FLAC]/07 I Can See You.flac

Track gain : -7.93 dB
Peak : 0.935303
CRC32 hash (test run) : 48A19B01
CRC32 hash : 48A19B01
CRC32 hash (skip zero) : A9D827D6
AccurateRip v1 signature : C780AEA1
AccurateRip v2 signature : 10D914F9
->Track not present in AccurateRip database.
Statistics
Read error : 0
Jitter error (maybe fixed) : 0
Retry sector count : 0
Damaged sector count : 0

Track 08
Filename : /rips/White Fence - I Have To Feed Larry's Hawk (2019) [FLAC]/08 Until You Walk.flac

Track gain : -8.66 dB
Peak : 0.948090
CRC32 hash (test run) : 1A2DFF4E
CRC32 hash : 1A2DFF4E
CRC32 hash (skip zero) : FB67D914
AccurateRip v1 signature : CEEB0B6A
AccurateRip v2 signature : E48B4E70
->Track not present in AccurateRip database.
Statistics
Read error : 0
Jitter error (maybe fixed) : 0
Retry sector count : 0
Damaged sector count : 0

Track 09
Filename : /rips/White Fence - I Have To Feed Larry's Hawk (2019) [FLAC]/09 I Saw Snow Today.flac

Track gain : -7.80 dB
Peak : 0.936371
CRC32 hash (test run) : A26D34F1
CRC32 hash : A26D34F1
CRC32 hash (skip zero) : 17A4567E
AccurateRip v1 signature : B06006EF
AccurateRip v2 signature : C736CBBF
->Track not present in AccurateRip database.
Statistics
Read error : 0
Jitter error (maybe fixed) : 0
Retry sector count : 0
Damaged sector count : 0

Track 10
Filename : /rips/White Fence - I Have To Feed Larry's Hawk (2019) [FLAC]/10 Indisposed.flac

Track gain : -8.45 dB
Peak : 0.971649
CRC32 hash (test run) : 2E225F2F
CRC32 hash : 2E225F2F
CRC32 hash (skip zero) : 08319562
AccurateRip v1 signature : FBDDD91D
AccurateRip v2 signature : 6E024CBF
->Track not present in AccurateRip database.
Statistics
Read error : 0
Jitter error (maybe fixed) : 0
Retry sector count : 0
Damaged sector count : 0

Track 11
Filename : /rips/White Fence - I Have To Feed Larry's Hawk (2019) [FLAC]/11 Forever Chained.flac

Track gain : -8.91 dB
Peak : 0.940613
CRC32 hash (test run) : 4DFD63C9
CRC32 hash : 4DFD63C9
CRC32 hash (skip zero) : 671C02D8
AccurateRip v1 signature : 93294C32
AccurateRip v2 signature : 2A5CBCEC
->Track not present in AccurateRip database.
Statistics
Read error : 0
Jitter error (maybe fixed) : 0
Retry sector count : 0
Damaged sector count : 0

Track 12
Filename : /rips/White Fence - I Have To Feed Larry's Hawk (2019) [FLAC]/12 Fog City (2).flac

Track gain : -7.82 dB
Peak : 0.935699
CRC32 hash (test run) : D730481A
CRC32 hash : D730481A
CRC32 hash (skip zero) : 58899B62
AccurateRip v1 signature : 094E1570
AccurateRip v2 signature : AB80686A
->Track not present in AccurateRip database.
Statistics
Read error : 0
Jitter error (maybe fixed) : 0
Retry sector count : 0
Damaged sector count : 0

Track 13
Filename : /rips/White Fence - I Have To Feed Larry's Hawk (2019) [FLAC]/13 Harm Reduction (A- Morning).flac

Track gain : -5.95 dB
Peak : 0.898590
CRC32 hash (test run) : 29188627
CRC32 hash : 29188627
CRC32 hash (skip zero) : F0A9B050
AccurateRip v1 signature : 5E97F830
AccurateRip v2 signature : 277FE698
->Track not present in AccurateRip database.
Statistics
Read error : 0
Jitter error (maybe fixed) : 0
Retry sector count : 0
Damaged sector count : 0

Track 14
Filename : /rips/White Fence - I Have To Feed Larry's Hawk (2019) [FLAC]/14 Harm Reduction (B- Street & Inside Mind).flac

Track gain : -5.85 dB
Peak : 0.921051
CRC32 hash (test run) : D77F2F63
CRC32 hash : D77F2F63
CRC32 hash (skip zero) : 49BBF3F1
AccurateRip v1 signature : CAB2DA7B
AccurateRip v2 signature : 003F16BB
->Track not present in AccurateRip database.
Statistics
Read error : 0
Jitter error (maybe fixed) : 0
Retry sector count : 0
Damaged sector count : 0

No errors occurred

End of status report

––-BEGIN XLD SIGNATURE––-
7s4suJxR.IYDAt0i1AFrGOwKpCoFOLyCn5bSiPgM1bfclDcjOjjnXE6a.IoATecemrzsd1QCl4Ta9tVry0r8pKNo.lDqjuImUP2qQjS
––-END XLD SIGNATURE––-

Thanks to the Original ripper !