Subcategories

Wim Van Hasselt - On the Road (2011)

Posted By: Piterets
Wim Van Hasselt - On the Road (2011)

Wim Van Hasselt - On the Road (2011)
Contemporary Classical | Channel Classics | 2011 | 74:35 | EAC (FLAC, cue, log) | Booklet | Various File Hosts | 279 MB
Eriko Takezawa (Piano), Noriko Ishikawa (Piano), Gustavo Gimeno (Drums (Snare), Percussion), Wim Van Hasselt (Trumpet), Jörgen Van Rijen (Trombone), Emily Beynon (Flute), Claudio Puntin (Clarinet (Bass)), Martin Fondse (Fender Rhodes)

“Not only to stretch my own boundaries, but particularly because I really want people to hear this music. I have looked for the extremes of trumpet repertoire and have compiled a varied programme with pieces in all sorts of colours and styles, ranging from classical through belle époque to contemporary.” (Wim Van Hesselt)


The recording in the Doopsgezinde Kerk, Amsterdam is, as expected, excellently engineered by Jared Sacks and Hein Dekker, so this SACD can be unhesitatingly recommended to all to whom this unusual concept appeals. Performance 5 stars / Sonics 5 stars
SA-CD.net


For me the highlights of the program are two commissioned works - Trio by Derek Bourgeois (b. 1941) and Splitting Wood by Martin Fondse (b. 1967). I would be interested in hearing more music by these composers, so please consider sharing it (if you happen to have it) or directing me to it. Thanks! Meanwhile enjoy nearly 75 minutes of beautiful trumpet music!

Track Listing:

01. Zbinden - Concertino for trumpet, snare drum and piano, opus 6 [0:07:58.33]
02. Luigini - Caprice for cornet and piano [0:04:59.58]
03. Beethoven - Aria ‘Komm, Hoffnung, lass den letzten Stern’ from ‘Fidelio’ [0:04:43.17]
04. Bourgeois - Trio for trumpet, trombone and piano - Moderato con moto [0:05:48.45]
05. Bourgeois - Trio for trumpet, trombone and piano - Andante espressivo [0:04:47.37]
06. Bourgeois - Trio for trumpet, trombone and piano - Moderato ma con fuoco [0:04:13.23]
07. Eben - Fantasia Vespertina for trumpet and piano [0:04:28.22]
08. von Grunelius - Scenette a due for flute and muted trumpet - Lento e sciolto [0:01:53.33]
09. von Grunelius - Scenette a due for flute and muted trumpet - Moderato con anima [0:02:56.02]
10. von Grunelius - Scenette a due for flute and muted trumpet - Allegro scherzando [0:01:27.11]
11. von Grunelius - Scenette a due for flute and muted trumpet - Lento ma non troppo [0:03:07.09]
12. Wilson - Cartoon for cornet and piano [0:05:27.61]
13. Henderickx - ON THE ROAD for trumpet and electronics [0:10:27.07]
14. Fondse - Splitting Wood for flugelhorn-trumpet, cello, bass clarinet and fender rhodes piano - ‘hit the soft ground’ [0:03:10.42]
15. Fondse - Splitting Wood for flugelhorn-trumpet, cello, bass clarinet and fender rhodes piano - ‘once opened, never be closed’ [0:07:49.05]
16. Berio - Good Night for trumpet solo [0:01:16.05]

Exact Audio Copy V1.0 beta 3 from 29. August 2011

EAC extraction logfile from 16. January 2013, 23:50

Beethoven, Grunelius, Luigini, Zbinden,Berio, Eben, Wilson / On the Road - Wim van Hasselt (Trumpet)

Used drive : QSI CDRW/DVD SBW242U Adapter: 1 ID: 0

Read mode : Secure
Utilize accurate stream : Yes
Defeat audio cache : Yes
Make use of C2 pointers : No

Read offset correction : 6
Overread into Lead-In and Lead-Out : No
Fill up missing offset samples with silence : Yes
Delete leading and trailing silent blocks : No
Null samples used in CRC calculations : Yes
Used interface : Native Win32 interface for Win NT & 2000

Used output format : User Defined Encoder
Selected bitrate : 768 kBit/s
Quality : High
Add ID3 tag : No
Command line compressor : C:\Program Files\Exact Audio Copy\FLAC\FLAC.EXE
Additional command line options : -6 -V -T "ARTIST=%artist%" -T "TITLE=%title%" -T "ALBUM=%albumtitle%" -T "DATE=%year%" -T "TRACKNUMBER=%tracknr%" -T "GENRE=%genre%" -T "COMMENT=%comment%" -T "BAND=%albuminterpret%" -T "ALBUMARTIST=%albuminterpret%" -T "COMPOSER=%composer%" %haslyrics%–tag-from-file=LYRICS="%lyricsfile%"%haslyrics% -T "DISCNUMBER=%cdnumber%" -T "TOTALDISCS=%totalcds%" -T "TOTALTRACKS=%numtracks%" %hascover%–picture="%coverfile%"%hascover% %source% -o %dest%


TOC of the extracted CD

Track | Start | Length | Start sector | End sector
––––––––––––––––––––––––––––-
1 | 0:00.00 | 7:58.33 | 0 | 35882
2 | 7:58.33 | 4:59.58 | 35883 | 58365
3 | 12:58.16 | 4:43.17 | 58366 | 79607
4 | 17:41.33 | 5:48.45 | 79608 | 105752
5 | 23:30.03 | 4:47.37 | 105753 | 127314
6 | 28:17.40 | 4:13.23 | 127315 | 146312
7 | 32:30.63 | 4:28.22 | 146313 | 166434
8 | 36:59.10 | 1:53.33 | 166435 | 174942
9 | 38:52.43 | 2:56.02 | 174943 | 188144
10 | 41:48.45 | 1:27.11 | 188145 | 194680
11 | 43:15.56 | 3:07.09 | 194681 | 208714
12 | 46:22.65 | 5:27.61 | 208715 | 233300
13 | 51:50.51 | 10:27.07 | 233301 | 280332
14 | 62:17.58 | 3:10.42 | 280333 | 294624
15 | 65:28.25 | 7:49.05 | 294625 | 329804
16 | 73:17.30 | 1:16.05 | 329805 | 335509


Range status and errors

Selected range

Filename G:\Wim Van Hesselt - On the Road\Beethoven, Grunelius, Luigini, Zbinden,Berio, Eben, Wilson - On the Road - Wim van Hasselt (Trumpet).wav

Peak level 96.2 %
Extraction speed 3.1 X
Range quality 100.0 %
Test CRC 9E2367F5
Copy CRC 9E2367F5
Copy OK

No errors occurred


AccurateRip summary

Track 1 accurately ripped (confidence 1) [B96F6F22] (AR v2)
Track 2 accurately ripped (confidence 1) [142A3753] (AR v2)
Track 3 accurately ripped (confidence 1) [649BBB29] (AR v2)
Track 4 accurately ripped (confidence 1) [EC4C7F35] (AR v2)
Track 5 accurately ripped (confidence 1) [0E3C298F] (AR v2)
Track 6 accurately ripped (confidence 1) [458FEC12] (AR v2)
Track 7 accurately ripped (confidence 1) [2BDDA127] (AR v2)
Track 8 accurately ripped (confidence 1) [7FDD2D18] (AR v2)
Track 9 accurately ripped (confidence 1) [ECF23599] (AR v2)
Track 10 accurately ripped (confidence 1) [8F5F91CE] (AR v2)
Track 11 accurately ripped (confidence 1) [9AAB3D74] (AR v2)
Track 12 accurately ripped (confidence 1) [52E5F3CF] (AR v2)
Track 13 accurately ripped (confidence 1) [7D978949] (AR v2)
Track 14 accurately ripped (confidence 1) [95FB1D60] (AR v2)
Track 15 cannot be verified as accurate (confidence 1) [1122617C], AccurateRip returned [C4CF2C09] (AR v2)
Track 16 accurately ripped (confidence 1) [FDED5DE6] (AR v2)

15 track(s) accurately ripped
1 track(s) could not be verified as accurate

Some tracks could not be verified as accurate

End of status report

==== Log checksum CD2C003CFBA3D58459C4AFAA5FE86BBAD434C8ACF4E42D62AA32AAD10CDFA096 =====


3% recovery record is included.

Read more about the CD here.

Of related interest:

www.wimvanhasselt.com/Wim-Van-Hasselt/en-GB/home.aspx

More contemporary American and European music is available at my blog.