Subcategories

Woody Herman - The Complete Columbia Recordings Of Woody Herman (1945-47) [7CD BoxSet] (2004) {Mosaic}

Posted By: ruskaval
Woody Herman - The Complete Columbia Recordings Of Woody Herman (1945-47) [7CD BoxSet] (2004) {Mosaic}

Woody Herman - The Complete Columbia Recordings Of Woody Herman (1945-47) [7CD BoxSet] (2004) {Mosaic}
EAC rip (secure mode) | FLAC (tracks)+CUE+LOG -> 1.53 Gb | MP3 @320 -> 1.02 Gb
Full Artwork @ 300 dpi (jpg) -> 146 Mb | 5% repair rar
© 2004 Mosaic Records / Sony Music | MD7-223
Jazz / Big Band / Cool / Swing / Latin Jazz / Mambo

WOODY HERMAN The Complete Columbia Recordings Of Woody Herman And His Orchestra & Woodchoppers (Extremely rare & limited 2004 US 141-track Mosaic audiophile 7-CD box set, including many alternate and unissued takes, entirely comprehensive of Woody's fabulous output for Columbia. Housed in a beautifully presented textured outer black box with front pasted picture cover, complete with four credit/tracklisting picture booklets plus an informative 32-page LP sized booklet, featuring stunning black & white session photographs and extensive liner notes. Woody Herman’s bands had it all in the years documented here: hit vocal tunes, top-rated national radio show, star instrumental soloists, new instrumental sounds hailed by jazz critics and fans alike, adventurous arrangements, female singers with sex appeal and a level of musicianship marking them as among the best large ensembles in jazz history.
Woody Herman - The Complete Columbia Recordings Of Woody Herman (1945-47) [7CD BoxSet] (2004) {Mosaic}

Leave it to Mosaic to be the one to finally get it right. After Columbia's initial poorly engineered Greatest Hits back in the '80s, and their better sounding (but hardly complete) two-CD set two years ago, Woody Herman is finally represented in the respectful manner he is due with a delicious seven-CD (limited edition) box set. This beauty is not only an absolute must for Herman fans, but it also serves as a testament for all music fans who want to hear the evolution of jazz from swing to the nascent period of bop.

This set is divided into three parts. The first section features the classic First Herd with an all-star cast playing songs that were soon to become the vocabulary of every swing fans: "Apple Honey," "Northwest Passage," "The Good Earth," and all the rest. These pieces are exquisitely recorded and played with an abandon that only creative, youthful exuberance is capable of. The charts by Ralph Burns are as fresh and dynamic as anything put out today. They stand up incredibly well over time. Surprisingly, so do the songs featuring vocals by Herman and the lovely Francis Wayne. Most vocals from the Swing Era have aged poorly over time, but Herman (featured on the ballads, blues and novelties) sounds absolutely modern with his full, yet raspy vocals. These charts contain all of the elements of classic music: accessible music, played extremely well with feeling, and with a touch of humor all too often missing in jazz.
Woody Herman - The Complete Columbia Recordings Of Woody Herman (1945-47) [7CD BoxSet] (2004) {Mosaic}

Three years ago in JazzTimes, I expressed the hope that Columbia would one day reissue The Thundering Herds, the LP era's most comprehensive collection of the label's 1940s Woody Herman recordings. Columbia chose, instead, to license its 1940s Herman masters to Mosaic. With its customary thoroughness, Mosaic goes well beyond The Thundering Herds. To give you an idea of what Mosaic means by complete, the seven-CD set includes nine previously unissued takes by the Woodchoppers, the incomparable nine-piece group within the First Herd. "Steps," "Igor," "Fan It," "Lost Weekend," "Pam," "I Surrender Dear" and "Someday Sweetheart" each appear in at least one newly discovered take in addition to the original issues, along with the originals of "Four Men on a Horse" and "Nero's Conception."

The total of alternate takes is 35, and there are 10 pieces that Herman recorded but Columbia never released, including several splendid vocals. There are three previously unissued takes of "Panacea" alone. Except for a couple of missing masters, the Mosaic box has everything of the band that Columbia's gifted engineers recorded during the height of its power, creativity and popularity.
So much for the accounting report-why is this bonanza important? Because in proportion to their significance, Herman and his mid- and late-'40s Herds, particularly the First, have too often been disregarded. From the time Herman and his talent scout and recruiter, bassist Chubby Jackson, began transforming the band in 1944, they embraced the changes being blown through jazz by Charlie Parker and Dizzy Gillespie. Indeed, as early as 1942, Herman's open ears and advanced thinking led him to buy arrangements from Gillespie. Billy Eckstine was taking the same approach in bringing bebop values to the big band, but Herman beat Eckstine in getting his innovations to the public. He circumvented a musicians' union recording ban by making V-discs for the military and primed the audience he would develop when World War II ended. By late 1945, when the troops were mustering out, his band was known to tens of thousands who snapped up his recordings, crowded the band's personal appearances and made it so popular that Herman soon had his own network radio program. He extended the big-band era, which on most other fronts was dying.

Mosaic INFO
JazzTimes INFO
AAJ INFO


Personnel and more INFO

tracklist:
DISC 1:

01. Laura
02. Apple Honey
03. I Wonder
04. Yeah Man (Amen)
05. Out of This World
06. June Comes Around Every Year
07. Caldonia
08. Happiness Is Just a Thing Called Joe
09. Goosey Gander
10. I Don't Care If I Never Dream Again
11. Northwest Passage
12. Kiss Goodnight, A
13. I've Got the World on a String
14. Laura - (alternate take)
15. Apple Honey - (alternate take)
16. Apple Honey
17. Caldonia - (alternate take)
18. Caldonia - (alternate take)
19. Caldonia - (alternate take)
20. Goosey Gander - (alternate take)
21. Goosey Gander - (alternate take)
22. Northwest Passage - (alternate take)
23. Northwest Passage - (alternate take)
24. Northwest Passage - (alternate take)

DISC 2:
01. Love Me
02. No Time
03. I'm Not Having Any This Year
04. I Can't Believe My Eyes
05. Good Earth, The
06. Put That Ring on My Finger
07. Bijou (Rhumba a la Jazz)
08. Gee It's Good to Hold You
09. Your Father's Mustache
10. Good Earth, The - (rhythm section test)
11. Good Earth, The - (alternate take)
12. Good Earth, The - (alternate take)
13. Bijou (Rhumba a la Jazz) - (alternate take)
14. Bijou (Rhumba a la Jazz) - (alternate take)
15. Your Father's Mustache - (alternate take)
16. Your Father's Mustache - (alternate take)

DISC 3:
01. You've Got Me Crying Again
02. Wild Root
03. Everybody Knew But Me
04. Blowin' up a Storm
05. Atlanta, G.A.
06. Let It Snow, Let It Snow, Let It Snow
07. Welcome to My Dream
08. It's Anybody's Spring
09. No Don't Stop
10. You Haven't Changed at All
11. Wild Root - (unissued test)
12. Wild Root - (alternate take)
13. Wild Root - (alternate take)
14. Wild Root - (alternate take)
15. Blowin' up a Storm - (alternate take)
16. Blowin' up a Storm - (alternate take)
17. Welcome to My Dream - (alternate take)

DISC 4:
01. You've Got Me Cryin' Again
02. Jug of Wine, A
03. Panacea
04. Heaven Knows
05. Pipe Dreaming
06. Linger in My Arms a Little Longer, Baby
07. Surrender
08. Mabel, Mabel
09. When We Meet Again
10. Sidewalks of Cuba
11. Stars Fell on Alabama
12. If It's Love You Want
13. Lady McGowan's Dream (Pt. 1)
14. Lady McGowan's Dream (Pt. 2)
15. Romance in the Dark
16. Sidewalks of Cuba - (alternate take)
17. Panacea - (alternate take)
18. Panacea - (alternate take)
19. Panacea - (alternate take)
20. Mabel, Mabel - (alternate take)

DISC 5:
01. Summer Sequence (Pt. 1)
02. Summer Sequence (Pt. 2)
03. Summer Sequence (Pt. 3)
04. Uncle Remus Said
05. Everywhere
06. With Someone New
07. Wrap Your Troubles in Dreams
08. Back Talk
09. Woodchopper's Ball
10. Blue Flame
11. Blues Are Brewin', The
12. Anniversary Song, The
13. Non-Alcoholic
14. Back Talk - (alternate take)
15. Back Talk - (alternate take)
16. Woodchopper's Ball - (alternate take)
17. Blue Flame - (alternate take)
18. Ebony Concerto (Pt. 1)
19. Ebony Concerto (Pt. 2)

DISC 6:
01. Igor
02. Steps
03. Four Men on a Horse
04. Fan It
05. Nero's Conception
06. Lost Week-End
07. Pam
08. I Surrender, Dear
09. Someday, Sweetheart
10. I Surrender, Dear
11. Igor - (alternate take)
12. Igor - (alternate take)
13. Steps - (alternate take)
14. Fan It - (alternate take)
15. Fan It - (alternate take)
16. Fan It - (alternate take)
17. Lost Week-End - (alternate take)
18. Lost Week-End - (alternate take)
19. Pam - (alternate take)
20. Someday, Sweetheart - (alternate take)

DISC 7:
01. If Anybody Can Steal My Baby
02. I Told You I Love Ya, Now Get Out
03. Sabre Dance
04. Cherokee Canyon
05. I've Got News For You
06. Keen and Peachy
07. Goof and I, The
08. Lazy Lullaby
09. Four Brothers
10. Summer Sequence (Pt. 4)
11. Swing Low, Sweet Clarinet
12. My Pal Gonzales
13. P.S. I Love You
14. Baby I Need You
15. Take a Little Time to Smile
16. I Told You I Love Ya, Now Get Out - (alternate take)
17. I Told You I Love Ya, Now Get Out - (alternate take)
18. Keen and Peachy - (alternate take)
19. Keen and Peachy - (alternate take)
20. Keen and Peachy - (alternate take)
21. Keen and Peachy - (alternate take)
22. Goof and I, The - (breakdown)
23. Summer Sequence (Pt. 4) - (alternate take)
24. Summer Sequence (Pt. 4) - (alternate take)

EAC extraction logfile from 5. December 2006, 1:03 for CD
Woody Herman / Complete Columbia Recordings (Disc 1)

Used drive : HL-DT-STDVD-ROM GDR8162B Adapter: 1 ID: 1
Read mode : Secure with NO C2, accurate stream, disable cache
Read offset correction : 102
Overread into Lead-In and Lead-Out : No

Used output format : C:\Programmi\Exact Audio Copy\flac.exe (User Defined Encoder)
128 kBit/s
Additional command line options : -V -8 -T"artist=%a" -T"title=%t" -T"album=%g" -T"date=%y" -T"genre=%m" %s

Other options :
Fill up missing offset samples with silence : Yes
Delete leading and trailing silent blocks : No
Installed external ASPI interface


Track 1
Filename D:\TORRENTS\Woody Herman - Complete Columbia Recordings (1945-1947) - (2004) [FLAC] {Mosaic MD7-223}\CD 1\01 - Laura.wav

Pre-gap length 0:00:02.00

Peak level 97.3 %
Track quality 100.0 %
Test CRC BE8CB4B7
Copy CRC BE8CB4B7
Copy OK

Track 2
Filename D:\TORRENTS\Woody Herman - Complete Columbia Recordings (1945-1947) - (2004) [FLAC] {Mosaic MD7-223}\CD 1\02 - Apple Honey.wav

Peak level 100.0 %
Track quality 99.9 %
Test CRC 83BAF231
Copy CRC 83BAF231
Copy OK

Track 3
Filename D:\TORRENTS\Woody Herman - Complete Columbia Recordings (1945-1947) - (2004) [FLAC] {Mosaic MD7-223}\CD 1\03 - I Wonder.wav

Peak level 100.0 %
Track quality 100.0 %
Test CRC C410908F
Copy CRC C410908F
Copy OK

Track 4
Filename D:\TORRENTS\Woody Herman - Complete Columbia Recordings (1945-1947) - (2004) [FLAC] {Mosaic MD7-223}\CD 1\04 - Yeah Man (Amen).wav

Peak level 95.9 %
Track quality 100.0 %
Test CRC B92E9FFF
Copy CRC B92E9FFF
Copy OK

Track 5
Filename D:\TORRENTS\Woody Herman - Complete Columbia Recordings (1945-1947) - (2004) [FLAC] {Mosaic MD7-223}\CD 1\05 - Out of this World.wav

Peak level 88.6 %
Track quality 100.0 %
Test CRC 174D77BC
Copy CRC 174D77BC
Copy OK

Track 6
Filename D:\TORRENTS\Woody Herman - Complete Columbia Recordings (1945-1947) - (2004) [FLAC] {Mosaic MD7-223}\CD 1\06 - June Comes Around Every Year.wav

Peak level 100.0 %
Track quality 99.9 %
Test CRC 016C5A8A
Copy CRC 016C5A8A
Copy OK

Track 7
Filename D:\TORRENTS\Woody Herman - Complete Columbia Recordings (1945-1947) - (2004) [FLAC] {Mosaic MD7-223}\CD 1\07 - Caldonia.wav

Peak level 100.0 %
Track quality 100.0 %
Test CRC DED2043E
Copy CRC DED2043E
Copy OK

Track 8
Filename D:\TORRENTS\Woody Herman - Complete Columbia Recordings (1945-1947) - (2004) [FLAC] {Mosaic MD7-223}\CD 1\08 - Happiness is Just a Thing Called Joe.wav

Peak level 94.7 %
Track quality 100.0 %
Test CRC C72A50EE
Copy CRC C72A50EE
Copy OK

Track 9
Filename D:\TORRENTS\Woody Herman - Complete Columbia Recordings (1945-1947) - (2004) [FLAC] {Mosaic MD7-223}\CD 1\09 - Goosey Gander.wav

Peak level 95.4 %
Track quality 100.0 %
Test CRC B0F314C0
Copy CRC B0F314C0
Copy OK

Track 10
Filename D:\TORRENTS\Woody Herman - Complete Columbia Recordings (1945-1947) - (2004) [FLAC] {Mosaic MD7-223}\CD 1\10 - I Don't Care if I Never Dream Again.wav

Peak level 100.0 %
Track quality 100.0 %
Test CRC 9FB9E835
Copy CRC 9FB9E835
Copy OK

Track 11
Filename D:\TORRENTS\Woody Herman - Complete Columbia Recordings (1945-1947) - (2004) [FLAC] {Mosaic MD7-223}\CD 1\11 - Northwest Passage.wav

Peak level 100.0 %
Track quality 100.0 %
Test CRC 68E95FD6
Copy CRC 68E95FD6
Copy OK

Track 12
Filename D:\TORRENTS\Woody Herman - Complete Columbia Recordings (1945-1947) - (2004) [FLAC] {Mosaic MD7-223}\CD 1\12 - A Kiss Goodnight.wav

Peak level 100.0 %
Track quality 100.0 %
Test CRC AE760A78
Copy CRC AE760A78
Copy OK

Track 13
Filename D:\TORRENTS\Woody Herman - Complete Columbia Recordings (1945-1947) - (2004) [FLAC] {Mosaic MD7-223}\CD 1\13 - I've Got the World on a String.wav

Peak level 100.0 %
Track quality 100.0 %
Test CRC 360DC82F
Copy CRC 360DC82F
Copy OK

Track 14
Filename D:\TORRENTS\Woody Herman - Complete Columbia Recordings (1945-1947) - (2004) [FLAC] {Mosaic MD7-223}\CD 1\14 - Laura (Alt Tk 2).wav

Peak level 100.0 %
Track quality 100.0 %
Test CRC A9FF7E12
Copy CRC A9FF7E12
Copy OK

Track 15
Filename D:\TORRENTS\Woody Herman - Complete Columbia Recordings (1945-1947) - (2004) [FLAC] {Mosaic MD7-223}\CD 1\15 - Apple Honey (Alt Tk 5).wav

Peak level 100.0 %
Track quality 100.0 %
Test CRC 7D6E3336
Copy CRC 7D6E3336
Copy OK

Track 16
Filename D:\TORRENTS\Woody Herman - Complete Columbia Recordings (1945-1947) - (2004) [FLAC] {Mosaic MD7-223}\CD 1\16 - Apple Honey (Alt Tk 2).wav

Peak level 96.7 %
Track quality 100.0 %
Test CRC 31CC007B
Copy CRC 31CC007B
Copy OK

Track 17
Filename D:\TORRENTS\Woody Herman - Complete Columbia Recordings (1945-1947) - (2004) [FLAC] {Mosaic MD7-223}\CD 1\17 - Caldonia (Alt Tk 4).wav

Peak level 100.0 %
Track quality 99.9 %
Test CRC E7E3D89F
Copy CRC E7E3D89F
Copy OK

Track 18
Filename D:\TORRENTS\Woody Herman - Complete Columbia Recordings (1945-1947) - (2004) [FLAC] {Mosaic MD7-223}\CD 1\18 - Caldonia (Alt Tk 3).wav

Peak level 98.2 %
Track quality 100.0 %
Test CRC 714B1B9C
Copy CRC 714B1B9C
Copy OK

Track 19
Filename D:\TORRENTS\Woody Herman - Complete Columbia Recordings (1945-1947) - (2004) [FLAC] {Mosaic MD7-223}\CD 1\19 - Caldonia (Alt Tk 2).wav

Peak level 97.4 %
Track quality 100.0 %
Test CRC 6B25BE36
Copy CRC 6B25BE36
Copy OK

Track 20
Filename D:\TORRENTS\Woody Herman - Complete Columbia Recordings (1945-1947) - (2004) [FLAC] {Mosaic MD7-223}\CD 1\20 - Goosey Gander (Alt Tk 3).wav

Peak level 100.0 %
Track quality 100.0 %
Test CRC 23EBE128
Copy CRC 23EBE128
Copy OK

Track 21
Filename D:\TORRENTS\Woody Herman - Complete Columbia Recordings (1945-1947) - (2004) [FLAC] {Mosaic MD7-223}\CD 1\21 - Goosey Gander (Alt Tk 2).wav

Peak level 97.0 %
Track quality 100.0 %
Test CRC E4D24721
Copy CRC E4D24721
Copy OK

Track 22
Filename D:\TORRENTS\Woody Herman - Complete Columbia Recordings (1945-1947) - (2004) [FLAC] {Mosaic MD7-223}\CD 1\22 - Northwest Passage (Alt Tk 4).wav

Peak level 98.8 %
Track quality 100.0 %
Test CRC 5DA65DB2
Copy CRC 5DA65DB2
Copy OK

Track 23
Filename D:\TORRENTS\Woody Herman - Complete Columbia Recordings (1945-1947) - (2004) [FLAC] {Mosaic MD7-223}\CD 1\23 - Northwest Passage (Alt Tk 3).wav

Peak level 100.0 %
Track quality 100.0 %
Test CRC 7A69B7A4
Copy CRC 7A69B7A4
Copy OK

Track 24
Filename D:\TORRENTS\Woody Herman - Complete Columbia Recordings (1945-1947) - (2004) [FLAC] {Mosaic MD7-223}\CD 1\24 - Northwest Passage (Alt Tk 2).wav

Peak level 100.0 %
Track quality 100.0 %
Test CRC 66871632
Copy CRC 66871632
Copy OK

No errors occured


End of status report

EAC extraction logfile from 5. December 2006, 1:34 for CD
Woody Herman / Complete Columbia Recordings (Disc 2)

Used drive : HL-DT-STDVD-ROM GDR8162B Adapter: 1 ID: 1
Read mode : Secure with NO C2, accurate stream, disable cache
Read offset correction : 102
Overread into Lead-In and Lead-Out : No

Used output format : C:\Programmi\Exact Audio Copy\flac.exe (User Defined Encoder)
128 kBit/s
Additional command line options : -V -8 -T"artist=%a" -T"title=%t" -T"album=%g" -T"date=%y" -T"genre=%m" %s

Other options :
Fill up missing offset samples with silence : Yes
Delete leading and trailing silent blocks : No
Installed external ASPI interface


Track 1
Filename D:\TORRENTS\Woody Herman - Complete Columbia Recordings (1945-1947) - (2004) [FLAC] {Mosaic MD7-223}\CD 2\01 - Love Me.wav

Pre-gap length 0:00:02.00

Peak level 100.0 %
Track quality 100.0 %
Test CRC AAD94D75
Copy CRC AAD94D75
Copy OK

Track 2
Filename D:\TORRENTS\Woody Herman - Complete Columbia Recordings (1945-1947) - (2004) [FLAC] {Mosaic MD7-223}\CD 2\02 - No Time.wav

Peak level 96.6 %
Track quality 100.0 %
Test CRC 029F0A73
Copy CRC 029F0A73
Copy OK

Track 3
Filename D:\TORRENTS\Woody Herman - Complete Columbia Recordings (1945-1947) - (2004) [FLAC] {Mosaic MD7-223}\CD 2\03 - I'm Not Having Any This Year.wav

Peak level 100.0 %
Track quality 99.9 %
Test CRC 42910AE5
Copy CRC 42910AE5
Copy OK

Track 4
Filename D:\TORRENTS\Woody Herman - Complete Columbia Recordings (1945-1947) - (2004) [FLAC] {Mosaic MD7-223}\CD 2\04 - I Can't Believe My Eyes.wav

Peak level 94.9 %
Track quality 100.0 %
Test CRC 6F803C7E
Copy CRC 6F803C7E
Copy OK

Track 5
Filename D:\TORRENTS\Woody Herman - Complete Columbia Recordings (1945-1947) - (2004) [FLAC] {Mosaic MD7-223}\CD 2\05 - The Good Earth.wav

Peak level 100.0 %
Track quality 100.0 %
Test CRC 86F01840
Copy CRC 86F01840
Copy OK

Track 6
Filename D:\TORRENTS\Woody Herman - Complete Columbia Recordings (1945-1947) - (2004) [FLAC] {Mosaic MD7-223}\CD 2\06 - Put That Ring on My Finger.wav

Peak level 100.0 %
Track quality 99.9 %
Test CRC 43332231
Copy CRC 43332231
Copy OK

Track 7
Filename D:\TORRENTS\Woody Herman - Complete Columbia Recordings (1945-1947) - (2004) [FLAC] {Mosaic MD7-223}\CD 2\07 - Bijou (Rhumba a La Jazz).wav

Peak level 100.0 %
Track quality 99.9 %
Test CRC 6D4EB925
Copy CRC 6D4EB925
Copy OK

Track 8
Filename D:\TORRENTS\Woody Herman - Complete Columbia Recordings (1945-1947) - (2004) [FLAC] {Mosaic MD7-223}\CD 2\08 - Gee It's Good to Hold You.wav

Peak level 96.6 %
Track quality 100.0 %
Test CRC 76CBFF20
Copy CRC 76CBFF20
Copy OK

Track 9
Filename D:\TORRENTS\Woody Herman - Complete Columbia Recordings (1945-1947) - (2004) [FLAC] {Mosaic MD7-223}\CD 2\09 - Your Father's Mustache.wav

Peak level 96.9 %
Track quality 100.0 %
Test CRC E7300F40
Copy CRC E7300F40
Copy OK

Track 10
Filename D:\TORRENTS\Woody Herman - Complete Columbia Recordings (1945-1947) - (2004) [FLAC] {Mosaic MD7-223}\CD 2\10 - The Good Earth (Rhythm Test).wav

Peak level 41.6 %
Track quality 100.0 %
Test CRC 9C9F9A97
Copy CRC 9C9F9A97
Copy OK

Track 11
Filename D:\TORRENTS\Woody Herman - Complete Columbia Recordings (1945-1947) - (2004) [FLAC] {Mosaic MD7-223}\CD 2\11 - The Good Earth (Alt Tk 5).wav

Peak level 100.0 %
Track quality 100.0 %
Test CRC B5E7C1F2
Copy CRC B5E7C1F2
Copy OK

Track 12
Filename D:\TORRENTS\Woody Herman - Complete Columbia Recordings (1945-1947) - (2004) [FLAC] {Mosaic MD7-223}\CD 2\12 - The Good Earth (Alt Tk 3).wav

Peak level 100.0 %
Track quality 99.9 %
Test CRC 5DBCF33E
Copy CRC 5DBCF33E
Copy OK

Track 13
Filename D:\TORRENTS\Woody Herman - Complete Columbia Recordings (1945-1947) - (2004) [FLAC] {Mosaic MD7-223}\CD 2\13 - The Good Earth (Alt Tk 2).wav

Peak level 96.0 %
Track quality 100.0 %
Test CRC D95D7110
Copy CRC D95D7110
Copy OK

Track 14
Filename D:\TORRENTS\Woody Herman - Complete Columbia Recordings (1945-1947) - (2004) [FLAC] {Mosaic MD7-223}\CD 2\14 - Bijou (Rhumba a La Jazz) (Alt Tk 2).wav

Peak level 100.0 %
Track quality 100.0 %
Test CRC 89EFF21A
Copy CRC 89EFF21A
Copy OK

Track 15
Filename D:\TORRENTS\Woody Herman - Complete Columbia Recordings (1945-1947) - (2004) [FLAC] {Mosaic MD7-223}\CD 2\15 - Bijou (Rhumba a La Jazz) (Alt Tk 3).wav

Peak level 98.7 %
Track quality 99.9 %
Test CRC 74F52450
Copy CRC 74F52450
Copy OK

Track 16
Filename D:\TORRENTS\Woody Herman - Complete Columbia Recordings (1945-1947) - (2004) [FLAC] {Mosaic MD7-223}\CD 2\16 - Your Father's Mustache (Alt Tk 3).wav

Peak level 99.6 %
Track quality 100.0 %
Test CRC 3826CFDB
Copy CRC 3826CFDB
Copy OK

Track 17
Filename D:\TORRENTS\Woody Herman - Complete Columbia Recordings (1945-1947) - (2004) [FLAC] {Mosaic MD7-223}\CD 2\17 - Your Father's Mustache (Alt Tk 4).wav

Peak level 100.0 %
Track quality 100.0 %
Test CRC D1FB2F4F
Copy CRC D1FB2F4F
Copy OK

No errors occured


End of status report

EAC extraction logfile from 6. December 2006, 0:31 for CD
Woody Herman / Complete Columbia Recordings (Disc 3)

Used drive : HL-DT-STDVD-ROM GDR8162B Adapter: 1 ID: 1
Read mode : Secure with NO C2, accurate stream, disable cache
Read offset correction : 102
Overread into Lead-In and Lead-Out : No

Used output format : C:\Programmi\Exact Audio Copy\flac.exe (User Defined Encoder)
128 kBit/s
Additional command line options : -V -8 -T"artist=%a" -T"title=%t" -T"album=%g" -T"date=%y" -T"genre=%m" %s

Other options :
Fill up missing offset samples with silence : Yes
Delete leading and trailing silent blocks : No
Installed external ASPI interface


Track 1
Filename D:\TORRENTS\Woody Herman - Complete Columbia Recordings (1945-1947) - (2004) [FLAC] {Mosaic MD7-223}\CD 3\01 - You've Got Me Crying Again.wav

Pre-gap length 0:00:02.00

Peak level 100.0 %
Track quality 99.8 %
Test CRC 67B550E2
Copy CRC 67B550E2
Copy OK

Track 2
Filename D:\TORRENTS\Woody Herman - Complete Columbia Recordings (1945-1947) - (2004) [FLAC] {Mosaic MD7-223}\CD 3\02 - Wild Root.wav

Peak level 97.9 %
Track quality 100.0 %
Test CRC EEF9C1F1
Copy CRC EEF9C1F1
Copy OK

Track 3
Filename D:\TORRENTS\Woody Herman - Complete Columbia Recordings (1945-1947) - (2004) [FLAC] {Mosaic MD7-223}\CD 3\03 - Everybody Knew But Me.wav

Peak level 92.0 %
Track quality 99.9 %
Test CRC 097DD0B8
Copy CRC 097DD0B8
Copy OK

Track 4
Filename D:\TORRENTS\Woody Herman - Complete Columbia Recordings (1945-1947) - (2004) [FLAC] {Mosaic MD7-223}\CD 3\04 - Blowin' Up a Storm.wav

Peak level 100.0 %
Track quality 99.8 %
Test CRC E7CA8D42
Copy CRC E7CA8D42
Copy OK

Track 5
Filename D:\TORRENTS\Woody Herman - Complete Columbia Recordings (1945-1947) - (2004) [FLAC] {Mosaic MD7-223}\CD 3\05 - Atlanta, GA.wav

Peak level 100.0 %
Track quality 100.0 %
Test CRC 9DC47C8A
Copy CRC 9DC47C8A
Copy OK

Track 6
Filename D:\TORRENTS\Woody Herman - Complete Columbia Recordings (1945-1947) - (2004) [FLAC] {Mosaic MD7-223}\CD 3\06 - Let it Snow, Let it Snow, Let it Snow.wav

Peak level 100.0 %
Track quality 100.0 %
Test CRC DDD37D5E
Copy CRC DDD37D5E
Copy OK

Track 7
Filename D:\TORRENTS\Woody Herman - Complete Columbia Recordings (1945-1947) - (2004) [FLAC] {Mosaic MD7-223}\CD 3\07 - Welcome to My Dream.wav

Peak level 84.6 %
Track quality 100.0 %
Test CRC 169DBF57
Copy CRC 169DBF57
Copy OK

Track 8
Filename D:\TORRENTS\Woody Herman - Complete Columbia Recordings (1945-1947) - (2004) [FLAC] {Mosaic MD7-223}\CD 3\08 - It's Anybody's Spring.wav

Peak level 99.6 %
Track quality 100.0 %
Test CRC 573659E6
Copy CRC 573659E6
Copy OK

Track 9
Filename D:\TORRENTS\Woody Herman - Complete Columbia Recordings (1945-1947) - (2004) [FLAC] {Mosaic MD7-223}\CD 3\09 - No Don't Stop.wav

Peak level 100.0 %
Track quality 100.0 %
Test CRC B34BD73B
Copy CRC B34BD73B
Copy OK

Track 10
Filename D:\TORRENTS\Woody Herman - Complete Columbia Recordings (1945-1947) - (2004) [FLAC] {Mosaic MD7-223}\CD 3\10 - You Haven't Changed at All.wav

Peak level 100.0 %
Track quality 100.0 %
Test CRC 485B4B02
Copy CRC 485B4B02
Copy OK

Track 11
Filename D:\TORRENTS\Woody Herman - Complete Columbia Recordings (1945-1947) - (2004) [FLAC] {Mosaic MD7-223}\CD 3\11 - Wild Root (Unissued Tk).wav

Peak level 100.0 %
Track quality 100.0 %
Test CRC 1F11AFF3
Copy CRC 1F11AFF3
Copy OK

Track 12
Filename D:\TORRENTS\Woody Herman - Complete Columbia Recordings (1945-1947) - (2004) [FLAC] {Mosaic MD7-223}\CD 3\12 - Wild Root (Alt Tk 4).wav

Peak level 100.0 %
Track quality 100.0 %
Test CRC 7DD31E32
Copy CRC 7DD31E32
Copy OK

Track 13
Filename D:\TORRENTS\Woody Herman - Complete Columbia Recordings (1945-1947) - (2004) [FLAC] {Mosaic MD7-223}\CD 3\13 - Wild Root (Alt Tk 1).wav

Peak level 100.0 %
Track quality 99.9 %
Test CRC D5DCC61B
Copy CRC D5DCC61B
Copy OK

Track 14
Filename D:\TORRENTS\Woody Herman - Complete Columbia Recordings (1945-1947) - (2004) [FLAC] {Mosaic MD7-223}\CD 3\14 - Wild Root (Alt Tk 6).wav

Peak level 97.7 %
Track quality 100.0 %
Test CRC A1F5FBB8
Copy CRC A1F5FBB8
Copy OK

Track 15
Filename D:\TORRENTS\Woody Herman - Complete Columbia Recordings (1945-1947) - (2004) [FLAC] {Mosaic MD7-223}\CD 3\15 - Blowin' Up a Storm (Alt Tk 3).wav

Peak level 95.9 %
Track quality 100.0 %
Test CRC 57156C80
Copy CRC 57156C80
Copy OK

Track 16
Filename D:\TORRENTS\Woody Herman - Complete Columbia Recordings (1945-1947) - (2004) [FLAC] {Mosaic MD7-223}\CD 3\16 - Blowin' Up a Storm (Alt Tk 2).wav

Peak level 98.7 %
Track quality 100.0 %
Test CRC 380B373C
Copy CRC 380B373C
Copy OK

Track 17
Filename D:\TORRENTS\Woody Herman - Complete Columbia Recordings (1945-1947) - (2004) [FLAC] {Mosaic MD7-223}\CD 3\17 - Welcome to My Dream (Alt Tk 4).wav

Peak level 95.5 %
Track quality 100.0 %
Test CRC 17BDABEF
Copy CRC 17BDABEF
Copy OK

No errors occured


End of status report

EAC extraction logfile from 6. December 2006, 0:40 for CD
Woody Herman / Complete Columbia Recordings (Disc 4)

Used drive : HL-DT-STDVD-ROM GDR8162B Adapter: 1 ID: 1
Read mode : Secure with NO C2, accurate stream, disable cache
Read offset correction : 102
Overread into Lead-In and Lead-Out : No

Used output format : C:\Programmi\Exact Audio Copy\flac.exe (User Defined Encoder)
128 kBit/s
Additional command line options : -V -8 -T"artist=%a" -T"title=%t" -T"album=%g" -T"date=%y" -T"genre=%m" %s

Other options :
Fill up missing offset samples with silence : Yes
Delete leading and trailing silent blocks : No
Installed external ASPI interface


Track 7
Filename D:\TORRENTS\Woody Herman - Complete Columbia Recordings (1945-1947) - (2004) [FLAC] {Mosaic MD7-223}\CD 4\07 - Surrender.wav

Missing samples
Peak level 0.0 %
Track quality 100.0 %
Copy finished

There were errors


End of status report

––––––––––––––––––––––––––––––

EAC extraction logfile from 6. December 2006, 1:14 for CD
Woody Herman / Complete Columbia Recordings (Disc 4)

Used drive : HL-DT-STDVD-ROM GDR8162B Adapter: 1 ID: 1
Read mode : Secure with NO C2, accurate stream, disable cache
Read offset correction : 102
Overread into Lead-In and Lead-Out : No

Used output format : C:\Programmi\Exact Audio Copy\flac.exe (User Defined Encoder)
128 kBit/s
Additional command line options : -V -8 -T"artist=%a" -T"title=%t" -T"album=%g" -T"date=%y" -T"genre=%m" %s

Other options :
Fill up missing offset samples with silence : Yes
Delete leading and trailing silent blocks : No
Installed external ASPI interface


Track 1
Filename D:\TORRENTS\Woody Herman - Complete Columbia Recordings (1945-1947) - (2004) [FLAC] {Mosaic MD7-223}\CD 4\01 - You've Got Me Cryin' Again.wav

Pre-gap length 0:00:02.00

Peak level 100.0 %
Track quality 100.0 %
Test CRC 347E901A
Copy CRC 347E901A
Copy OK

Track 2
Filename D:\TORRENTS\Woody Herman - Complete Columbia Recordings (1945-1947) - (2004) [FLAC] {Mosaic MD7-223}\CD 4\02 - A Jug of Wine.wav

Peak level 98.5 %
Track quality 99.9 %
Test CRC E3BC9046
Copy CRC E3BC9046
Copy OK

Track 3
Filename D:\TORRENTS\Woody Herman - Complete Columbia Recordings (1945-1947) - (2004) [FLAC] {Mosaic MD7-223}\CD 4\03 - Panacea.wav

Peak level 100.0 %
Track quality 100.0 %
Test CRC 2928AF49
Copy CRC 2928AF49
Copy OK

Track 4
Filename D:\TORRENTS\Woody Herman - Complete Columbia Recordings (1945-1947) - (2004) [FLAC] {Mosaic MD7-223}\CD 4\04 - Heaven Knows.wav

Peak level 100.0 %
Track quality 100.0 %
Test CRC 8235744B
Copy CRC 8235744B
Copy OK

Track 5
Filename D:\TORRENTS\Woody Herman - Complete Columbia Recordings (1945-1947) - (2004) [FLAC] {Mosaic MD7-223}\CD 4\05 - Pipe Dreaming.wav

Peak level 100.0 %
Track quality 100.0 %
Test CRC A34906AD
Copy CRC A34906AD
Copy OK

Track 6
Filename D:\TORRENTS\Woody Herman - Complete Columbia Recordings (1945-1947) - (2004) [FLAC] {Mosaic MD7-223}\CD 4\06 - Linger in My Arms a Little Longer, Baby.wav

Peak level 96.9 %
Track quality 99.9 %
Test CRC 6CAB20E2
Copy CRC 6CAB20E2
Copy OK

Track 7
Filename D:\TORRENTS\Woody Herman - Complete Columbia Recordings (1945-1947) - (2004) [FLAC] {Mosaic MD7-223}\CD 4\07 - Surrender.wav

Peak level 100.0 %
Track quality 100.0 %
Test CRC 8A8091BE
Copy CRC 8A8091BE
Copy OK

Track 8
Filename D:\TORRENTS\Woody Herman - Complete Columbia Recordings (1945-1947) - (2004) [FLAC] {Mosaic MD7-223}\CD 4\08 - Mabel, Mabel.wav

Peak level 90.0 %
Track quality 100.0 %
Test CRC 4F5A3E1E
Copy CRC 4F5A3E1E
Copy OK

Track 9
Filename D:\TORRENTS\Woody Herman - Complete Columbia Recordings (1945-1947) - (2004) [FLAC] {Mosaic MD7-223}\CD 4\09 - When We Meet Again.wav

Peak level 100.0 %
Track quality 100.0 %
Test CRC 191AC2A8
Copy CRC 191AC2A8
Copy OK

Track 10
Filename D:\TORRENTS\Woody Herman - Complete Columbia Recordings (1945-1947) - (2004) [FLAC] {Mosaic MD7-223}\CD 4\10 - Sidewalks of Cuba.wav

Peak level 99.5 %
Track quality 100.0 %
Test CRC CF849C42
Copy CRC CF849C42
Copy OK

Track 11
Filename D:\TORRENTS\Woody Herman - Complete Columbia Recordings (1945-1947) - (2004) [FLAC] {Mosaic MD7-223}\CD 4\11 - Stars Fell on Alabama.wav

Peak level 89.6 %
Track quality 100.0 %
Test CRC 147716B0
Copy CRC 147716B0
Copy OK

Track 12
Filename D:\TORRENTS\Woody Herman - Complete Columbia Recordings (1945-1947) - (2004) [FLAC] {Mosaic MD7-223}\CD 4\12 - If It's Love You Want (Baby, That's Me).wav

Peak level 96.0 %
Track quality 100.0 %
Test CRC 31988D76
Copy CRC 31988D76
Copy OK

Track 13
Filename D:\TORRENTS\Woody Herman - Complete Columbia Recordings (1945-1947) - (2004) [FLAC] {Mosaic MD7-223}\CD 4\13 - Lady McGowan's Dream (Pt. 1).wav

Peak level 86.2 %
Track quality 100.0 %
Test CRC 27F366A8
Copy CRC 27F366A8
Copy OK

Track 14
Filename D:\TORRENTS\Woody Herman - Complete Columbia Recordings (1945-1947) - (2004) [FLAC] {Mosaic MD7-223}\CD 4\14 - Lady McGowan's Dream (Pt. 2).wav

Peak level 97.3 %
Track quality 100.0 %
Test CRC F0AD14D8
Copy CRC F0AD14D8
Copy OK

Track 15
Filename D:\TORRENTS\Woody Herman - Complete Columbia Recordings (1945-1947) - (2004) [FLAC] {Mosaic MD7-223}\CD 4\15 - Romance in the Dark.wav

Peak level 92.8 %
Track quality 100.0 %
Test CRC 7D8644D2
Copy CRC 7D8644D2
Copy OK

Track 16
Filename D:\TORRENTS\Woody Herman - Complete Columbia Recordings (1945-1947) - (2004) [FLAC] {Mosaic MD7-223}\CD 4\16 - Sidewalks of Cuba (Alt Tk 2).wav

Peak level 93.2 %
Track quality 100.0 %
Test CRC EF74A604
Copy CRC EF74A604
Copy OK

Track 17
Filename D:\TORRENTS\Woody Herman - Complete Columbia Recordings (1945-1947) - (2004) [FLAC] {Mosaic MD7-223}\CD 4\17 - Panacea (Alt Tk 4).wav

Peak level 97.6 %
Track quality 100.0 %
Test CRC 843B6510
Copy CRC 843B6510
Copy OK

Track 18
Filename D:\TORRENTS\Woody Herman - Complete Columbia Recordings (1945-1947) - (2004) [FLAC] {Mosaic MD7-223}\CD 4\18 - Panacea (Alt Tk 2).wav

Peak level 100.0 %
Track quality 99.9 %
Test CRC 2287FEB9
Copy CRC 2287FEB9
Copy OK

Track 19
Filename D:\TORRENTS\Woody Herman - Complete Columbia Recordings (1945-1947) - (2004) [FLAC] {Mosaic MD7-223}\CD 4\19 - Panacea (Alt Tk 3).wav

Peak level 100.0 %
Track quality 100.0 %
Test CRC B1152447
Copy CRC B1152447
Copy OK

Track 20
Filename D:\TORRENTS\Woody Herman - Complete Columbia Recordings (1945-1947) - (2004) [FLAC] {Mosaic MD7-223}\CD 4\20 - Mabel, Mabel (Alt Tk 6).wav

Peak level 91.5 %
Track quality 100.0 %
Test CRC AE2A2276
Copy CRC AE2A2276
Copy OK

No errors occured


End of status report

EAC extraction logfile from 6. December 2006, 17:41 for CD
Woody Herman / Complete Columbia Recordings (Disc 5)

Used drive : HL-DT-STDVD-ROM GDR8162B Adapter: 1 ID: 1
Read mode : Secure with NO C2, accurate stream, disable cache
Read offset correction : 102
Overread into Lead-In and Lead-Out : No

Used output format : C:\Programmi\Exact Audio Copy\flac.exe (User Defined Encoder)
128 kBit/s
Additional command line options : -V -8 -T"artist=%a" -T"title=%t" -T"album=%g" -T"date=%y" -T"genre=%m" %s

Other options :
Fill up missing offset samples with silence : Yes
Delete leading and trailing silent blocks : No
Installed external ASPI interface


Track 1
Filename D:\TORRENTS\Woody Herman - Complete Columbia Recordings (1945-1947) - (2004) [FLAC] {Mosaic MD7-223}\CD 5\01 - Summer Sequence (Part 1).wav

Pre-gap length 0:00:02.00

Peak level 100.0 %
Track quality 99.9 %
Test CRC 0DC7DFAB
Copy CRC 0DC7DFAB
Copy OK

Track 2
Filename D:\TORRENTS\Woody Herman - Complete Columbia Recordings (1945-1947) - (2004) [FLAC] {Mosaic MD7-223}\CD 5\02 - Summer Sequence (Part 2).wav

Peak level 91.6 %
Track quality 99.9 %
Test CRC 7BD185D3
Copy CRC 7BD185D3
Copy OK

Track 3
Filename D:\TORRENTS\Woody Herman - Complete Columbia Recordings (1945-1947) - (2004) [FLAC] {Mosaic MD7-223}\CD 5\03 - Summer Sequence (Part 3).wav

Peak level 100.0 %
Track quality 100.0 %
Test CRC 41EBCF2D
Copy CRC 41EBCF2D
Copy OK

Track 4
Filename D:\TORRENTS\Woody Herman - Complete Columbia Recordings (1945-1947) - (2004) [FLAC] {Mosaic MD7-223}\CD 5\04 - Uncle Remus Said.wav

Peak level 100.0 %
Track quality 100.0 %
Test CRC 0F71987D
Copy CRC 0F71987D
Copy OK

Track 5
Filename D:\TORRENTS\Woody Herman - Complete Columbia Recordings (1945-1947) - (2004) [FLAC] {Mosaic MD7-223}\CD 5\05 - Everywhere.wav

Peak level 94.3 %
Track quality 100.0 %
Test CRC 6483D824
Copy CRC 6483D824
Copy OK

Track 6
Filename D:\TORRENTS\Woody Herman - Complete Columbia Recordings (1945-1947) - (2004) [FLAC] {Mosaic MD7-223}\CD 5\06 - With Someone New.wav

Peak level 95.4 %
Track quality 100.0 %
Test CRC A3AB85BA
Copy CRC A3AB85BA
Copy OK

Track 7
Filename D:\TORRENTS\Woody Herman - Complete Columbia Recordings (1945-1947) - (2004) [FLAC] {Mosaic MD7-223}\CD 5\07 - Wrap Your Troubles in Dreams.wav

Peak level 99.8 %
Track quality 100.0 %
Test CRC 38049C83
Copy CRC 38049C83
Copy OK

Track 8
Filename D:\TORRENTS\Woody Herman - Complete Columbia Recordings (1945-1947) - (2004) [FLAC] {Mosaic MD7-223}\CD 5\08 - Back Talk.wav

Peak level 97.0 %
Track quality 100.0 %
Test CRC 9BF7F976
Copy CRC 9BF7F976
Copy OK

Track 9
Filename D:\TORRENTS\Woody Herman - Complete Columbia Recordings (1945-1947) - (2004) [FLAC] {Mosaic MD7-223}\CD 5\09 - Woodchopper's Ball.wav

Peak level 100.0 %
Track quality 99.9 %
Test CRC AFEFEA5B
Copy CRC AFEFEA5B
Copy OK

Track 10
Filename D:\TORRENTS\Woody Herman - Complete Columbia Recordings (1945-1947) - (2004) [FLAC] {Mosaic MD7-223}\CD 5\10 - Blue Flame.wav

Peak level 91.9 %
Track quality 100.0 %
Test CRC 38F1C089
Copy CRC 38F1C089
Copy OK

Track 11
Filename D:\TORRENTS\Woody Herman - Complete Columbia Recordings (1945-1947) - (2004) [FLAC] {Mosaic MD7-223}\CD 5\11 - Blues Are Brewin'.wav

Peak level 91.6 %
Track quality 100.0 %
Test CRC 90635585
Copy CRC 90635585
Copy OK

Track 12
Filename D:\TORRENTS\Woody Herman - Complete Columbia Recordings (1945-1947) - (2004) [FLAC] {Mosaic MD7-223}\CD 5\12 - Anniversary Song.wav

Peak level 93.4 %
Track quality 100.0 %
Test CRC 4BF00804
Copy CRC 4BF00804
Copy OK

Track 13
Filename D:\TORRENTS\Woody Herman - Complete Columbia Recordings (1945-1947) - (2004) [FLAC] {Mosaic MD7-223}\CD 5\13 - Non-Alcoholic.wav

Peak level 100.0 %
Track quality 99.9 %
Test CRC 7302CE74
Copy CRC 7302CE74
Copy OK

Track 14
Filename D:\TORRENTS\Woody Herman - Complete Columbia Recordings (1945-1947) - (2004) [FLAC] {Mosaic MD7-223}\CD 5\14 - Back Talk (Alt Tk 4).wav

Peak level 90.6 %
Track quality 99.9 %
Test CRC B0B526FE
Copy CRC B0B526FE
Copy OK

Track 15
Filename D:\TORRENTS\Woody Herman - Complete Columbia Recordings (1945-1947) - (2004) [FLAC] {Mosaic MD7-223}\CD 5\15 - Back Talk (Alt Tk 1).wav

Peak level 98.3 %
Track quality 99.9 %
Test CRC 802669E3
Copy CRC 802669E3
Copy OK

Track 16
Filename D:\TORRENTS\Woody Herman - Complete Columbia Recordings (1945-1947) - (2004) [FLAC] {Mosaic MD7-223}\CD 5\16 - Woodchopper's Ball (Alt Tk 2).wav

Peak level 90.0 %
Track quality 100.0 %
Test CRC 45120045
Copy CRC 45120045
Copy OK

Track 17
Filename D:\TORRENTS\Woody Herman - Complete Columbia Recordings (1945-1947) - (2004) [FLAC] {Mosaic MD7-223}\CD 5\17 - Blue Flame (Alt Tk 3).wav

Peak level 96.5 %
Track quality 100.0 %
Test CRC EB0CF0A3
Copy CRC EB0CF0A3
Copy OK

Track 18
Filename D:\TORRENTS\Woody Herman - Complete Columbia Recordings (1945-1947) - (2004) [FLAC] {Mosaic MD7-223}\CD 5\18 - Ebony Concerto (Pt. 1).wav

Peak level 91.1 %
Track quality 100.0 %
Test CRC DBA01CFD
Copy CRC DBA01CFD
Copy OK

Track 19
Filename D:\TORRENTS\Woody Herman - Complete Columbia Recordings (1945-1947) - (2004) [FLAC] {Mosaic MD7-223}\CD 5\19 - Ebony Concerto (Pt. 2).wav

Peak level 85.6 %
Track quality 99.9 %
Test CRC A73C5538
Copy CRC A73C5538
Copy OK

No errors occured


End of status report

EAC extraction logfile from 6. December 2006, 18:42 for CD
Woody Herman / Complete Columbia Recordings (Disc 6)

Used drive : HL-DT-STDVD-ROM GDR8162B Adapter: 1 ID: 1
Read mode : Secure with NO C2, accurate stream, disable cache
Read offset correction : 102
Overread into Lead-In and Lead-Out : No

Used output format : C:\Programmi\Exact Audio Copy\flac.exe (User Defined Encoder)
128 kBit/s
Additional command line options : -V -8 -T"artist=%a" -T"title=%t" -T"album=%g" -T"date=%y" -T"genre=%m" %s

Other options :
Fill up missing offset samples with silence : Yes
Delete leading and trailing silent blocks : No
Installed external ASPI interface


Track 1
Filename D:\TORRENTS\Woody Herman - Complete Columbia Recordings (1945-1947) - (2004) [FLAC] {Mosaic MD7-223}\CD 6\01 - Igor.wav

Pre-gap length 0:00:02.00

Peak level 95.2 %
Track quality 100.0 %
Test CRC 2518601B
Copy CRC 2518601B
Copy OK

Track 2
Filename D:\TORRENTS\Woody Herman - Complete Columbia Recordings (1945-1947) - (2004) [FLAC] {Mosaic MD7-223}\CD 6\02 - Steps.wav

Peak level 98.6 %
Track quality 100.0 %
Test CRC B0D5C7E3
Copy CRC B0D5C7E3
Copy OK

Track 3
Filename D:\TORRENTS\Woody Herman - Complete Columbia Recordings (1945-1947) - (2004) [FLAC] {Mosaic MD7-223}\CD 6\03 - Four Men on a Horse.wav

Peak level 97.9 %
Track quality 100.0 %
Test CRC 6D0164E9
Copy CRC 6D0164E9
Copy OK

Track 4
Filename D:\TORRENTS\Woody Herman - Complete Columbia Recordings (1945-1947) - (2004) [FLAC] {Mosaic MD7-223}\CD 6\04 - Fan It.wav

Peak level 94.0 %
Track quality 100.0 %
Test CRC 6B3DB94F
Copy CRC 6B3DB94F
Copy OK

Track 5
Filename D:\TORRENTS\Woody Herman - Complete Columbia Recordings (1945-1947) - (2004) [FLAC] {Mosaic MD7-223}\CD 6\05 - Nero's Comception.wav

Peak level 91.0 %
Track quality 100.0 %
Test CRC A6FA0D0F
Copy CRC A6FA0D0F
Copy OK

Track 6
Filename D:\TORRENTS\Woody Herman - Complete Columbia Recordings (1945-1947) - (2004) [FLAC] {Mosaic MD7-223}\CD 6\06 - Lost Week-End.wav

Peak level 87.4 %
Track quality 100.0 %
Test CRC DDB0966F
Copy CRC DDB0966F
Copy OK

Track 7
Filename D:\TORRENTS\Woody Herman - Complete Columbia Recordings (1945-1947) - (2004) [FLAC] {Mosaic MD7-223}\CD 6\07 - Pam.wav

Peak level 89.4 %
Track quality 100.0 %
Test CRC 57473731
Copy CRC 57473731
Copy OK

Track 8
Filename D:\TORRENTS\Woody Herman - Complete Columbia Recordings (1945-1947) - (2004) [FLAC] {Mosaic MD7-223}\CD 6\08 - I Surrender, Dear.wav

Peak level 91.9 %
Track quality 100.0 %
Test CRC C82E0D2E
Copy CRC C82E0D2E
Copy OK

Track 9
Filename D:\TORRENTS\Woody Herman - Complete Columbia Recordings (1945-1947) - (2004) [FLAC] {Mosaic MD7-223}\CD 6\09 - Someday, Sweetheart.wav

Peak level 92.0 %
Track quality 100.0 %
Test CRC FE303AD0
Copy CRC FE303AD0
Copy OK

Track 10
Filename D:\TORRENTS\Woody Herman - Complete Columbia Recordings (1945-1947) - (2004) [FLAC] {Mosaic MD7-223}\CD 6\10 - I Surrender, Dear (Alt).wav

Peak level 100.0 %
Track quality 99.9 %
Test CRC 860F0CB0
Copy CRC 860F0CB0
Copy OK

Track 11
Filename D:\TORRENTS\Woody Herman - Complete Columbia Recordings (1945-1947) - (2004) [FLAC] {Mosaic MD7-223}\CD 6\11 - Igor (Alt Tk 5).wav

Peak level 98.5 %
Track quality 100.0 %
Test CRC A42AA95B
Copy CRC A42AA95B
Copy OK

Track 12
Filename D:\TORRENTS\Woody Herman - Complete Columbia Recordings (1945-1947) - (2004) [FLAC] {Mosaic MD7-223}\CD 6\12 - Igor (Alt Tk 4).wav

Peak level 99.9 %
Track quality 100.0 %
Test CRC 47DABA5A
Copy CRC 47DABA5A
Copy OK

Track 13
Filename D:\TORRENTS\Woody Herman - Complete Columbia Recordings (1945-1947) - (2004) [FLAC] {Mosaic MD7-223}\CD 6\13 - Steps (Alt Tk 3).wav

Peak level 85.2 %
Track quality 100.0 %
Test CRC AC10DC2E
Copy CRC AC10DC2E
Copy OK

Track 14
Filename D:\TORRENTS\Woody Herman - Complete Columbia Recordings (1945-1947) - (2004) [FLAC] {Mosaic MD7-223}\CD 6\14 - Fan It (Alt Tk 3).wav

Peak level 94.4 %
Track quality 100.0 %
Test CRC 03E53BB6
Copy CRC 03E53BB6
Copy OK

Track 15
Filename D:\TORRENTS\Woody Herman - Complete Columbia Recordings (1945-1947) - (2004) [FLAC] {Mosaic MD7-223}\CD 6\15 - Fan It (Alt Tk 4).wav

Peak level 100.0 %
Track quality 100.0 %
Test CRC 401B86DB
Copy CRC 401B86DB
Copy OK

Track 16
Filename D:\TORRENTS\Woody Herman - Complete Columbia Recordings (1945-1947) - (2004) [FLAC] {Mosaic MD7-223}\CD 6\16 - Fan It (Alt Tk 2).wav

Peak level 95.9 %
Track quality 100.0 %
Test CRC 71D1B5B5
Copy CRC 71D1B5B5
Copy OK

Track 17
Filename D:\TORRENTS\Woody Herman - Complete Columbia Recordings (1945-1947) - (2004) [FLAC] {Mosaic MD7-223}\CD 6\17 - Lost Week-End (Alt Tk 3).wav

Peak level 99.0 %
Track quality 100.0 %
Test CRC E247120D
Copy CRC E247120D
Copy OK

Track 18
Filename D:\TORRENTS\Woody Herman - Complete Columbia Recordings (1945-1947) - (2004) [FLAC] {Mosaic MD7-223}\CD 6\18 - Lost Week-End (Alt Tk 4).wav

Peak level 96.4 %
Track quality 100.0 %
Test CRC 8891CFE4
Copy CRC 8891CFE4
Copy OK

Track 19
Filename D:\TORRENTS\Woody Herman - Complete Columbia Recordings (1945-1947) - (2004) [FLAC] {Mosaic MD7-223}\CD 6\19 - Pam (Alt Tk 3).wav

Peak level 91.9 %
Track quality 100.0 %
Test CRC 4DE6D502
Copy CRC 4DE6D502
Copy OK

Track 20
Filename D:\TORRENTS\Woody Herman - Complete Columbia Recordings (1945-1947) - (2004) [FLAC] {Mosaic MD7-223}\CD 6\20 - Someday, Sweetheart (Alt Tk 4).wav

Peak level 92.7 %
Track quality 100.0 %
Test CRC F5CA96E2
Copy CRC F5CA96E2
Copy OK

No errors occured


End of status report

EAC extraction logfile from 6. December 2006, 22:56 for CD
Woody Herman / Complete Columbia Recordings (Disc 7)

Used drive : HL-DT-STDVD-ROM GDR8162B Adapter: 1 ID: 1
Read mode : Secure with NO C2, accurate stream, disable cache
Read offset correction : 102
Overread into Lead-In and Lead-Out : No

Used output format : C:\Programmi\Exact Audio Copy\flac.exe (User Defined Encoder)
128 kBit/s
Additional command line options : -V -8 -T"artist=%a" -T"title=%t" -T"album=%g" -T"date=%y" -T"genre=%m" %s

Other options :
Fill up missing offset samples with silence : Yes
Delete leading and trailing silent blocks : No
Installed external ASPI interface


Track 1
Filename D:\TORRENTS\Woody Herman - Complete Columbia Recordings (1945-1947) - (2004) [FLAC] {Mosaic MD7-223}\CD 7\01 - If Anybody Can Steal My Baby.wav

Pre-gap length 0:00:02.00

Peak level 96.6 %
Track quality 100.0 %
Test CRC 99ADF16F
Copy CRC 99ADF16F
Copy OK

Track 2
Filename D:\TORRENTS\Woody Herman - Complete Columbia Recordings (1945-1947) - (2004) [FLAC] {Mosaic MD7-223}\CD 7\02 - I Told Ya I Love Ya, Now Get Out.wav

Peak level 99.7 %
Track quality 100.0 %
Test CRC 61411541
Copy CRC 61411541
Copy OK

Track 3
Filename D:\TORRENTS\Woody Herman - Complete Columbia Recordings (1945-1947) - (2004) [FLAC] {Mosaic MD7-223}\CD 7\03 - Sabre Dance.wav

Peak level 89.3 %
Track quality 100.0 %
Test CRC D41EF1F9
Copy CRC D41EF1F9
Copy OK

Track 4
Filename D:\TORRENTS\Woody Herman - Complete Columbia Recordings (1945-1947) - (2004) [FLAC] {Mosaic MD7-223}\CD 7\04 - Cherokee Canyon.wav

Peak level 92.5 %
Track quality 100.0 %
Test CRC C86529F7
Copy CRC C86529F7
Copy OK

Track 5
Filename D:\TORRENTS\Woody Herman - Complete Columbia Recordings (1945-1947) - (2004) [FLAC] {Mosaic MD7-223}\CD 7\05 - I've Got News for You.wav

Peak level 100.0 %
Track quality 100.0 %
Test CRC B80B761D
Copy CRC B80B761D
Copy OK

Track 6
Filename D:\TORRENTS\Woody Herman - Complete Columbia Recordings (1945-1947) - (2004) [FLAC] {Mosaic MD7-223}\CD 7\06 - Keen and Peachy.wav

Peak level 100.0 %
Track quality 100.0 %
Test CRC 679856D5
Copy CRC 679856D5
Copy OK

Track 7
Filename D:\TORRENTS\Woody Herman - Complete Columbia Recordings (1945-1947) - (2004) [FLAC] {Mosaic MD7-223}\CD 7\07 - The Goof and I.wav

Peak level 98.0 %
Track quality 99.9 %
Test CRC 0ED3284D
Copy CRC 0ED3284D
Copy OK

Track 8
Filename D:\TORRENTS\Woody Herman - Complete Columbia Recordings (1945-1947) - (2004) [FLAC] {Mosaic MD7-223}\CD 7\08 - Lazy Lullaby.wav

Peak level 89.6 %
Track quality 100.0 %
Test CRC D259EA6F
Copy CRC D259EA6F
Copy OK

Track 9
Filename D:\TORRENTS\Woody Herman - Complete Columbia Recordings (1945-1947) - (2004) [FLAC] {Mosaic MD7-223}\CD 7\09 - Four Brothers.wav

Peak level 100.0 %
Track quality 100.0 %
Test CRC 674D175B
Copy CRC 674D175B
Copy OK

Track 10
Filename D:\TORRENTS\Woody Herman - Complete Columbia Recordings (1945-1947) - (2004) [FLAC] {Mosaic MD7-223}\CD 7\10 - Summer Sequence (Pt. 4).wav

Peak level 90.0 %
Track quality 100.0 %
Test CRC 348DE5A6
Copy CRC 348DE5A6
Copy OK

Track 11
Filename D:\TORRENTS\Woody Herman - Complete Columbia Recordings (1945-1947) - (2004) [FLAC] {Mosaic MD7-223}\CD 7\11 - Swing Low, Sweet Clarinet.wav

Peak level 91.2 %
Track quality 100.0 %
Test CRC 617D38D6
Copy CRC 617D38D6
Copy OK

Track 12
Filename D:\TORRENTS\Woody Herman - Complete Columbia Recordings (1945-1947) - (2004) [FLAC] {Mosaic MD7-223}\CD 7\12 - My Pal Gonzales.wav

Peak level 100.0 %
Track quality 100.0 %
Test CRC 35B8BD5B
Copy CRC 35B8BD5B
Copy OK

Track 13
Filename D:\TORRENTS\Woody Herman - Complete Columbia Recordings (1945-1947) - (2004) [FLAC] {Mosaic MD7-223}\CD 7\13 - P.S. I Love You.wav

Peak level 100.0 %
Track quality 99.9 %
Test CRC E88E9404
Copy CRC E88E9404
Copy OK

Track 14
Filename D:\TORRENTS\Woody Herman - Complete Columbia Recordings (1945-1947) - (2004) [FLAC] {Mosaic MD7-223}\CD 7\14 - Baby I Need You.wav

Peak level 98.1 %
Track quality 99.9 %
Test CRC 65680599
Copy CRC 65680599
Copy OK

Track 15
Filename D:\TORRENTS\Woody Herman - Complete Columbia Recordings (1945-1947) - (2004) [FLAC] {Mosaic MD7-223}\CD 7\15 - Take A Little Time to Smile.wav

Peak level 99.2 %
Track quality 100.0 %
Test CRC 84D9B143
Copy CRC 84D9B143
Copy OK

Track 16
Filename D:\TORRENTS\Woody Herman - Complete Columbia Recordings (1945-1947) - (2004) [FLAC] {Mosaic MD7-223}\CD 7\16 - I Told Ya I Love Ya, Now Get Out (Alt Tk 4).wav

Peak level 100.0 %
Track quality 100.0 %
Test CRC C351CC70
Copy CRC C351CC70
Copy OK

Track 17
Filename D:\TORRENTS\Woody Herman - Complete Columbia Recordings (1945-1947) - (2004) [FLAC] {Mosaic MD7-223}\CD 7\17 - I Told Ya I Love Ya, Now Get Out (Alt Tk 3).wav

Peak level 93.7 %
Track quality 100.0 %
Test CRC BBCF4812
Copy CRC BBCF4812
Copy OK

Track 18
Filename D:\TORRENTS\Woody Herman - Complete Columbia Recordings (1945-1947) - (2004) [FLAC] {Mosaic MD7-223}\CD 7\18 - Keen And Peachy (Alt Tk 5).wav

Peak level 99.3 %
Track quality 100.0 %
Test CRC 8E319404
Copy CRC 8E319404
Copy OK

Track 19
Filename D:\TORRENTS\Woody Herman - Complete Columbia Recordings (1945-1947) - (2004) [FLAC] {Mosaic MD7-223}\CD 7\19 - Keen And Peachy (Alt Tk 4).wav

Peak level 93.7 %
Track quality 100.0 %
Test CRC 47ACC5D7
Copy CRC 47ACC5D7
Copy OK

Track 20
Filename D:\TORRENTS\Woody Herman - Complete Columbia Recordings (1945-1947) - (2004) [FLAC] {Mosaic MD7-223}\CD 7\20 - Keen And Peachy (Alt Tk 3).wav

Peak level 100.0 %
Track quality 100.0 %
Test CRC 95F3C226
Copy CRC 95F3C226
Copy OK

Track 21
Filename D:\TORRENTS\Woody Herman - Complete Columbia Recordings (1945-1947) - (2004) [FLAC] {Mosaic MD7-223}\CD 7\21 - Keen And Peachy (Alt Tk 2).wav

Peak level 100.0 %
Track quality 100.0 %
Test CRC 8003AD94
Copy CRC 8003AD94
Copy OK

Track 22
Filename D:\TORRENTS\Woody Herman - Complete Columbia Recordings (1945-1947) - (2004) [FLAC] {Mosaic MD7-223}\CD 7\22 - The Good and I (Breakdown).wav

Peak level 97.1 %
Track quality 100.0 %
Test CRC E0D73DFE
Copy CRC E0D73DFE
Copy OK

Track 23
Filename D:\TORRENTS\Woody Herman - Complete Columbia Recordings (1945-1947) - (2004) [FLAC] {Mosaic MD7-223}\CD 7\23 - Summer Sequence (Pt. 4) (Alt Tk 3).wav

Peak level 100.0 %
Track quality 100.0 %
Test CRC 6421232F
Copy CRC 6421232F
Copy OK

Track 24
Filename D:\TORRENTS\Woody Herman - Complete Columbia Recordings (1945-1947) - (2004) [FLAC] {Mosaic MD7-223}\CD 7\24 - Summer Sequence (Pt. 4) (Alt Tk 2).wav

Peak level 100.0 %
Track quality 100.0 %
Test CRC 467E2E4B
Copy CRC 467E2E4B
Copy OK

No errors occured


End of status report


Woody Herman - The Complete Columbia Recordings Of Woody Herman (1945-47) [7CD BoxSet] (2004) {Mosaic}

Woody Herman - The Complete Columbia Recordings Of Woody Herman (1945-47) [7CD BoxSet] (2004) {Mosaic}


All thanks goes to the original releaser!