Subcategories

Yiannis Markopoulos - Thessalikos Cycle (2011)

Posted By: Speedyclick
Yiannis Markopoulos - Thessalikos Cycle (2011)

Yiannis Markopoulos - Thessalikos Cycle (2011)
EAC Rip | FLAC (image & cue & log) & mp3 @ 320 kbps | tracks: 29 | ~ 510 Mb & 208 Mb | 1:17:19 | Full Scans
Label: MINOS-EMI | 5% recovery record | First release: 1974 | Genre: Greek folk songs

Excellent album of Yiannis Markopoulos that deals with the problems of the poor people in Thessalia, a big and fertile region in central Greece, in the first years of the 20th century. Thessalia is mainly a huge plain that belonged to a few rich squires and all the villagers worked for them as crofters. The album has a strong ethographic and folklore character and was released as a double LP in 1974. The 29 songs are interpreted by a rich cast of top singers: Vicky Mosholiou, Lakis Halkias, the cretan Haralambos Garganourakis, Lizetta Nikolaou and even a young and famous rocker, Pavlos Sidiropoulos. Enjoy a masterpiece.

TRACKLIST
01. Vasilis Tsitsanis - Prologue (Prologos)
02. Pavlos Sidiropoulos - Crier (Ntelalis)
03. Orchestra - Rosamunde
04. Lakis Halkias - Foxes crows (Alepoudes korakes)
05. Lakis Halkias - Railway (Sidirodromos)
06. Lakis Halkias & Lizeta Nikolaou - The phantoms (Ta fantasmata)
07. Yiannis Markopoulos - Father Gymnasios (O pater Gymnasios)
08. All - The chickens' thief (O kleftokotas)
09. Vicky Mosholiou - The bear trainer (O arkoudiaris)
10. Pavlos Sidiropoulos & Lizeta Nikolaou - The telephone (To tilefono)
11. Pavlos Sidiropoulos - Vassilo
12. Lizeta Nikolaou - The bazaar (To pazari)
13. Vicky Mosholiou - The matchmaker (I proxenitra)
14. Lakis Halkias - May God protect our animals (Zoi sta katsikomoulara mas)
15. Orchestra - Zaloukas
16. Lakis Halkias & Lizeta Nikolaou - Antipas
17. Lakis Halkias - The teacher (O daskalos)
18. Haralambos Garganourakis - Squire, if you were a man (An isoun antras tsiflika)
19. Orchestra - Captain's dance (Horos kapetaneikos)
20. Lizeta Nikolaou - Night schools at winter (Sta himoniatika nihterina)
21. Lakis Halkias & Pavlos Sidiropoulos - The letter (to grama)
22. Haralambos Garganourakis - Mavromihos
23. Vicky Mosholiou - Mother, I should start working (Na 'vgena manam' sto klari)
24. Haralambos Garganourakis - The wing-footed (O fteropodaros)
25. Orchestra - The night in the plain (I nihta ston kampo)
26. Lakis Halkias - Stavros Stahtofotias
27. Lizeta Nikolaou - The sun came up (Vgike o ilios)
28. Vicky Mosholiou - Fairy tale (Paramithi)
29. Haralambos Garganourakis - The horse (To alogo)

Exact Audio Copy V1.0 beta 1 from 15. November 2010

EAC extraction logfile from 7. August 2011, 20:56

Various / Yiannis Markopoulos Thesalikos Kyklos

Used drive : HL-DT-STDVDRAM GH10N Adapter: 3 ID: 0

Read mode : Secure
Utilize accurate stream : Yes
Defeat audio cache : Yes
Make use of C2 pointers : No

Read offset correction : 667
Overread into Lead-In and Lead-Out : No
Fill up missing offset samples with silence : Yes
Delete leading and trailing silent blocks : No
Null samples used in CRC calculations : Yes
Used interface : Native Win32 interface for Win NT & 2000

Used output format : User Defined Encoder
Selected bitrate : 1024 kBit/s
Quality : High
Add ID3 tag : No
Command line compressor : C:\Program Files\FLAC\flac.exe
Additional command line options : -V -5 -T "artist=%a" -T "title=%t" -T "album=%g" -T "date=%y" -T "tracknumber=%n" -T "genre=%m" -5 %s


TOC of the extracted CD

Track | Start | Length | Start sector | End sector
––––––––––––––––––––––––––––-
1 | 0:00.00 | 0:36.09 | 0 | 2708
2 | 0:36.09 | 3:35.63 | 2709 | 18896
3 | 4:11.72 | 1:59.67 | 18897 | 27888
4 | 6:11.64 | 2:06.62 | 27889 | 37400
5 | 8:18.51 | 3:32.67 | 37401 | 53367
6 | 11:51.43 | 3:14.27 | 53368 | 67944
7 | 15:05.70 | 2:36.43 | 67945 | 79687
8 | 17:42.38 | 1:06.28 | 79688 | 84665
9 | 18:48.66 | 3:34.23 | 84666 | 100738
10 | 22:23.14 | 1:56.52 | 100739 | 109490
11 | 24:19.66 | 1:54.63 | 109491 | 118103
12 | 26:14.54 | 2:44.36 | 118104 | 130439
13 | 28:59.15 | 2:36.21 | 130440 | 142160
14 | 31:35.36 | 1:06.03 | 142161 | 147113
15 | 32:41.39 | 2:40.71 | 147114 | 159184
16 | 35:22.35 | 2:49.25 | 159185 | 171884
17 | 38:11.60 | 2:01.72 | 171885 | 181031
18 | 40:13.57 | 3:40.14 | 181032 | 197545
19 | 43:53.71 | 1:54.57 | 197546 | 206152
20 | 45:48.53 | 4:35.66 | 206153 | 226843
21 | 50:24.44 | 2:24.06 | 226844 | 237649
22 | 52:48.50 | 0:37.23 | 237650 | 240447
23 | 53:25.73 | 2:45.24 | 240448 | 252846
24 | 56:11.22 | 2:58.28 | 252847 | 266224
25 | 59:09.50 | 3:06.63 | 266225 | 280237
26 | 62:16.38 | 2:45.18 | 280238 | 292630
27 | 65:01.56 | 4:16.72 | 292631 | 311902
28 | 69:18.53 | 2:45.57 | 311903 | 324334
29 | 72:04.35 | 5:15.06 | 324335 | 347965


Range status and errors

Selected range

Filename U:\EAC Rips\GREEK\Yiannis Markopoulos\Yiannis Markopoulos - Thessalikos Kyklos\Various - Yiannis Markopoulos Thesalikos Kyklos.wav

Peak level 96.5 %
Extraction speed 0.4 X
Range quality 100.0 %
Test CRC CF800FE9
Copy CRC CF800FE9
Copy OK

No errors occurred


AccurateRip summary

Track 1 not present in database
Track 2 not present in database
Track 3 not present in database
Track 4 not present in database
Track 5 not present in database
Track 6 not present in database
Track 7 not present in database
Track 8 not present in database
Track 9 not present in database
Track 10 not present in database
Track 11 not present in database
Track 12 not present in database
Track 13 not present in database
Track 14 not present in database
Track 15 not present in database
Track 16 not present in database
Track 17 not present in database
Track 18 not present in database
Track 19 not present in database
Track 20 not present in database
Track 21 not present in database
Track 22 not present in database
Track 23 not present in database
Track 24 not present in database
Track 25 not present in database
Track 26 not present in database
Track 27 not present in database
Track 28 not present in database
Track 29 not present in database

None of the tracks are present in the AccurateRip database

End of status report

==== Log checksum B3D35E0686AB75288C72A2FB28151E57E4A846D3D197A38229B82D98D03B9E67 ====