Subcategories

Dweezil Zappa - Zappa Plays Zappa (2008) [3CD+2DVD] {Deluxe Edition, Muppy Productions} [combined repost]

Posted By: ruskaval
Dweezil Zappa - Zappa Plays Zappa (2008) [3CD+2DVD] {Deluxe Edition, Muppy Productions} [combined repost]

Dweezil Zappa - Zappa Plays Zappa (2008) [3CD+2DVD] {Deluxe Edition, Muppy Productions}
EAC rip (secure mode) | FLAC (tracks)+CUE+LOG -> 1.36 Gb | MP3 @320 -> 485 Mb
2xDVD9 -> 14.1 Gb | All Regions | NTSC 16:9 | English (PCM, 2 ch / Dolby AC3, 6 ch) | ~ 3h 48m | ISO Images
Full Artwork @ 300 dpi (png) -> 100 Mb | 5% repair rar
© 2008 Muppy Productions / Strobosonic / ZFT / Razor & Tie | 7930182995-2
Rock / Experimental Rock / Jazz Rock / Live Performances

This collection brilliantly commemorates the critically-acclaimed 2006 concerts which presented a collection of Zappa's rock-oriented compositions from the 1960s through the 1980s: this 2 DVD/3 CD set is a tour de force of rock guitar virtuosity. Filmed in Portland and Seattle, this set is a guitarist's dream come true. Featuring Dweezil Zappa with Terry Bozzio and Steve Vai, a dash of Frank Zappa's social commentary and wit, this set is a document like no other available! Also featured are a mix of musicians who previously played with Frank Zappa including Mothers of Invention member Napoleon Murphy Brock. In addition, Zappa himself performs posthumously via synchronized A/V technology.
Recorded live at two shows, one in Portland and the other in Seattle, this concert film captures two dynamic and unforgettable performances from a tour featuring Dweezil Zappa playing hits from his father's extensive catalogue. Along for the ride were fellow musicians Joe Travers, Pete Griffin, and many other talented players who not only capture the spirit of Frank Zappa's tunes, but also reinterpret them for a new generation of fans. Also included here is an interview with Dweezil Zappa where he discusses the impetus for the project and where it might stand in relation to the body of work produced by his prodigious father.
Can't say enough about this. The concert footage is over four hours long, fast paced and entertaining. The band is well rehearsed and very talented. The production is great, many different camera angles that are edited to perfection. The recorded audio sounds fantastic and makes your surround system come alive. Lots of content to digest that will take many viewings just to get it. This is a keeper. I didn't think Dweezil could pull this off. I was prepared for the worse, knowing the standard that comes with trying to play Frank's music. Well the music is great along with the sound in 5.1 surround. Sit back ,turn it up and enjoy.

Personnel:
Terry Bozzio - drums
Steve Vai - guitar
Dweezil Zappa - vocals, guitar
Joe Travers - vocals, drums
Aaron Arntz - vocals, trumpet, keyboards
Billy Hulting - percussion
Jamie Kime - vocals, guitar
Pete Griffin - vocals, bass guitar
Scheila Gonzales - vocals, flute, saxophone, keyboards

tracklist:
CD1

01. Intro
02. Andy
03. Call Any Vegetable
04. Tell Me You Love Me
05. Florentine Pogen
06. Cosmik Debris
07. I'm The Slime
08. Pound For A Brown
09. Don't Eat The Yellow Snow
10. St. Alfonzo's Pancake Breakfast
11. Father O'blivion

CD2
01. Inca Roads
02. Eat That Question
03. I'm So Cute
04. Tryin' To Grow A Chin
05. Punky's Whips
06. The Black Page #1
07. The Black Page #2
08. Re-Gyptian Strut
09. Peaches En Regalia
10. Montana
11. Village Of The Sun
12. Echidna's Arf (Of You)

CD3
01. Zomby Woof
02. Black Napkins
03. The Torture Never Stops
04. Oh No
05. Son Of Orange County
06. Trouble Every Day
07. Sofa
08. Cheepnis

DVD1
01. Andy
02. Coll Any Vegetable
03. Tell Me You Love Me
04. Fiorentine Pogen
05. Cosmic Debris
06. I'm The Slime
07. Pound For A Brown
08. Don't Eat The Yellow Snow
09. St.Alfonso's Pancake Breakfast
10. Father O'Blivion
11. Inca Roads
12. Eat That Question
13. I'm So Cute
14. Tryin To Grow A Chin
15. Punky's Whips

DVD2
01. Black Page #1
02. Black Page #2
03. Regyption Strut
04. Peaches En Regalia
05. Montana
06. Village Of The Sun
07. Echidna's Art (Of You)
08. Zomby Woof
09. Black Napkins
10. The Torture Never Stops
11. Oh No
12. Son Of Orange County
13. Trouble Every Day
14. Sofa
* Bonus Material

Exact Audio Copy V0.99 prebeta 5 from 4. May 2009

EAC extraction logfile from 12. September 2009, 22:38

Dweezil Zappa / Zappa Plays Zappa - CD 1

Used drive : PIONEER DVD-RW DVR-111L Adapter: 3 ID: 0

Read mode : Secure
Utilize accurate stream : Yes
Defeat audio cache : Yes
Make use of C2 pointers : No

Read offset correction : 48
Overread into Lead-In and Lead-Out : No
Fill up missing offset samples with silence : Yes
Delete leading and trailing silent blocks : No
Null samples used in CRC calculations : Yes
Used interface : Native Win32 interface for Win NT & 2000
Gap handling : Appended to previous track

Used output format : User Defined Encoder
Selected bitrate : 1024 kBit/s
Quality : High
Add ID3 tag : No
Command line compressor : C:\Program Files\FLAC\flac.exe
Additional command line options : -8 -V -T "ARTIST=%a" -T "TITLE=%t" -T "ALBUM=%g" -T "DATE=%y" -T "TRACKNUMBER=%n" -T "GENRE=%m" -T "COMMENT=EAC FLAC -8" %s


TOC of the extracted CD

Track | Start | Length | Start sector | End sector
––––––––––––––––––––––––––––-
1 | 0:00.00 | 1:43.00 | 0 | 7724
2 | 1:43.00 | 6:20.40 | 7725 | 36264
3 | 8:03.40 | 7:21.45 | 36265 | 69384
4 | 15:25.10 | 2:43.20 | 69385 | 81629
5 | 18:08.30 | 9:53.55 | 81630 | 126159
6 | 28:02.10 | 5:51.65 | 126160 | 152549
7 | 33:54.00 | 5:16.70 | 152550 | 176319
8 | 39:10.70 | 16:07.05 | 176320 | 248849
9 | 55:18.00 | 2:12.08 | 248850 | 258757
10 | 57:30.08 | 1:51.04 | 258758 | 267086
11 | 59:21.12 | 3:25.16 | 267087 | 282477


Track 1

Filename C:\Dweezil Zappa - Zappa Plays Zappa (2008) [3CD] {Deluxe Edition}\CD1\01 - Intro.wav

Pre-gap length 0:00:02.00

Peak level 100.0 %
Track quality 100.0 %
Test CRC E8730133
Copy CRC E8730133
Accurately ripped (confidence 9) [5721FABC]
Copy OK

Track 2

Filename C:\Dweezil Zappa - Zappa Plays Zappa (2008) [3CD] {Deluxe Edition}\CD1\02 - Andy.wav

Peak level 100.0 %
Track quality 99.9 %
Test CRC AF6D46F0
Copy CRC AF6D46F0
Accurately ripped (confidence 9) [BADEF43A]
Copy OK

Track 3

Filename C:\Dweezil Zappa - Zappa Plays Zappa (2008) [3CD] {Deluxe Edition}\CD1\03 - Call Any Vegetable.wav

Peak level 99.9 %
Track quality 100.0 %
Test CRC 59E9368C
Copy CRC 59E9368C
Accurately ripped (confidence 9) [BAC9E827]
Copy OK

Track 4

Filename C:\Dweezil Zappa - Zappa Plays Zappa (2008) [3CD] {Deluxe Edition}\CD1\04 - Tell Me You Love Me.wav

Peak level 100.0 %
Track quality 100.0 %
Test CRC 316D5F01
Copy CRC 316D5F01
Accurately ripped (confidence 9) [57565DE6]
Copy OK

Track 5

Filename C:\Dweezil Zappa - Zappa Plays Zappa (2008) [3CD] {Deluxe Edition}\CD1\05 - Florentine Pogen.wav

Peak level 100.0 %
Track quality 99.9 %
Test CRC 0E5E5C1F
Copy CRC 0E5E5C1F
Accurately ripped (confidence 9) [FE9C03EE]
Copy OK

Track 6

Filename C:\Dweezil Zappa - Zappa Plays Zappa (2008) [3CD] {Deluxe Edition}\CD1\06 - Cosmik Debris.wav

Peak level 100.0 %
Track quality 100.0 %
Test CRC 730F4F08
Copy CRC 730F4F08
Accurately ripped (confidence 9) [8BDED214]
Copy OK

Track 7

Filename C:\Dweezil Zappa - Zappa Plays Zappa (2008) [3CD] {Deluxe Edition}\CD1\07 - I'm The Slime.wav

Peak level 100.0 %
Track quality 100.0 %
Test CRC 8FACD885
Copy CRC 8FACD885
Accurately ripped (confidence 9) [06565461]
Copy OK

Track 8

Filename C:\Dweezil Zappa - Zappa Plays Zappa (2008) [3CD] {Deluxe Edition}\CD1\08 - Pound For A Brown.wav

Peak level 100.0 %
Track quality 100.0 %
Test CRC B75D54F7
Copy CRC B75D54F7
Accurately ripped (confidence 8) [D9B67F33]
Copy OK

Track 9

Filename C:\Dweezil Zappa - Zappa Plays Zappa (2008) [3CD] {Deluxe Edition}\CD1\09 - Don't Eat The Yellow Snow.wav

Peak level 100.0 %
Track quality 100.0 %
Test CRC 1DB2BE90
Copy CRC 1DB2BE90
Accurately ripped (confidence 9) [3B4F4BE2]
Copy OK

Track 10

Filename C:\Dweezil Zappa - Zappa Plays Zappa (2008) [3CD] {Deluxe Edition}\CD1\10 - St. Alfonzo's Pancake Breakfast.wav

Peak level 100.0 %
Track quality 100.0 %
Test CRC A7A73536
Copy CRC A7A73536
Accurately ripped (confidence 9) [F57F6D39]
Copy OK

Track 11

Filename C:\Dweezil Zappa - Zappa Plays Zappa (2008) [3CD] {Deluxe Edition}\CD1\11 - Father O'Blivion.wav

Peak level 100.0 %
Track quality 99.9 %
Test CRC AB323EAA
Copy CRC AB323EAA
Accurately ripped (confidence 8) [085DEFA6]
Copy OK


All tracks accurately ripped

No errors occurred

End of status report

Exact Audio Copy V0.99 prebeta 5 from 4. May 2009

EAC extraction logfile from 12. September 2009, 22:54

Dweezil Zappa / Zappa Plays Zappa - CD2

Used drive : PIONEER DVD-RW DVR-111L Adapter: 3 ID: 0

Read mode : Secure
Utilize accurate stream : Yes
Defeat audio cache : Yes
Make use of C2 pointers : No

Read offset correction : 48
Overread into Lead-In and Lead-Out : No
Fill up missing offset samples with silence : Yes
Delete leading and trailing silent blocks : No
Null samples used in CRC calculations : Yes
Used interface : Native Win32 interface for Win NT & 2000
Gap handling : Appended to previous track

Used output format : User Defined Encoder
Selected bitrate : 1024 kBit/s
Quality : High
Add ID3 tag : No
Command line compressor : C:\Program Files\FLAC\flac.exe
Additional command line options : -8 -V -T "ARTIST=%a" -T "TITLE=%t" -T "ALBUM=%g" -T "DATE=%y" -T "TRACKNUMBER=%n" -T "GENRE=%m" -T "COMMENT=EAC FLAC -8" %s


TOC of the extracted CD

Track | Start | Length | Start sector | End sector
––––––––––––––––––––––––––––-
1 | 0:00.00 | 14:42.30 | 0 | 66179
2 | 14:42.30 | 10:38.68 | 66180 | 114097
3 | 25:21.23 | 3:04.16 | 114098 | 127913
4 | 28:25.39 | 3:39.01 | 127914 | 144339
5 | 32:04.40 | 11:14.59 | 144340 | 194948
6 | 43:19.24 | 2:05.00 | 194949 | 204323
7 | 45:24.24 | 4:00.55 | 204324 | 222378
8 | 49:25.04 | 4:17.15 | 222379 | 241668
9 | 53:42.19 | 3:15.54 | 241669 | 256347
10 | 56:57.73 | 7:14.17 | 256348 | 288914
11 | 64:12.15 | 3:16.57 | 288915 | 303671
12 | 67:28.72 | 4:20.54 | 303672 | 323225


Track 1

Filename C:\Dweezil Zappa - Zappa Plays Zappa (2008) [3CD] {Deluxe Edition}\CD2\01 - Inca Roads.wav

Pre-gap length 0:00:02.00

Peak level 100.0 %
Track quality 100.0 %
Test CRC 30761C21
Copy CRC 30761C21
Accurately ripped (confidence 9) [116CCE21]
Copy OK

Track 2

Filename C:\Dweezil Zappa - Zappa Plays Zappa (2008) [3CD] {Deluxe Edition}\CD2\02 - Eat That Question.wav

Peak level 100.0 %
Track quality 99.9 %
Test CRC 6F086049
Copy CRC 6F086049
Accurately ripped (confidence 9) [07ED8698]
Copy OK

Track 3

Filename C:\Dweezil Zappa - Zappa Plays Zappa (2008) [3CD] {Deluxe Edition}\CD2\03 - I'm So Cute.wav

Peak level 100.0 %
Track quality 100.0 %
Test CRC 1A8DF375
Copy CRC 1A8DF375
Accurately ripped (confidence 9) [816FB7AC]
Copy OK

Track 4

Filename C:\Dweezil Zappa - Zappa Plays Zappa (2008) [3CD] {Deluxe Edition}\CD2\04 - Tryin' To Grow A Chin.wav

Peak level 100.0 %
Track quality 100.0 %
Test CRC F1D4729D
Copy CRC F1D4729D
Accurately ripped (confidence 9) [B9C18660]
Copy OK

Track 5

Filename C:\Dweezil Zappa - Zappa Plays Zappa (2008) [3CD] {Deluxe Edition}\CD2\05 - Punky's Whips.wav

Peak level 100.0 %
Track quality 100.0 %
Test CRC A021C5D2
Copy CRC A021C5D2
Accurately ripped (confidence 9) [69554A66]
Copy OK

Track 6

Filename C:\Dweezil Zappa - Zappa Plays Zappa (2008) [3CD] {Deluxe Edition}\CD2\06 - The Black Page #1.wav

Peak level 100.0 %
Track quality 100.0 %
Test CRC EB25096C
Copy CRC EB25096C
Accurately ripped (confidence 9) [040A0949]
Copy OK

Track 7

Filename C:\Dweezil Zappa - Zappa Plays Zappa (2008) [3CD] {Deluxe Edition}\CD2\07 - The Black Page #2.wav

Peak level 100.0 %
Track quality 99.9 %
Test CRC 2E3CA478
Copy CRC 2E3CA478
Accurately ripped (confidence 9) [D3ABBA61]
Copy OK

Track 8

Filename C:\Dweezil Zappa - Zappa Plays Zappa (2008) [3CD] {Deluxe Edition}\CD2\08 - Re-Gyptian Strut.wav

Peak level 99.9 %
Track quality 100.0 %
Test CRC 2564C0FA
Copy CRC 2564C0FA
Accurately ripped (confidence 9) [1A6B082E]
Copy OK

Track 9

Filename C:\Dweezil Zappa - Zappa Plays Zappa (2008) [3CD] {Deluxe Edition}\CD2\09 - Peaches En Regalia.wav

Peak level 100.0 %
Track quality 100.0 %
Test CRC 08082604
Copy CRC 08082604
Accurately ripped (confidence 9) [BC5063EF]
Copy OK

Track 10

Filename C:\Dweezil Zappa - Zappa Plays Zappa (2008) [3CD] {Deluxe Edition}\CD2\10 - Montana.wav

Peak level 100.0 %
Track quality 100.0 %
Test CRC D8BCE953
Copy CRC D8BCE953
Accurately ripped (confidence 9) [3B2C8B02]
Copy OK

Track 11

Filename C:\Dweezil Zappa - Zappa Plays Zappa (2008) [3CD] {Deluxe Edition}\CD2\11 - Village Of The Sun.wav

Peak level 99.9 %
Track quality 100.0 %
Test CRC 4A944C21
Copy CRC 4A944C21
Accurately ripped (confidence 9) [DD5A3E3B]
Copy OK

Track 12

Filename C:\Dweezil Zappa - Zappa Plays Zappa (2008) [3CD] {Deluxe Edition}\CD2\12 - Echidna's Arf (Of You).wav

Peak level 100.0 %
Track quality 100.0 %
Test CRC EA053529
Copy CRC EA053529
Accurately ripped (confidence 8) [B8EE17F8]
Copy OK


All tracks accurately ripped

No errors occurred

End of status report

Exact Audio Copy V0.99 prebeta 5 from 4. May 2009

EAC extraction logfile from 12. September 2009, 23:07

Dweezil Zappa / Zappa Plays Zappa - CD 3

Used drive : PIONEER DVD-RW DVR-111L Adapter: 3 ID: 0

Read mode : Secure
Utilize accurate stream : Yes
Defeat audio cache : Yes
Make use of C2 pointers : No

Read offset correction : 48
Overread into Lead-In and Lead-Out : No
Fill up missing offset samples with silence : Yes
Delete leading and trailing silent blocks : No
Null samples used in CRC calculations : Yes
Used interface : Native Win32 interface for Win NT & 2000
Gap handling : Appended to previous track

Used output format : User Defined Encoder
Selected bitrate : 1024 kBit/s
Quality : High
Add ID3 tag : No
Command line compressor : C:\Program Files\FLAC\flac.exe
Additional command line options : -8 -V -T "ARTIST=%a" -T "TITLE=%t" -T "ALBUM=%g" -T "DATE=%y" -T "TRACKNUMBER=%n" -T "GENRE=%m" -T "COMMENT=EAC FLAC -8" %s


TOC of the extracted CD

Track | Start | Length | Start sector | End sector
––––––––––––––––––––––––––––-
1 | 0:00.00 | 7:23.70 | 0 | 33294
2 | 7:23.70 | 4:14.00 | 33295 | 52344
3 | 11:37.70 | 12:49.35 | 52345 | 110054
4 | 24:27.30 | 1:42.35 | 110055 | 117739
5 | 26:09.65 | 6:07.25 | 117740 | 145289
6 | 32:17.15 | 27:55.30 | 145290 | 270944
7 | 60:12.45 | 3:19.65 | 270945 | 285934
8 | 63:32.35 | 4:46.43 | 285935 | 307427


Track 1

Filename C:\Dweezil Zappa - Zappa Plays Zappa (2008) [3CD] {Deluxe Edition}\CD3\01 - Zomby Woof.wav

Pre-gap length 0:00:02.00

Peak level 100.0 %
Track quality 100.0 %
Test CRC A953A43A
Copy CRC A953A43A
Accurately ripped (confidence 9) [6B3762AF]
Copy OK

Track 2

Filename C:\Dweezil Zappa - Zappa Plays Zappa (2008) [3CD] {Deluxe Edition}\CD3\02 - Black Napkins.wav

Peak level 100.0 %
Track quality 99.9 %
Test CRC 7476906F
Copy CRC 7476906F
Accurately ripped (confidence 9) [844AC3F4]
Copy OK

Track 3

Filename C:\Dweezil Zappa - Zappa Plays Zappa (2008) [3CD] {Deluxe Edition}\CD3\03 - The Torture Never Stops.wav

Peak level 100.0 %
Track quality 100.0 %
Test CRC FBA2C04E
Copy CRC FBA2C04E
Accurately ripped (confidence 9) [E074493B]
Copy OK

Track 4

Filename C:\Dweezil Zappa - Zappa Plays Zappa (2008) [3CD] {Deluxe Edition}\CD3\04 - Oh No.wav

Peak level 99.7 %
Track quality 100.0 %
Test CRC DF1D1454
Copy CRC DF1D1454
Accurately ripped (confidence 9) [63A8CEB9]
Copy OK

Track 5

Filename C:\Dweezil Zappa - Zappa Plays Zappa (2008) [3CD] {Deluxe Edition}\CD3\05 - Son Of Orange County.wav

Peak level 100.0 %
Track quality 100.0 %
Test CRC 11D72AF7
Copy CRC 11D72AF7
Accurately ripped (confidence 9) [53BE710E]
Copy OK

Track 6

Filename C:\Dweezil Zappa - Zappa Plays Zappa (2008) [3CD] {Deluxe Edition}\CD3\06 - Trouble Every Day.wav

Peak level 100.0 %
Track quality 100.0 %
Test CRC 4F0D06C8
Copy CRC 4F0D06C8
Accurately ripped (confidence 9) [C0D26ABD]
Copy OK

Track 7

Filename C:\Dweezil Zappa - Zappa Plays Zappa (2008) [3CD] {Deluxe Edition}\CD3\07 - Sofa.wav

Peak level 97.8 %
Track quality 100.0 %
Test CRC 7DAECC92
Copy CRC 7DAECC92
Accurately ripped (confidence 9) [5D854E66]
Copy OK

Track 8

Filename C:\Dweezil Zappa - Zappa Plays Zappa (2008) [3CD] {Deluxe Edition}\CD3\08 - Cheepnis.wav

Peak level 100.0 %
Track quality 99.9 %
Test CRC F7BAE51B
Copy CRC F7BAE51B
Accurately ripped (confidence 9) [AEE2913E]
Copy OK


All tracks accurately ripped

No errors occurred

End of status report


Dweezil Zappa - Zappa Plays Zappa (2008) [3CD+2DVD] {Deluxe Edition, Muppy Productions} [combined repost]

Dweezil Zappa - Zappa Plays Zappa (2008) [3CD+2DVD] {Deluxe Edition, Muppy Productions} [combined repost]

Dweezil Zappa - Zappa Plays Zappa (2008) [3CD+2DVD] {Deluxe Edition, Muppy Productions} [combined repost]

Dweezil Zappa - Zappa Plays Zappa (2008) [3CD+2DVD] {Deluxe Edition, Muppy Productions} [combined repost]

Dweezil Zappa - Zappa Plays Zappa (2008) [3CD+2DVD] {Deluxe Edition, Muppy Productions} [combined repost]

Dweezil Zappa - Zappa Plays Zappa (2008) [3CD+2DVD] {Deluxe Edition, Muppy Productions} [combined repost]