Subcategories

The Zombies - Greatest Hits 1964-1968 (2002)

Posted By: L@ter
The Zombies - Greatest Hits 1964-1968 (2002)

The Zombies - Greatest Hits 1964-1968 (2002)
EAC Rip | FLAC, IMG+CUE, LOG | 242 MB | 48,55 min | Covers
Label: Morada Music (London) 2002 | Pop, Beat | SACD | RAR 3% Rec.

The Zombies are an English rock band. Formed in 1959 in St Albans and led by Rod Argent on piano and Colin Blunstone on vocals, the band scored US hits in the mid- and late-1960s with "She's Not There", "Tell Her No", and "Time of the Season". Their 1968 album Odessey and Oracle, comprising twelve songs by the group's principal songwriters, Argent and Chris White, is now considered one of the best of its time and is ranked 80 on Rolling Stone magazine's list of the 500 Greatest Albums of All Time. The group formed in 1959 in St Albans, England, and gained their initial reputation playing the Old Verulamians Rugby Club in that city. The group was formed while the members were at school. Some sources state that Argent, Atkinson and Grundy were at St Albans School, while Blunstone and White were students at St Albans Boys' Grammar School (since renamed Verulam School). James' father was the original drummer. more… Wikipedia
Line-up / Musicians

- Rod Argent - (organ, vocals and songwriting)
- Paul Atkinson - (guitar, vocals)
- Colin Blunstone - (lead vocals)
- Chris White - (bass, vocals and songwriting)
- Hugh Grundy - (drums)


Tracklist

01. She's Not There (stereo underdub)
02. I Can't Make Up My Mind (stereo)
03. Tell Her No (stereo)
04. You Make Me Feel Good (stereo)
05. Kind Of Girl (stereo)
06. Leave Me Be (stereo)
07. Sometimes
08. Don't Cry For Me
09. It's Alright With Me
10. I Don't Want To Know
11. I Love You (stereo)
12. Nothing's Changed (stereo)
13. I Remember When I Loved Her (stereo)
14. Indication (stereo)
15. Just Out Of Reach (stereo)
16. What More Can I Do
17. She Does Everything For Me (stereo)
18. Time Of The Season (stereo)
19. She's Not There (hit single version)
20. Time Of The Season (alternate mix)


Exact Audio Copy V0.99 prebeta 5 from 4. May 2009

EAC extraction logfile from 19. June 2010, 11:58

Zombies, The / Greatest Hits [2002 Audio Fidelity Hybrid SACD]

Used drive : HL-DT-STDVD-RAM GH22NP20 Adapter: 0 ID: 0

Read mode : Secure
Utilize accurate stream : Yes
Defeat audio cache : Yes
Make use of C2 pointers : No

Read offset correction : 102
Overread into Lead-In and Lead-Out : No
Fill up missing offset samples with silence : Yes
Delete leading and trailing silent blocks : No
Null samples used in CRC calculations : Yes
Used interface : Native Win32 interface for Win NT & 2000

Used output format : User Defined Encoder
Selected bitrate : 768 kBit/s
Quality : High
Add ID3 tag : No
Command line compressor : C:\Program Files\Exact Audio Copy\FLAC\FLAC.EXE
Additional command line options : -6 -V -T "ARTIST=%a" -T "TITLE=%t" -T "ALBUM=%g" -T "DATE=%y" -T "TRACKNUMBER=%n" -T "GENRE=%m" -T "COMMENT=%e" %s -o %d


TOC of the extracted CD

Track | Start | Length | Start sector | End sector
––––––––––––––––––––––––––––-
1 | 0:00.00 | 2:24.04 | 0 | 10803
2 | 2:24.04 | 2:38.35 | 10804 | 22688
3 | 5:02.39 | 2:08.51 | 22689 | 32339
4 | 7:11.15 | 2:39.24 | 32340 | 44288
5 | 9:50.39 | 2:11.58 | 44289 | 54171
6 | 12:02.22 | 2:08.50 | 54172 | 63821
7 | 14:10.72 | 2:05.27 | 63822 | 73223
8 | 16:16.24 | 2:12.67 | 73224 | 83190
9 | 18:29.16 | 1:51.48 | 83191 | 91563
10 | 20:20.64 | 2:07.40 | 91564 | 101128
11 | 22:28.29 | 3:13.21 | 101129 | 115624
12 | 25:41.50 | 2:32.14 | 115625 | 127038
13 | 28:13.64 | 2:01.07 | 127039 | 136120
14 | 30:14.71 | 3:02.55 | 136121 | 149825
15 | 33:17.51 | 2:09.51 | 149826 | 159551
16 | 35:27.27 | 1:38.70 | 159552 | 166971
17 | 37:06.22 | 2:18.34 | 166972 | 177355
18 | 39:24.56 | 3:33.40 | 177356 | 193370
19 | 42:58.21 | 2:24.46 | 193371 | 204216
20 | 45:22.67 | 3:32.43 | 204217 | 220159


Range status and errors

Selected range

Filename C:\Zombies, The - Greatest Hits [2002 Audio Fidelity Hybrid SACD].wav

Peak level 87.3 %
Range quality 99.9 %
Copy CRC EDD415AB
Copy OK

No errors occurred


AccurateRip summary

Track 1 cannot be verified as accurate (confidence 20) [32B8A07E], AccurateRip returned [43E6774E]
Track 2 cannot be verified as accurate (confidence 20) [BA30308B], AccurateRip returned [E09FB3B3]
Track 3 cannot be verified as accurate (confidence 20) [C3B6106C], AccurateRip returned [9B682DBC]
Track 4 cannot be verified as accurate (confidence 20) [83758120], AccurateRip returned [7A3A0FE8]
Track 5 cannot be verified as accurate (confidence 20) [D85F9DD0], AccurateRip returned [37A0D778]
Track 6 cannot be verified as accurate (confidence 20) [685B003A], AccurateRip returned [90F57472]
Track 7 cannot be verified as accurate (confidence 20) [EC2740FD], AccurateRip returned [D475EC1D]
Track 8 cannot be verified as accurate (confidence 20) [E6512B34], AccurateRip returned [41BEB5DC]
Track 9 cannot be verified as accurate (confidence 20) [48F3A551], AccurateRip returned [32658EB1]
Track 10 cannot be verified as accurate (confidence 20) [3A512976], AccurateRip returned [8755C29E]
Track 11 cannot be verified as accurate (confidence 20) [C76EE2D2], AccurateRip returned [86BCE51A]
Track 12 cannot be verified as accurate (confidence 20) [9DD05466], AccurateRip returned [CCC1A9A6]
Track 13 cannot be verified as accurate (confidence 20) [99788F64], AccurateRip returned [1D5013E4]
Track 14 cannot be verified as accurate (confidence 20) [73D760BD], AccurateRip returned [7EFE42F5]
Track 15 cannot be verified as accurate (confidence 20) [537EEAA6], AccurateRip returned [A0C60146]
Track 16 cannot be verified as accurate (confidence 20) [648D1FB5], AccurateRip returned [8A54E705]
Track 17 cannot be verified as accurate (confidence 20) [5C0670F6], AccurateRip returned [C8D29756]
Track 18 cannot be verified as accurate (confidence 20) [77329930], AccurateRip returned [12773A60]
Track 19 cannot be verified as accurate (confidence 20) [F98E3738], AccurateRip returned [318BFAF0]
Track 20 cannot be verified as accurate (confidence 20) [BC5A7E1A], AccurateRip returned [FDF4186A]

No tracks could be verified as accurate
You may have a different pressing from the one(s) in the database

End of status report


REM GENRE "Pop, Beat"
REM DATE 1971
REM DISCID 100B7714
REM COMMENT "ExactAudioCopy v0.99pb5"
PERFORMER "Zombies, The"
TITLE "Greatest Hits [2002 Audio Fidelity Hybrid SACD]"
FILE "Zombies, The - Greatest Hits [2002 Audio Fidelity Hybrid SACD].flac" WAVE
TRACK 01 AUDIO
TITLE "She's Not There"
PERFORMER "Zombies, The"
INDEX 01 00:00:00
TRACK 02 AUDIO
TITLE "I Can't Make Up My Mind"
PERFORMER "Zombies, The"
INDEX 01 02:24:04
TRACK 03 AUDIO
TITLE "Tell Her No"
PERFORMER "Zombies, The"
INDEX 01 05:02:39
TRACK 04 AUDIO
TITLE "You Make Me Feel Good"
PERFORMER "Zombies, The"
INDEX 01 07:11:15
TRACK 05 AUDIO
TITLE "Kind Of Girl"
PERFORMER "Zombies, The"
INDEX 01 09:50:39
TRACK 06 AUDIO
TITLE "Leave Me Be"
PERFORMER "Zombies, The"
INDEX 01 12:02:22
TRACK 07 AUDIO
TITLE "Sometimes"
PERFORMER "Zombies, The"
INDEX 01 14:10:72
TRACK 08 AUDIO
TITLE "Don't Cry For Me"
PERFORMER "Zombies, The"
INDEX 01 16:16:24
TRACK 09 AUDIO
TITLE "It's Alright With Me"
PERFORMER "Zombies, The"
INDEX 01 18:29:16
TRACK 10 AUDIO
TITLE "I Don't Want To Know"
PERFORMER "Zombies, The"
INDEX 01 20:20:64
TRACK 11 AUDIO
TITLE "I Love You"
PERFORMER "Zombies, The"
INDEX 01 22:28:29
TRACK 12 AUDIO
TITLE "Nothing's Changed"
PERFORMER "Zombies, The"
INDEX 01 25:41:50
TRACK 13 AUDIO
TITLE "I Remember When I Loved Her"
PERFORMER "Zombies, The"
INDEX 01 28:13:64
TRACK 14 AUDIO
TITLE "Indication"
PERFORMER "Zombies, The"
INDEX 01 30:14:71
TRACK 15 AUDIO
TITLE "Just Out Of Reach"
PERFORMER "Zombies, The"
INDEX 01 33:17:51
TRACK 16 AUDIO
TITLE "What More Can I Do"
PERFORMER "Zombies, The"
INDEX 01 35:27:27
TRACK 17 AUDIO
TITLE "She Does Everything For Me"
PERFORMER "Zombies, The"
INDEX 01 37:06:22
TRACK 18 AUDIO
TITLE "Time Of The Season"
PERFORMER "Zombies, The"
INDEX 01 39:24:56
TRACK 19 AUDIO
TITLE "She's Not There"
PERFORMER "Zombies, The"
INDEX 01 42:58:21
TRACK 20 AUDIO
TITLE "Time Of The Season"
PERFORMER "Zombies, The"
INDEX 01 45:22:67


RS.com - New Links 19 june 2010

Part 1  Part 2  Part 3