Subcategories

Zoot Sims - That Old Feeling (1956)

Posted By: intothe
Zoot Sims - That Old Feeling (1956)

Zoot Sims - That Old Feeling (1956)
Jazz | EAC rip (FLAC+CUE+LOG) | 274 MB | full scans
Chess | 65:10 | RAR with 5% recovery


Exact Audio Copy V0.99 prebeta 4 from 23. January 2008

EAC extraction logfile from 2. May 2009, 8:34

Zoot Sims Quartet / That Old Feeling

Used drive : _NEC DVD_RW ND-3500AG Adapter: 0 ID: 0

Read mode : Secure
Utilize accurate stream : Yes
Defeat audio cache : Yes
Make use of C2 pointers : No

Read offset correction : 48
Overread into Lead-In and Lead-Out : No
Fill up missing offset samples with silence : Yes
Delete leading and trailing silent blocks : No
Null samples used in CRC calculations : Yes
Used interface : Native Win32 interface for Win NT & 2000

Used output format : User Defined Encoder
Selected bitrate : 768 kBit/s
Quality : High
Add ID3 tag : No
Command line compressor : C:\Program Files\Exact Audio Copy\FLAC\FLAC.EXE
Additional command line options : -6 -V -T "ARTIST=%a" -T "TITLE=%t" -T "ALBUM=%g" -T "DATE=%y" -T "TRACKNUMBER=%n" -T "GENRE=%m" -T "COMMENT=%e" %s -o %d


TOC of the extracted CD

Track | Start | Length | Start sector | End sector
––––––––––––––––––––––––––––-
1 | 0:00.32 | 4:57.23 | 32 | 22329
2 | 4:57.55 | 5:17.55 | 22330 | 46159
3 | 10:15.35 | 4:46.05 | 46160 | 67614
4 | 15:01.40 | 5:11.65 | 67615 | 91004
5 | 20:13.30 | 3:37.37 | 91005 | 107316
6 | 23:50.67 | 4:27.73 | 107317 | 127414
7 | 28:18.65 | 5:38.17 | 127415 | 152781
8 | 33:57.07 | 5:25.20 | 152782 | 177176
9 | 39:22.27 | 4:39.00 | 177177 | 198101
10 | 44:01.27 | 3:46.30 | 198102 | 215081
11 | 47:47.57 | 5:50.03 | 215082 | 241334
12 | 53:37.60 | 3:29.15 | 241335 | 257024
13 | 57:07.00 | 4:05.45 | 257025 | 275444
14 | 61:12.45 | 3:58.50 | 275445 | 293344


Range status and errors

Selected range

Filename J:\eMusic\Rip\Zoot Sims Quartet - That Old Feeling.wav

Copy aborted

End of status report

––––––––––––––––––––––––––––––

Exact Audio Copy V0.99 prebeta 4 from 23. January 2008

EAC extraction logfile from 2. May 2009, 9:20

Zoot Sims Quartet / That Old Feeling

Used drive : _NEC DVD_RW ND-3500AG Adapter: 0 ID: 0

Read mode : Secure
Utilize accurate stream : Yes
Defeat audio cache : Yes
Make use of C2 pointers : No

Read offset correction : 48
Overread into Lead-In and Lead-Out : No
Fill up missing offset samples with silence : Yes
Delete leading and trailing silent blocks : No
Null samples used in CRC calculations : Yes
Used interface : Native Win32 interface for Win NT & 2000

Used output format : User Defined Encoder
Selected bitrate : 768 kBit/s
Quality : High
Add ID3 tag : No
Command line compressor : C:\Program Files\Exact Audio Copy\FLAC\FLAC.EXE
Additional command line options : -6 -V -T "ARTIST=%a" -T "TITLE=%t" -T "ALBUM=%g" -T "DATE=%y" -T "TRACKNUMBER=%n" -T "GENRE=%m" -T "COMMENT=%e" %s -o %d


TOC of the extracted CD

Track | Start | Length | Start sector | End sector
––––––––––––––––––––––––––––-
1 | 0:00.32 | 4:57.23 | 32 | 22329
2 | 4:57.55 | 5:17.55 | 22330 | 46159
3 | 10:15.35 | 4:46.05 | 46160 | 67614
4 | 15:01.40 | 5:11.65 | 67615 | 91004
5 | 20:13.30 | 3:37.37 | 91005 | 107316
6 | 23:50.67 | 4:27.73 | 107317 | 127414
7 | 28:18.65 | 5:38.17 | 127415 | 152781
8 | 33:57.07 | 5:25.20 | 152782 | 177176
9 | 39:22.27 | 4:39.00 | 177177 | 198101
10 | 44:01.27 | 3:46.30 | 198102 | 215081
11 | 47:47.57 | 5:50.03 | 215082 | 241334
12 | 53:37.60 | 3:29.15 | 241335 | 257024
13 | 57:07.00 | 4:05.45 | 257025 | 275444
14 | 61:12.45 | 3:58.50 | 275445 | 293344


Range status and errors

Selected range

Filename J:\eMusic\Rip\Zoot Sims Quartet - That Old Feeling.wav

Peak level 100.0 %
Range quality 99.6 %
Copy CRC 0A5E4783
Copy OK

No errors occurred


AccurateRip summary

Track 1 not present in database
Track 2 not present in database
Track 3 not present in database
Track 4 not present in database
Track 5 not present in database
Track 6 not present in database
Track 7 not present in database
Track 8 not present in database
Track 9 not present in database
Track 10 not present in database
Track 11 not present in database
Track 12 not present in database
Track 13 not present in database
Track 14 not present in database

None of the tracks are present in the AccurateRip database

End of status report


This is the swinging, lyrical Zoot at his best. This CD features two 1956 albums recorded three weeks apart with the same personnel. The first eight tracks constitute the first of those albums, with Zoot on tenor for all but "Bohemia After Dark," which was the first recording he made on alto. These selections are a great bunch of swingers, except for the ballad "The Man I Love," which some consider his finest, most sensitive rendition of this tune. The last six tracks show an innovative side of Zoot, originally released as the album "Zoot Sims plays Alto, Tenor, and Baritone." Five of the tracks use overdubbing to create a three-sax section that's all Zoot. These are fun arrangements that come together very well considering the then-primitive state of what we now call multi-tracking. The liner notes claim that this is the only recording Zoot made on baritone. (The remaining track from this session, "The Trouble With Me Is You," is a gorgeous ballad performed on tenor.) If you want your collection to properly represent the best of this jazz legend, I recommend picking up this CD and Zoot's 1975 album "Zoot Sims and the Gershwin Brothers." - by James A. Vedda, Amazon.com

Tracks:
1. 9:20 Special (Earl Warren) 4:57
2. The Man I Love (George Gershwin/Ira Gerschwin) 5:17
3. 55th and State (Zoot Sims) 4:46
4. The Blue Room (Lorentz Hart/Richard Rodgers) 5:11
5. Bohemia After Dark (Oscar Pettiford) 3:37
6. Gus's Blues (Gus Johnson) 4:27
7. That Old Feeling (Les Brown/Sammy Fain) 5:38
8. Woodyn' You (Dizzy Gillespie) 5:25
9. Blinuet (George Handy) 4:39
10. The Trouble With Me Is You (Jack Segal/George Handy) 3:46
11. Zonkin' (George Handy) 5:50
12. Noshin' (George Handy) 3:29
13. Minor-Minor (Flo Handy) 4:05
14. Pegasus (George Handy) 3:58

Personnel:
Zoot Sims (Tenor, Alto and Baritone Saxophone)
John Williams (Piano)
Nabil "Knobby" Totah (Double Bass)
Gus Johnson (Drums)

Dlink