Poco - Head Over Heels (1975)

Poco - Head Over Heels (1975)

Poco - Head Over Heels (1975)
XLD Rip | FLAC: Tracks+Cue+Log | 222 Mb | MP3 CBR 320 kbps | 88 Mb | Scans | Time: 36:28
Genre: Rock, Country Rock | Label: MCA Records | Cat.: MCAD-31327

Head over Heels is the ninth album by the country rock band Poco, and their first on ABC Records. Schmit's "Keep On Tryin'" shows off the band's skills in harmonizing and became a cut that the band played in concert for many years. It also contains Rusty Young performing his first lead vocal on a Poco album on the track "Us", and a recording of the rare Steely Dan song "Dallas".

Poco - Head Over Heels (1975)




Poco - Head Over Heels (1975)


Track Listing

01. Keep On Tryin' (2:53)
02. Lovin' Arms (3:27)
03. Let Me Turn Back To You (3:37)
04. Makin' Love (2:59)
05. Down In The Quarter (4:32)
06. Sittin' On A Fence (3:32)
07. Georgia Bind My Ties (3:26)
08. Us (1:56)
09. Flyin' Solo (3:37)
10. Dallas (3:28)
11. I'll Be Back Again (3:01)

Produced by Poco and Mark Harman

The Band

• Paul Cotton - guitar, vocals
• Rusty Young - steel guitar, guitar, vocals
• Timothy B. Schmit - bass, vocals
• George Grantham - drums, vocals

• Donald Fagen - synthesizer
• Victor Feldman, Steve Forman & Milt Holland - percussion
• Al Garth - violin
• Mark Henry Harman - keyboards, piano, cello
• Jimmie Haskell - strings
• Garth Hudson - keyboards
• Michael Von Verdick - vocals

X Lossless Decoder version 20090910 (109.7)

XLD extraction logfile from 2009-09-15 23:55:38 -0500

Poco / Head Over Heals

Used drive : MATSHITA DVD-R UJ-868 (revision KA19)

Use cdparanoia mode : YES (CDParanoia III 10.2 engine)
Disable audio cache : OK for the drive with cache less than 2750KB
Make use of C2 pointers : NO
Read offset correction : 102
Max retry count : 100

TOC of the extracted CD
Track | Start | Length | Start sector | End sector
––––––––––––––––––––––––––––-
1 | 00:00:32 | 02:52:45 | 32 | 12976
2 | 02:53:02 | 03:27:03 | 12977 | 28504
3 | 06:20:05 | 03:37:02 | 28505 | 44781
4 | 09:57:07 | 02:59:20 | 44782 | 58226
5 | 12:56:27 | 04:32:33 | 58227 | 78659
6 | 17:28:60 | 03:32:12 | 78660 | 94571
7 | 21:00:72 | 03:26:48 | 94572 | 110069
8 | 24:27:45 | 01:56:25 | 110070 | 118794
9 | 26:23:70 | 03:37:07 | 118795 | 135076
10 | 30:01:02 | 03:28:08 | 135077 | 150684
11 | 33:29:10 | 03:01:10 | 150685 | 164269

Track 01
Filename : /Users/andrew/Music/XLD encodes/Poco - 1975 - Head Over Heels (FLAC)/01 Poco - Keep On Trying.flac

CRC32 hash (test run) : 5B343BB9
CRC32 hash : 5B343BB9
CRC32 hash (skip zero) : 48F10739
AccurateRip signature : 80A2FF52
->Accurately ripped! (confidence 2)
Statistics
Read error : 0
Skipped (treated as error) : 0
Edge jitter error (maybe fixed) : 0
Atom jitter error (maybe fixed) : 0
Drift error (maybe fixed) : 0
Dropped bytes error (maybe fixed) : 0
Duplicated bytes error (maybe fixed) : 0
Inconsistency in error sectors : 0

Track 02
Filename : /Users/andrew/Music/XLD encodes/Poco - 1975 - Head Over Heels (FLAC)/02 Poco - Lovin' Arms.flac

CRC32 hash (test run) : CC2317BA
CRC32 hash : CC2317BA
CRC32 hash (skip zero) : CF2BC2D5
AccurateRip signature : C99A40EC
->Accurately ripped! (confidence 2)
Statistics
Read error : 0
Skipped (treated as error) : 0
Edge jitter error (maybe fixed) : 0
Atom jitter error (maybe fixed) : 0
Drift error (maybe fixed) : 0
Dropped bytes error (maybe fixed) : 0
Duplicated bytes error (maybe fixed) : 0
Inconsistency in error sectors : 0

Track 03
Filename : /Users/andrew/Music/XLD encodes/Poco - 1975 - Head Over Heels (FLAC)/03 Poco - Let Me Turn Back To You.flac

CRC32 hash (test run) : 75C7F802
CRC32 hash : 75C7F802
CRC32 hash (skip zero) : 3E626CDC
AccurateRip signature : 28BA608B
->Accurately ripped! (confidence 2)
Statistics
Read error : 0
Skipped (treated as error) : 0
Edge jitter error (maybe fixed) : 0
Atom jitter error (maybe fixed) : 0
Drift error (maybe fixed) : 0
Dropped bytes error (maybe fixed) : 0
Duplicated bytes error (maybe fixed) : 0
Inconsistency in error sectors : 0

Track 04
Filename : /Users/andrew/Music/XLD encodes/Poco - 1975 - Head Over Heels (FLAC)/04 Poco - Makin' Love.flac

CRC32 hash (test run) : 0EBC7AF7
CRC32 hash : 0EBC7AF7
CRC32 hash (skip zero) : 5894AAC8
AccurateRip signature : 504E9BDA
->Accurately ripped! (confidence 2)
Statistics
Read error : 0
Skipped (treated as error) : 0
Edge jitter error (maybe fixed) : 0
Atom jitter error (maybe fixed) : 0
Drift error (maybe fixed) : 0
Dropped bytes error (maybe fixed) : 0
Duplicated bytes error (maybe fixed) : 0
Inconsistency in error sectors : 0

Track 05
Filename : /Users/andrew/Music/XLD encodes/Poco - 1975 - Head Over Heels (FLAC)/05 Poco - Down In The Quarter.flac

CRC32 hash (test run) : 540912E6
CRC32 hash : 540912E6
CRC32 hash (skip zero) : 591846AD
AccurateRip signature : A22D8829
->Accurately ripped! (confidence 2)
Statistics
Read error : 0
Skipped (treated as error) : 0
Edge jitter error (maybe fixed) : 0
Atom jitter error (maybe fixed) : 0
Drift error (maybe fixed) : 0
Dropped bytes error (maybe fixed) : 0
Duplicated bytes error (maybe fixed) : 0
Inconsistency in error sectors : 0

Track 06
Filename : /Users/andrew/Music/XLD encodes/Poco - 1975 - Head Over Heels (FLAC)/06 Poco - Sittin' On A Fence.flac

CRC32 hash (test run) : 30B40D31
CRC32 hash : 30B40D31
CRC32 hash (skip zero) : 8685DBC1
AccurateRip signature : D2820E54
->Accurately ripped! (confidence 2)
Statistics
Read error : 0
Skipped (treated as error) : 0
Edge jitter error (maybe fixed) : 0
Atom jitter error (maybe fixed) : 0
Drift error (maybe fixed) : 0
Dropped bytes error (maybe fixed) : 0
Duplicated bytes error (maybe fixed) : 0
Inconsistency in error sectors : 0

Track 07
Filename : /Users/andrew/Music/XLD encodes/Poco - 1975 - Head Over Heels (FLAC)/07 Poco - Georgia Bind My Ties.flac

CRC32 hash (test run) : CC7CDD68
CRC32 hash : CC7CDD68
CRC32 hash (skip zero) : EB375AA9
AccurateRip signature : B6031A55
->Accurately ripped! (confidence 2)
Statistics
Read error : 0
Skipped (treated as error) : 0
Edge jitter error (maybe fixed) : 0
Atom jitter error (maybe fixed) : 0
Drift error (maybe fixed) : 0
Dropped bytes error (maybe fixed) : 0
Duplicated bytes error (maybe fixed) : 0
Inconsistency in error sectors : 0

Track 08
Filename : /Users/andrew/Music/XLD encodes/Poco - 1975 - Head Over Heels (FLAC)/08 Poco - Us.flac

CRC32 hash (test run) : F1C27479
CRC32 hash : F1C27479
CRC32 hash (skip zero) : 3A7C56B8
AccurateRip signature : 3F8A9630
->Accurately ripped! (confidence 2)
Statistics
Read error : 0
Skipped (treated as error) : 0
Edge jitter error (maybe fixed) : 0
Atom jitter error (maybe fixed) : 0
Drift error (maybe fixed) : 0
Dropped bytes error (maybe fixed) : 0
Duplicated bytes error (maybe fixed) : 0
Inconsistency in error sectors : 0

Track 09
Filename : /Users/andrew/Music/XLD encodes/Poco - 1975 - Head Over Heels (FLAC)/09 Poco - Flyin' Solo.flac

CRC32 hash (test run) : 88A2F88C
CRC32 hash : 88A2F88C
CRC32 hash (skip zero) : 11EDC564
AccurateRip signature : 993862A4
->Accurately ripped! (confidence 2)
Statistics
Read error : 0
Skipped (treated as error) : 0
Edge jitter error (maybe fixed) : 0
Atom jitter error (maybe fixed) : 0
Drift error (maybe fixed) : 0
Dropped bytes error (maybe fixed) : 0
Duplicated bytes error (maybe fixed) : 0
Inconsistency in error sectors : 0

Track 10
Filename : /Users/andrew/Music/XLD encodes/Poco - 1975 - Head Over Heels (FLAC)/10 Poco - Dallas.flac

CRC32 hash (test run) : 5EE63568
CRC32 hash : 5EE63568
CRC32 hash (skip zero) : 7B1DA50B
AccurateRip signature : 9DF41A77
->Accurately ripped! (confidence 2)
Statistics
Read error : 0
Skipped (treated as error) : 0
Edge jitter error (maybe fixed) : 0
Atom jitter error (maybe fixed) : 0
Drift error (maybe fixed) : 0
Dropped bytes error (maybe fixed) : 0
Duplicated bytes error (maybe fixed) : 0
Inconsistency in error sectors : 0

Track 11
Filename : /Users/andrew/Music/XLD encodes/Poco - 1975 - Head Over Heels (FLAC)/11 Poco - I'll Be Back Again.flac

CRC32 hash (test run) : 4D9DCFC0
CRC32 hash : 4D9DCFC0
CRC32 hash (skip zero) : FB4346F7
AccurateRip signature : 7776AFA4
->Accurately ripped! (confidence 2)
Statistics
Read error : 0
Skipped (treated as error) : 0
Edge jitter error (maybe fixed) : 0
Atom jitter error (maybe fixed) : 0
Drift error (maybe fixed) : 0
Dropped bytes error (maybe fixed) : 0
Duplicated bytes error (maybe fixed) : 0
Inconsistency in error sectors : 0

No errors occurred

End of status report


Many thanks to the original uploader: deetneck

––––––––––
Nitroflare