pluralsight - Introduction to ColdFusion (2013)

pluralsight - Introduction to ColdFusion (2013)

pluralsight - Introduction to ColdFusion
English | WMV | 1024 x 768 | WMV3 ~61.3 kbps | 15 fps
WMA | 128 Kbps | 44.1 KHz | 2 channels | 02:14:44 | 255 MB
Genre: Video Tutorial / Programming (2013)

ColdFusion is rapid web application development platform. In this course you will learn the basics of how to use ColdFusion platform and rapidly develop web sites. The course begins with learning basics of ColdFusion Markup Language and moves to common development language practices. From there we move to frequent database operations and advanced concepts of Forms, Sessions and Cookies. The last module sums up all the concepts covered in the course with sample application.
Introduction 00:13:54
Introduction 00:29
What's there in a name? 01:29
Web Application Server 01:59
What is ColdFusion 01:36
ColdFusion Installation 00:52
ColdFusion Administrator 00:40
Demo: ColdFusion Administrator 02:05
ColdFusion Builder 00:31
Demo: ColdFusion Builder 03:41
Summary 00:32

Introduction to ColdFusion Markup Language 00:33:58
Introduction 00:47
Templates 00:48
Demo: Templates 02:53
Commenting Code 01:18
Demo: Commenting Code 01:49
Tags and Functions 00:42
Demo: Tags and Functions 06:20
Variables 01:03
Demo: Variables 01:13
Demo: Variables Advanced 02:08
Demo: Variables Overwriting 01:45
Demo: Variables Copy 00:57
Demo: Variables Precedence 02:06
Advanced Data Types 00:51
Demo: List 01:54
Demo: Array 01:56
Demo: Array Advanced 01:22
Demo: Array Structure 03:21
Summary 00:45

Conditional Processing with CFML 00:22:43
Introduction 00:27
Decision Operators 01:32
Logical Operators 01:17
If, If…Else and Switch Case 01:11
Demo: If Condition 02:25
Demo: If…Else Condition 01:23
Demo: If…Else Condition and URL 01:34
Demo: If…Else Condition Advanced 02:08
Demo: If…Else Condition and Parameters 02:24
Demo: Nested If Condition 02:23
Demo: Switch Case 02:39
Conditional Looping 00:35
Demo: Conditional Looping 01:49
Summary 00:56

SQL Operations with CFML 00:40:14
Introduction 00:53
Significance of Database 02:31
Available Database 01:57
Fundamentals of SQL 00:27
Demo: Retrieval of Data 09:34
Demo: Modification of Data 01:45
Connecting SQL Database 00:37
Demo: Connecting SQL Database 01:40
Data Operation 00:40
Demo: CFQUERY 02:42
Demo: CFQUERY Columns 01:37
Demo: Multirow Query 02:07
Demo: Multirow Query Advanced 03:37
Demo: CFQUERY Group By 02:24
Demo: CFQUERY and Parameters 03:20
Demo: CFQUERY Update 03:57
Summary 00:26

Building First Data Driven Pages 00:19:49
Introduction 01:10
Demo: Data Driven Pages Application 05:04
Demo: SQL Setup 01:24
Demo: ColdFusion Code 10:28
Demo: All Together 01:43

Summary and Resources 00:04:06
Summary and Resources 04:06

More Info: http://www.pluralsight.com/training/Courses/TableOfContents/cold-fusion-introduction

General
Complete name : 10. Demo - CFQUERY.wmv
Format : Windows Media
File size : 4.18 MiB
Duration : 2mn 41s
Overall bit rate mode : Variable
Overall bit rate : 216 Kbps
Maximum Overall bit rate : 311 Kbps
Movie name : introduction-to-coldfusion-m03-sql-operations-with-cfml-09
Encoded date : UTC 2013-01-21 02:21:52.450
Video #2
ID : 2
Format : VC-1
Format profile : MP@HL
Codec ID : WMV3
Codec ID/Info : Windows Media Video 9
Codec ID/Hint : WMV3
Description of the codec : Windows Media Video 9
Duration : 2mn 41s
Bit rate mode : Variable
Bit rate : 61.3 Kbps
Width : 1 024 pixels
Height : 768 pixels
Display aspect ratio : 4:3
Frame rate : 15.000 fps
Bit depth : 8 bits
Scan type : Progressive
Compression mode : Lossy
Bits/(Pixel*Frame) : 0.005
Stream size : 1.18 MiB (28%)
Language : English (US)
Audio #1
ID : 1
Format : WMA
Format version : Version 2
Codec ID : 161
Codec ID/Info : Windows Media Audio
Description of the codec : Windows Media Audio 9.2 - 128 kbps, 44 kHz, stereo (A/V) 1-pass CBR
Duration : 2mn 41s
Bit rate mode : Constant
Bit rate : 128 Kbps
Channel(s) : 2 channels
Sampling rate : 44.1 KHz
Bit depth : 16 bits
Stream size : 2.47 MiB (59%)
Language : English (US)
Screenshots

pluralsight - Introduction to ColdFusion (2013)

pluralsight 			  		 	 	  		 	    	 			   		   	  		 	 	  			  	  	 			   			  	  		 	    	 			   		  	   		 	 	  		  					 - Introduction to ColdFusion (2013)

pluralsight - Introduction to ColdFusion (2013)

For more, Visit my AH-blog

no mirrors please, Follow The Rules