Jason Bourne (2016)

Jason Bourne (2016)

Jason Bourne (2016)
BDRip | MKV | HEVC (10bit), 59.7 Mbps | 3840x2160 | 23.976 fps | 57.7 GB | Runtime: 123 Min
Audio : English DTS 7388 kbs , 1509 kbs | 8 channels , 6 channels | 48 KHz | Subtitle : English, French
Genre : Action | Thriller

Jason Bourne is again being hunted by the CIA. It begins when Nicky Parson a former CIA operative who helped Bourne, who went under and now works with a man who's a whistle blower and is out to expose the CIA's black ops. Nicky hacks into the CIA and downloads everything on all their Black Ops, including Treadstone which Bourne was a part of. And Heather Lee, a CIA agent, discovers the hack and brings it to the attention of CIA Director Dewey, the man behind the Black Ops. He orders Parsons be found and, hopefully, Bourne, too.
IMDB


Video
ID : 1
Format : HEVC
Format/Info : High Efficiency Video Coding
Format profile : Main 10@L6.1@Main
Codec ID : V_MPEGH/ISO/HEVC
Duration : 2 h 3 min
Bit rate : 59.7 Mb/s
Width : 3 840 pixels
Height : 2 160 pixels
Display aspect ratio : 16:9
Frame rate mode : Constant
Frame rate : 23.976 (24000/1001) FPS
Color space : YUV
Chroma subsampling : 4:2:0
Bit depth : 10 bits
Bits/(Pixel*Frame) : 0.300
Stream size : 51.4 GiB (89%)
Writing library : x265 1.9+3-63308f7658c3:[Windows][GCC 5.2.0][64 bit] 10bit
Encoding settings : wpp / ctu=64 / min-cu-size=8 / max-tu-size=32 / tu-intra-depth=1 / tu-inter-depth=1 / me=1 / subme=2 / merange=57 / no-rect / no-amp / max-merge=2 / temporal-mvp / no-early-skip / rdpenalty=0 / no-tskip / no-tskip-fast / strong-intra-smoothing / no-lossless / no-cu-lossless / no-constrained-intra / no-fast-intra / open-gop / no-temporal-layers / interlace=0 / keyint=240 / min-keyint=24 / scenecut=40 / rc-lookahead=20 / lookahead-slices=8 / bframes=4 / bframe-bias=0 / b-adapt=2 / ref=3 / limit-refs=3 / no-limit-modes / weightp / no-weightb / aq-mode=1 / qg-size=32 / aq-strength=1.00 / cbqpoffs=0 / crqpoffs=0 / rd=3 / psy-rd=2.00 / rdoq-level=0 / psy-rdoq=0.00 / signhide / deblock / sao / no-sao-non-deblock / b-pyramid / cutree / no-intra-refresh / rc=abr / bitrate=61000 / qcomp=0.60 / qpmin=0 / qpmax=51 / qpstep=4 / ipratio=1.40 / pbratio=1.30
Language : English
Default : Yes
Forced : No
Color range : Limited
Color primaries : BT.709
Transfer characteristics : BT.709
Matrix coefficients : BT.601

Audio
ID : 2
Format : DTS
Format/Info : Digital Theater Systems
Format profile : X / MA / Core
Mode : 16
Format settings, Endianness : Big
Codec ID : A_DTS
Duration : 2 h 3 min
Bit rate mode : Variable / Variable / Constant
Bit rate : 7 388 kb/s / 7 388 kb/s / 1 509 kb/s
Channel(s) : Object Based / 8 channels / 6 channels
Channel positions : Object Based / Front: L C R, Side: L R, Back: L R, LFE / Front: L C R, Side: L R, LFE
Sampling rate : / 48.0 kHz / 48.0 kHz
Frame rate : 93.750 FPS (512 spf)
Bit depth : / 24 bits / 24 bits
Compression mode : / Lossless / Lossy
Delay relative to video : 6 s 300 ms
Stream size : 6.36 GiB (11%)
Language : English
Default : No
Forced : No

Text #1
ID : 3
Format : UTF-8
Codec ID : S_TEXT/UTF8
Codec ID/Info : UTF-8 Plain Text
Duration : 1 h 53 min
Bit rate : 36 b/s
Count of elements : 973
Stream size : 30.2 KiB (0%)
Title : English [COMPLETE]
Language : English
Default : No
Forced : No

Text #2
ID : 4
Format : UTF-8
Codec ID : S_TEXT/UTF8
Codec ID/Info : UTF-8 Plain Text
Duration : 1 h 53 min
Bit rate : 39 b/s
Count of elements : 858
Stream size : 32.6 KiB (0%)
Title : French
Language : French
Default : No
Forced : No

Text #3
ID : 5
Format : UTF-8
Codec ID : S_TEXT/UTF8
Codec ID/Info : UTF-8 Plain Text
Duration : 2 h 0 min
Bit rate : 0 b/s
Count of elements : 27
Stream size : 601 Bytes (0%)
Title : French FORCED
Language : French
Default : Yes
Forced : No


Jason Bourne (2016)

Jason Bourne (2016)