U2 - At the BBC (Special Edition) (2017) [HDTV, 1080p]

U2 - At the BBC (Special Edition) (2017) [HDTV, 1080p]

U2 - At the BBC (Special Edition) (2017)
TS: MPEG4 Video, 1920x1080, 25fps, 12,0 Mb/s | AAC 48kHz, 2ch, 221kbps
Post Punk, New Wave, Rock | 01:14:00 | ~ 7.01 Gb

U2 are an Irish rock band from Dublin formed in 1976. The group consists of Bono (lead vocals and rhythm guitar), the Edge (lead guitar, keyboards, and backing vocals), Adam Clayton (bass guitar), and Larry Mullen Jr. (drums and percussion). Initially rooted in post-punk, U2's musical style evolved throughout their career, yet has maintained an anthemic sound built on Bono's expressive vocals and the Edge's effects-based guitar textures. Their lyrics, often embellished with spiritual imagery, focus on personal and sociopolitical themes. Popular for their live performances, the group have staged several ambitious and elaborate tours over their career.

The band formed at Mount Temple Comprehensive School in 1976 when the members were teenagers with limited musical proficiency. Within four years, they signed with Island Records and released their debut album, Boy (1980). Subsequent work such as their first UK number-one album, War (1983), and the singles "Sunday Bloody Sunday" and "Pride (In the Name of Love)" helped establish U2's reputation as a politically and socially conscious group. By the mid-1980s, they had become renowned globally for their live act, highlighted by their performance at Live Aid in 1985. The group's fifth album, The Joshua Tree (1987), made them international superstars and was their greatest critical and commercial success. Topping music charts around the world, it produced their only number-one singles in the US, "With or Without You" and "I Still Haven't Found What I'm Looking For".

Facing creative stagnation and a backlash following their documentary/double album, Rattle and Hum (1988), U2 reinvented themselves in the 1990s through a new musical direction and public image. Beginning with their acclaimed seventh album, Achtung Baby (1991), and the multimedia-intensive Zoo TV Tour, the band integrated influences from alternative rock, electronic dance music, and industrial music into their sound, and embraced a more ironic, flippant image. This experimentation continued through their ninth album, Pop (1997), and the PopMart Tour, which were mixed successes. U2 regained critical and commercial favour with the records All That You Can't Leave Behind (2000) and How to Dismantle an Atomic Bomb (2004), which established a more conventional, mainstream sound for the group. Their U2 360° Tour of 2009–2011 is the highest-attended and highest-grossing concert tour in history. The group's thirteenth album, Songs of Innocence (2014), was released at no cost through the iTunes Store, but received criticism for its automatic placement in users' music libraries.

U2 have released 14 studio albums and are one of the world's best-selling music artists in history, having sold 175 million records worldwide. They have won 22 Grammy Awards, more than any other band, and in 2005, they were inducted into the Rock and Roll Hall of Fame in their first year of eligibility. Rolling Stone ranked U2 at number 22 on its list of the "100 Greatest Artists of All Time". Throughout their career, as a band and as individuals, they have campaigned for human rights and philanthropic causes, including Amnesty International, Jubilee 2000, the ONE/DATA campaigns, Product Red, War Child, and Music Rising…

~ wiki
U2 - At the BBC (Special Edition) (2017):

Tracklist:

Beautiful Day
Interview
Lights of Home (live debut)
Every Breaking Wave
Interview
With or Without You
13 (There Is a Light) (live debut)
Interview
Stuck in a Moment You Can't Get Out Of
Get Out of Your Own Way
Interview
One
Interview
Love Is Bigger Than Anything in Its Way (live debut)

General
ID : 1 (0x1)
Complete name : W:\UP\Mix\U2 - At the BBC (Special Edition) 2017\U2 - At the BBC (Special Edition) 2017.ts
Format : MPEG-TS
File size : 6.52 GiB
Duration : 1h 14mn
Overall bit rate mode : Variable
Overall bit rate : 12.6 Mbps

Video
ID : 100 (0x64)
Menu ID : 2 (0x2)
Format : AVC
Format/Info : Advanced Video Codec
Format profile : High@L4.0
Format settings, CABAC : Yes
Format settings, ReFrames : 2 frames
Codec ID : 27
Duration : 1h 14mn
Bit rate : 11.8 Mbps
Width : 1 920 pixels
Height : 1 080 pixels
Display aspect ratio : 16:9
Frame rate : 25.000 fps
Color space : YUV
Chroma subsampling : 4:2:0
Bit depth : 8 bits
Scan type : Progressive
Bits/(Pixel*Frame) : 0.227
Stream size : 6.09 GiB (93%)
Color primaries : BT.709
Transfer characteristics : BT.709
Matrix coefficients : BT.709

Audio
ID : 101 (0x65)
Menu ID : 2 (0x2)
Format : AAC
Format/Info : Advanced Audio Codec
Format version : Version 4
Format profile : LC
Muxing mode : ADTS
Codec ID : 15
Duration : 1h 14mn
Bit rate mode : Variable
Bit rate : 218 Kbps
Channel(s) : 2 channels
Channel positions : Front: L R
Sampling rate : 48.0 KHz
Compression mode : Lossy
Stream size : 116 MiB (2%)



U2 - At the BBC (Special Edition) (2017) [HDTV, 1080p]

U2 - At the BBC (Special Edition) (2017) [HDTV, 1080p]

U2 - At the BBC (Special Edition) (2017) [HDTV, 1080p]

U2 - At the BBC (Special Edition) (2017) [HDTV, 1080p]

U2 - At the BBC (Special Edition) (2017) [HDTV, 1080p]

U2 - At the BBC (Special Edition) (2017) [HDTV, 1080p]

All thanks go to meloman67

U2 or U2 in my Blog

Download U2 - At the BBC (Special Edition) (2017):