John Williams - El Diablo Suelto: Guitar Music of Venezuela (2003)

John Williams - El Diablo Suelto: Guitar Music of Venezuela (2003)

John Williams - El Diablo Suelto: Guitar Music of Venezuela (2003)
EAC | WV | Image (Cue&Log) ~ 268 Mb | Mp3 (CBR320) ~ 156 Mb | Scans included
Classical Guitar, World, Folk | Label: Sony Classical | # SK 90451 | 00:59:59

A new album release by guitarist John Williams is always cause for great anticipation, not only for another opportunity to marvel at his virtuosity, but also to experience music from unheralded areas of the repertoire. EL DIABLO SUELTO is a survey of the guitar music of Venezuela, a vibrant mixture of elements from the cultures of the indigenous Indians, Spanish colonists, and the Africans originally brought to the country as slaves. Williams demonstrates a thorough understanding of the music's heritage, and his commitment is evident in performances that are dynamic and incisive.

Williams' remarkable technique allows him to easily negotiate the complexities of these intensely rhythmic pieces, but his keen musical intelligence renders these accounts more than exercises of technical expertise. He skillfully wields a broad palette of tonal colors to express the rich harmonic language and beautiful melodies in works arranged by his mentor, the great Venezuelan guitarist Alirio Diaz. The program includes several duets with Alfonso Montes, a master of Venezuela's national instrument, the cuatro. Williams has championed the music of Latin America throughout his career, and EL DIABLO SUELTO is another excellent showcase to be added to his illustrious discography.

Allmusic.com

John Williams - El Diablo Suelto: Guitar Music of Venezuela (2003)

The evolution of guitar-playing and guitar music in Venezuela as a "serious" art form is basically a 20th century phenomenon spurred on by the teaching of Raúl Borges (represented here by his vivacious Vals Venezolano) and particularly by his two pupils, guitarist Alirio Díaz and Antonio Lauro. Fittingly, the latter's work features prominently in this exceptionally well chosen and well played collection that includes the Scarlattian Seis por derecho, the lovely Romanza, and the delightful Angostura, among other works.

All of these pieces show the influence of Venezuelan folksong and dance, an intoxicating mixture of European forms such as the waltz and fandango married to native Indian and African rhythms and melodies. You won't hear much Strauss, for example, in the Venezuelan version of the waltz, which is much faster and more rhythmically intricate, and while most of these pieces are quite short and simple, what they lack in formal complexity they make up for in sheer energy and rhythmic gusto.

Several of these little gems, including the title work El Diablo suelto by Heraclio Fernández, Pedro Elías Gutiérrez's Alma Llanera, and Lauro's Nelly and El Marabino, call for the accompaniment of a second, small guitar (cuatro), here admirably played by Alfonso Montes; but in all of the remaining 22 tracks John Williams offers exceptional solo playing that is both rhythmically charged and lyrically impulsive. The concluding piece, Alfonso Montes' Preludio de Adíos, one of the few slow and reflective numbers here, has a particularly wistful charm that Williams captures perfectly.

There are mountains of guitar recordings on today's market, many of which feature music by Venezuelan composers (Lauro in particular), and even Alirio Díaz himself made several discs for Vanguard that were reissued on CD several years ago that may at some point return to the catalog, but it would be difficult to imagine a finer tribute to a remarkable and appealing musical tradition than this one. Sony's engineers offer extremely close-up, realistic sound that puts the players right in front of you–but happily Williams can withstand the scrutiny, and there's virtually no distracting squeaking of fingers across the frets such as mars so many guitar recitals. In a word: brilliant.

David Hurwitz, ClassicsToday.com

John Williams - El Diablo Suelto: Guitar Music of Venezuela (2003)



Tracklist:

01. Ignacio 'Indio' Figueredo: Los Caujaritos (2:36)
02. Benito Canonico: El Totumo de Guarenas (1:37)
03. Antonio Carillo: Como llora una estrella (3:59)
04. Antonio Lauro: Seis por derecho (3:19)
05. Ovelio Riera: No me olvides (3:09)
06. Pedro Lopez: Las Perdices (2:18)
07. Pedro Elias Gutierrez: Alma Llanera (2:51)
08. Vicente Emilio Sojo: Salve (2:15)
09. Vicente Emilio Sojo: Five Pieces - I. C'antico (1:33)
10. Vicente Emilio Sojo: Five Pieces - II. Cantemos, cantemos (1:21)
11. Vicente Emilio Sojo: Five Pieces - III. Si de noche ves que brillan (1:33)
12. Vicente Emilio Sojo: Five Pieces - IV. Malhaya la cocina (0:57)
13. Vicente Emilio Sojo: Five Pieces - V. Ave mar'ia que muchacho! (1:11)
14. Vicente Emilio Sojo: Quirpa quatirena (1:56)
15. Antonio Lauro: Angostura (1:47)
16. Heraclio Fernandez: El Diablo suelto (2:20)
17. Antonio Lauro: Virgilio (2:37)
18. Antonio Lauro: Pasaje 'Aragueno' (1:50)
19. Vicente Emilio Sojo: Que no te quiera m'as (2:25)
20. Antonio Lauro: Romanza (2:50)
21. Ignacio 'Indio' Figueredo: Priva Resuello (2:17)
22. Antonio Lauro: Mar'ia Carolina (2:33)
23. Raul Borges: Vals Venezolano (3:22)
24. Antonio Lauro: Nelly (2:22)
25. Antonio Lauro: El Marabino (1:21)
26. Alfonso Montes: Preludio de Adi'os (3:40)


Exact Audio Copy V1.0 beta 3 from 29. August 2011

EAC extraction logfile from 3. March 2014, 9:22

John Williams / El Diablo suelto

Used drive : TSSTcorpCDDVDW SH-S223F Adapter: 0 ID: 1

Read mode : Secure
Utilize accurate stream : Yes
Defeat audio cache : Yes
Make use of C2 pointers : No

Read offset correction : 6
Overread into Lead-In and Lead-Out : No
Fill up missing offset samples with silence : Yes
Delete leading and trailing silent blocks : No
Null samples used in CRC calculations : Yes
Used interface : Native Win32 interface for Win NT & 2000

Used output format : User Defined Encoder
Selected bitrate : 1024 kBit/s
Quality : High
Add ID3 tag : No
Command line compressor : C:\Program Files\Exact Audio Copy\wavpack.exe
Additional command line options : -hm %source% %dest%


TOC of the extracted CD

Track | Start | Length | Start sector | End sector
––––––––––––––––––––––––––––-
1 | 0:00.00 | 2:36.10 | 0 | 11709
2 | 2:36.10 | 1:37.35 | 11710 | 19019
3 | 4:13.45 | 3:58.60 | 19020 | 36929
4 | 8:12.30 | 3:19.10 | 36930 | 51864
5 | 11:31.40 | 3:09.10 | 51865 | 66049
6 | 14:40.50 | 2:18.10 | 66050 | 76409
7 | 16:58.60 | 2:50.40 | 76410 | 89199
8 | 19:49.25 | 2:15.05 | 89200 | 99329
9 | 22:04.30 | 1:33.17 | 99330 | 106321
10 | 23:37.47 | 1:21.08 | 106322 | 112404
11 | 24:58.55 | 1:32.45 | 112405 | 119349
12 | 26:31.25 | 0:57.12 | 119350 | 123636
13 | 27:28.37 | 1:10.45 | 123637 | 128931
14 | 28:39.07 | 1:56.08 | 128932 | 137639
15 | 30:35.15 | 1:47.07 | 137640 | 145671
16 | 32:22.22 | 2:19.65 | 145672 | 156161
17 | 34:42.12 | 2:36.65 | 156162 | 167926
18 | 37:19.02 | 1:50.23 | 167927 | 176199
19 | 39:09.25 | 2:25.22 | 176200 | 187096
20 | 41:34.47 | 2:49.43 | 187097 | 199814
21 | 44:24.15 | 2:16.62 | 199815 | 210076
22 | 46:41.02 | 2:33.15 | 210077 | 221566
23 | 49:14.17 | 3:22.20 | 221567 | 236736
24 | 52:36.37 | 2:21.43 | 236737 | 247354
25 | 54:58.05 | 1:20.60 | 247355 | 253414
26 | 56:18.65 | 3:40.02 | 253415 | 269916


Range status and errors

Selected range

Filename F:\iso\John Williams - El Diablo suelto\John Williams - El Diablo suelto.wav

Peak level 99.6 %
Extraction speed 1.6 X
Range quality 99.9 %
Test CRC 6D7013A6
Copy CRC 6D7013A6
Copy OK

No errors occurred


AccurateRip summary

Track 1 accurately ripped (confidence 14) [92874A2C] (AR v2)
Track 2 accurately ripped (confidence 13) [5D39ADB3] (AR v2)
Track 3 accurately ripped (confidence 14) [C4A77761] (AR v2)
Track 4 accurately ripped (confidence 14) [C4900297] (AR v2)
Track 5 accurately ripped (confidence 14) [502804BD] (AR v2)
Track 6 accurately ripped (confidence 14) [C99C8929] (AR v2)
Track 7 accurately ripped (confidence 14) [0CEC3475] (AR v2)
Track 8 accurately ripped (confidence 14) [564F9A63] (AR v2)
Track 9 accurately ripped (confidence 14) [EB6404A6] (AR v2)
Track 10 accurately ripped (confidence 14) [452438BD] (AR v2)
Track 11 accurately ripped (confidence 14) [E99FC1FB] (AR v2)
Track 12 accurately ripped (confidence 14) [2B16603A] (AR v2)
Track 13 accurately ripped (confidence 14) [62527FF7] (AR v2)
Track 14 accurately ripped (confidence 14) [BAAC3A9A] (AR v2)
Track 15 accurately ripped (confidence 14) [73CEADC0] (AR v2)
Track 16 accurately ripped (confidence 14) [21B5C21A] (AR v2)
Track 17 accurately ripped (confidence 14) [6DA69CA9] (AR v2)
Track 18 accurately ripped (confidence 14) [2AD05B81] (AR v2)
Track 19 accurately ripped (confidence 14) [507A1F48] (AR v2)
Track 20 accurately ripped (confidence 14) [3785B9CC] (AR v2)
Track 21 accurately ripped (confidence 14) [3FD0F840] (AR v2)
Track 22 accurately ripped (confidence 14) [69E2F0FA] (AR v2)
Track 23 accurately ripped (confidence 14) [F64B94F6] (AR v2)
Track 24 accurately ripped (confidence 14) [60991CAD] (AR v2)
Track 25 accurately ripped (confidence 14) [E1DA296F] (AR v2)
Track 26 accurately ripped (confidence 14) [0896E0FD] (AR v2)

All tracks accurately ripped

End of status report

==== Log checksum 2CE399DE27DB050A5BA2E8512C672ACA8E3D0860AA8416CF8023563E9DE51962 ====

[CUETools log; Date: 02.03.2018 1:48:42; Version: 2.1.4]
[CTDB TOCID: lfur_rP_PDyU8Uued3Tfb2ncJAY-] found.
Track | CTDB Status
1 | (64/66) Accurately ripped
2 | (61/66) Accurately ripped, or (2/66) differs in 298 samples @00:20:71-00:20:72
3 | (64/66) Accurately ripped
4 | (64/66) Accurately ripped
5 | (64/66) Accurately ripped
6 | (64/66) Accurately ripped
7 | (64/66) Accurately ripped
8 | (64/66) Accurately ripped
9 | (64/66) Accurately ripped
10 | (65/66) Accurately ripped
11 | (64/66) Accurately ripped
12 | (64/66) Accurately ripped
13 | (64/66) Accurately ripped
14 | (64/66) Accurately ripped
15 | (64/66) Accurately ripped
16 | (64/66) Accurately ripped
17 | (64/66) Accurately ripped
18 | (64/66) Accurately ripped
19 | (62/66) Accurately ripped, or (2/66) differs in 219 samples @02:08:61-02:08:62
20 | (64/66) Accurately ripped
21 | (64/66) Accurately ripped
22 | (64/66) Accurately ripped
23 | (63/66) Accurately ripped
24 | (64/66) Accurately ripped
25 | (64/66) Accurately ripped
26 | (65/66) Accurately ripped
[AccurateRip ID: 0037b4b6-03fe2ba4-630e0e1a] found.
Track [ CRC | V2 ] Status
01 [1a51376f|92874a2c] (14+29/53) Accurately ripped
02 [f4c58147|5d39adb3] (13+27/50) Accurately ripped
03 [10ce7b46|c4a77761] (14+29/53) Accurately ripped
04 [74bbdb37|c4900297] (14+29/53) Accurately ripped
05 [3cab630e|502804bd] (15+28/53) Accurately ripped
06 [4372ebee|c99c8929] (15+29/54) Accurately ripped
07 [a10b0471|0cec3475] (14+29/53) Accurately ripped
08 [f5aba9d4|564f9a63] (15+29/54) Accurately ripped
09 [e95c4309|eb6404a6] (14+29/53) Accurately ripped
10 [f419f841|452438bd] (15+29/54) Accurately ripped
11 [84e5e05d|e99fc1fb] (14+28/52) Accurately ripped
12 [38675b16|2b16603a] (14+29/53) Accurately ripped
13 [72fb1ab5|62527ff7] (14+29/53) Accurately ripped
14 [8c2ca7ad|baac3a9a] (15+29/54) Accurately ripped
15 [688ddcd0|73ceadc0] (15+29/54) Accurately ripped
16 [585743f0|21b5c21a] (15+29/54) Accurately ripped
17 [64eec063|6da69ca9] (14+29/53) Accurately ripped
18 [52e38993|2ad05b81] (14+29/53) Accurately ripped
19 [d49039ae|507a1f48] (13+28/51) Accurately ripped
20 [19cd2da8|3785b9cc] (14+29/53) Accurately ripped
21 [4daf55b5|3fd0f840] (14+28/52) Accurately ripped
22 [d220d982|69e2f0fa] (14+29/53) Accurately ripped
23 [f429a846|f64b94f6] (14+28/52) Accurately ripped
24 [0cb95691|60991cad] (15+28/53) Accurately ripped
25 [91aaee3a|e1da296f] (15+29/54) Accurately ripped
26 [704bdd08|0896e0fd] (15+29/54) Accurately ripped
Offsetted by -30:
01 [e9891c7a] (00/53) No match (V2 was not tested)
02 [8593ab07] (00/50) No match (V2 was not tested)
03 [f1ea59d1] (00/53) No match (V2 was not tested)
04 [379f5adb] (00/53) No match (V2 was not tested)
05 [b71b8667] (00/53) No match (V2 was not tested)
06 [42eb3bdd] (00/54) No match (V2 was not tested)
07 [45f020fe] (00/53) No match (V2 was not tested)
08 [0f13d951] (00/54) No match (V2 was not tested)
09 [d0391afa] (00/53) No match (V2 was not tested)
10 [f1c33c6e] (00/54) No match (V2 was not tested)
11 [226ead71] (00/52) No match (V2 was not tested)
12 [01bb2835] (00/53) No match (V2 was not tested)
13 [0da63cb7] (00/53) No match (V2 was not tested)
14 [c71348c2] (00/54) No match (V2 was not tested)
15 [9dcf1c37] (00/54) No match (V2 was not tested)
16 [47d4a0a8] (00/54) No match (V2 was not tested)
17 [7056d585] (00/53) No match (V2 was not tested)
18 [2a13c497] (00/53) No match (V2 was not tested)
19 [e4184ffa] (00/51) No match (V2 was not tested)
20 [4004fad9] (00/53) No match (V2 was not tested)
21 [377e1544] (00/52) No match (V2 was not tested)
22 [ad949185] (00/53) No match (V2 was not tested)
23 [c8a84c16] (00/52) No match (V2 was not tested)
24 [d4ecc25c] (00/53) No match (V2 was not tested)
25 [7315c41e] (00/54) No match (V2 was not tested)
26 [251ee9d5] (00/54) No match (V2 was not tested)
Offsetted by -18:
01 [cd05908f] (00/53) No match (V2 was not tested)
02 [5470f2f3] (00/50) No match (V2 was not tested)
03 [ee29674a] (00/53) No match (V2 was not tested)
04 [4fabc113] (00/53) No match (V2 was not tested)
05 [8915eb23] (00/53) No match (V2 was not tested)
06 [1269ba4d] (00/54) No match (V2 was not tested)
07 [c40d52a2] (00/53) No match (V2 was not tested)
08 [87046ba3] (00/54) No match (V2 was not tested)
09 [52861ab0] (00/53) No match (V2 was not tested)
10 [cc54fd84] (00/54) No match (V2 was not tested)
11 [34d90ac2] (00/52) No match (V2 was not tested)
12 [186a7c82] (00/53) No match (V2 was not tested)
13 [d1545f8f] (00/53) No match (V2 was not tested)
14 [955f5750] (00/54) No match (V2 was not tested)
15 [819b35c1] (00/54) No match (V2 was not tested)
16 [f088e1f8] (00/54) No match (V2 was not tested)
17 [54a27e33] (00/53) No match (V2 was not tested)
18 [44f55d43] (00/53) No match (V2 was not tested)
19 [2cef475a] (00/51) No match (V2 was not tested)
20 [5e304229] (00/53) No match (V2 was not tested)
21 [2be7db43] (00/52) No match (V2 was not tested)
22 [211971ca] (00/53) No match (V2 was not tested)
23 [32eee780] (00/52) No match (V2 was not tested)
24 [6c1db5f0] (00/53) No match (V2 was not tested)
25 [7edb6ebc] (00/54) No match (V2 was not tested)
26 [0ffdb1b9] (00/54) No match (V2 was not tested)

Track Peak [ CRC32 ] [W/O NULL] [ LOG ]
– 99,6 [6D7013A6] [0500A2EB] CRC32
01 84,2 [7DC1F145] [56BD2BA4]
02 75,7 [A93CA0B2] [F2C927EA]
03 64,3 [521C2ED9] [156C980C]
04 97,5 [A1E09580] [AD7CAA81]
05 74,0 [35602FA4] [FA3562CF]
06 87,9 [70266FAA] [9952E3B0]
07 99,6 [AF4D53C7] [AC99841A]
08 66,1 [01AC1DC0] [284A6DA6]
09 55,1 [D04FE354] [0179A7F7]
10 72,0 [F693F5C3] [6AE52978]
11 61,5 [96E2D66C] [35ABCF92]
12 67,1 [7EA1615D] [061CDF63]
13 86,7 [895D6236] [F9B9DB55]
14 86,4 [82754EB9] [3EA34509]
15 71,3 [A3A3EBC0] [90ED7175]
16 90,7 [AD3BD714] [D282E820]
17 87,8 [9C0133AC] [A1B007B0]
18 81,5 [A7CD2CA9] [C0C41471]
19 68,8 [BFE18EEB] [A6EC6730]
20 64,7 [D1C4C824] [18AEE48A]
21 82,1 [1E31A54E] [2FE3B153]
22 72,0 [5CDAE679] [973EB370]
23 76,6 [7BA81024] [FF795393]
24 84,2 [E4735E41] [B21347CD]
25 79,3 [2F6C808F] [2BDCC7E4]
26 36,2 [04823866] [4683936C]

foobar2000 1.2 / Dynamic Range Meter 1.1.1
log date: 2018-03-02 01:35:11

––––––––––––––––––––––––––––––––––––––––
Analyzed: John Williams / El Diablo suelto
––––––––––––––––––––––––––––––––––––––––

DR Peak RMS Duration Track
––––––––––––––––––––––––––––––––––––––––
DR12 -1.49 dB -16.80 dB 2:36 01-Ignacio 'Indio' Figueredo: Los Caujaritos
DR12 -2.42 dB -18.06 dB 1:37 02-Benito Canonico: El Totumo de Guarenas
DR13 -3.82 dB -19.90 dB 3:59 03-Antonio Carillo: Como llora una estrella
DR13 -0.21 dB -17.64 dB 3:19 04-Antonio Lauro: Seis por derecho
DR12 -2.61 dB -18.41 dB 3:09 05-Ovelio Riera: No me olvides
DR12 -1.11 dB -17.27 dB 2:18 06-Pedro Lopez: Las Perdices
DR11 -0.03 dB -14.93 dB 2:51 07-Pedro Elias Gutierrez: Alma Llanera
DR13 -3.59 dB -22.26 dB 2:15 08-Vicente Emilio Sojo: Salve
DR13 -5.17 dB -20.86 dB 1:33 09-Vicente Emilio Sojo: Five Pieces - I. C'antico
DR12 -2.85 dB -17.47 dB 1:21 10-Vicente Emilio Sojo: Five Pieces - II. Cantemos, cantemos
DR13 -4.21 dB -20.96 dB 1:33 11-Vicente Emilio Sojo: Five Pieces - III. Si de noche ves que brillan
DR11 -3.46 dB -18.01 dB 0:57 12-Vicente Emilio Sojo: Five Pieces - IV. Malhaya la cocina
DR12 -1.23 dB -17.10 dB 1:11 13-Vicente Emilio Sojo: Five Pieces - V. Ave mar'ia que muchacho!
DR13 -1.26 dB -16.22 dB 1:56 14-Vicente Emilio Sojo: Quirpa quatirena
DR11 -2.94 dB -17.93 dB 1:47 15-Antonio Lauro: Angostura
DR11 -0.84 dB -15.05 dB 2:20 16-Heraclio Fernandez: El Diablo suelto
DR13 -1.12 dB -16.72 dB 2:37 17-Antonio Lauro: Virgilio
DR12 -1.77 dB -16.40 dB 1:50 18-Antonio Lauro: Pasaje 'Aragueno'
DR12 -3.25 dB -20.51 dB 2:25 19-Vicente Emilio Sojo: Que no te quiera m'as
DR13 -3.78 dB -20.97 dB 2:50 20-Antonio Lauro: Romanza
DR11 -1.71 dB -16.85 dB 2:17 21-Ignacio 'Indio' Figueredo: Priva Resuello
DR13 -2.85 dB -18.12 dB 2:33 22-Antonio Lauro: Mar'ia Carolina
DR13 -2.31 dB -18.11 dB 3:22 23-Raul Borges: Vals Venezolano
DR12 -1.49 dB -16.32 dB 2:22 24-Antonio Lauro: Nelly
DR13 -2.01 dB -16.94 dB 1:21 25-Antonio Lauro: El Marabino
DR13 -8.81 dB -24.69 dB 3:40 26-Alfonso Montes: Preludio de Adi'os
––––––––––––––––––––––––––––––––––––––––

Number of tracks: 26
Official DR value: DR12

Samplerate: 44100 Hz
Channels: 2
Bits per sample: 16
Bitrate: 581 kbps
Codec: WavPack
================================================================================

John Williams - El Diablo Suelto: Guitar Music of Venezuela (2003)

John Williams - El Diablo Suelto: Guitar Music of Venezuela (2003)