Steve Jansen - Tender Extinction (2016) {A Steve Jansen Production SJ01}

Steve Jansen - Tender Extinction (2016) {A Steve Jansen Production SJ01}

Steve Jansen - Tender Extinction (2016) {A Steve Jansen Production SJ01}
EAC rip (secure mode) | FLAC (tracks)+CUE+LOG -> 214 Mb | MP3 @320 -> 114 Mb
Full Artwork @ 600 dpi (png) -> 260 Mb | 5% repair rar
© 2016 A Steve Jansen Production | SJ01
Experimental / Experimental Electronic / Avant-Garde / Ambient / Alternative

The 2016 studio release from Steve Jansen. The second solo album release from Steve Jansen. 6 panel digipak with photography and artwork by Carl Glover. Featuring guest appearances by Thomas Feiner, Perry Blake, Nicola Hitchcock, Tim Elsenburg (Sweet Billy Pilgrim) and others.
Steve Jansen - Tender Extinction (2016) {A Steve Jansen Production SJ01}


Personnel & tracklist:
01 - captured
thomas feiner - vocals, lyrics
steve jansen - piano, synths, vibes, sampled instruments & arrangements

02 - sadness
melentini toila - vocals, lyrics, trumpet
steve jansen - synths, sound design

03 - her distance
perry blake - vocals, lyrics
steve jansen - drums, electronic percussion, bass, electric guitar, synths, sound design, sampled
instruments, string arrangement, additional backing vocals

04 - memory of an imagined place
seigen tokuzawa - cello
steve jansen - synths, sound design, sampled instruments, string arrangement

05 - give yourself a name
tim elsenburg - vocals, lyrics, additional electric guitar
steve jansen - drums, electronic percussion, bass, electric guitar, synths, piano, sound design

06 - diaphanous one
steve jansen - synths, sampled instruments, sound design

07 - faced with nothing
nicola hitchcock - vocal, lyrics
steve jansen - synths, piano, bass, sound design, sampled instruments, string arrangement

08 - mending a secret
steve jansen - vocals, lyrics, electric guitar, synths, electronic percussion, sampled instruments,
string arrangement

09 - simple day
steve jansen - synths, sound design

10 - and birds sing all night
stelios romaliadis - flute
giorgos varoutas - guitar treatments
steve jansen - vocals, lyrics, synths, piano, vibes, rhythm & sound, design

Exact Audio Copy V1.1 from 23. June 2015

EAC extraction logfile from 25. May 2016, 16:56

Steve Jansen / Tender Extinction

Used drive : TSSTcorpCDDVDW SE-208DB Adapter: 1 ID: 0

Read mode : Secure
Utilize accurate stream : Yes
Defeat audio cache : Yes
Make use of C2 pointers : No

Read offset correction : 6
Overread into Lead-In and Lead-Out : No
Fill up missing offset samples with silence : Yes
Delete leading and trailing silent blocks : No
Null samples used in CRC calculations : Yes
Used interface : Native Win32 interface for Win NT & 2000
Gap handling : Appended to previous track

Used output format : User Defined Encoder
Selected bitrate : 1024 kBit/s
Quality : High
Add ID3 tag : No
Command line compressor : C:\Program Files (x86)\FLAC Frontend\tools\flac.exe
Additional command line options : -8 -V -T "ARTIST=%artist%" -T "TITLE=%title%" -T "ALBUM=%albumtitle%" -T "DATE=%year%" -T "TRACKNUMBER=%tracknr%" -T "TOTALTRACKS=%numtracks%" -T "GENRE=%genre%" -T "ALBUMARTIST=%albumartist%" -T "ALBUM ARTIST=%albumartist%" -T "COMMENT=EAC Secure Mode, Test & Copy, AccurateRip, FLAC -8" %source%


TOC of the extracted CD

Track | Start | Length | Start sector | End sector
––––––––––––––––––––––––––––-
1 | 0:00.00 | 6:08.56 | 0 | 27655
2 | 6:08.56 | 3:47.68 | 27656 | 44748
3 | 9:56.49 | 6:44.32 | 44749 | 75080
4 | 16:41.06 | 3:25.74 | 75081 | 90529
5 | 20:07.05 | 6:53.16 | 90530 | 121520
6 | 27:00.21 | 5:51.22 | 121521 | 147867
7 | 32:51.43 | 5:31.53 | 147868 | 172745
8 | 38:23.21 | 5:06.57 | 172746 | 195752
9 | 43:30.03 | 2:23.10 | 195753 | 206487
10 | 45:53.13 | 2:27.55 | 206488 | 217567


Track 1

Filename D:\_EAC\Steve Jansen - Tender Extinction (2016) [FLAC]\01 - Captured.wav

Pre-gap length 0:00:02.00

Peak level 97.0 %
Extraction speed 1.1 X
Track quality 100.0 %
Test CRC E291BC4B
Copy CRC E291BC4B
Track not present in AccurateRip database
Copy OK

Track 2

Filename D:\_EAC\Steve Jansen - Tender Extinction (2016) [FLAC]\02 - Sadness.wav

Peak level 96.6 %
Extraction speed 1.1 X
Track quality 100.0 %
Test CRC A7483E5C
Copy CRC A7483E5C
Track not present in AccurateRip database
Copy OK

Track 3

Filename D:\_EAC\Steve Jansen - Tender Extinction (2016) [FLAC]\03 - Her Distance.wav

Peak level 100.0 %
Extraction speed 1.3 X
Track quality 100.0 %
Test CRC F08E55C9
Copy CRC F08E55C9
Track not present in AccurateRip database
Copy OK

Track 4

Filename D:\_EAC\Steve Jansen - Tender Extinction (2016) [FLAC]\04 - Memory Of An Imagined Place.wav

Peak level 88.9 %
Extraction speed 1.3 X
Track quality 100.0 %
Test CRC 8163317F
Copy CRC 8163317F
Track not present in AccurateRip database
Copy OK

Track 5

Filename D:\_EAC\Steve Jansen - Tender Extinction (2016) [FLAC]\05 - Give Yourself A Name.wav

Peak level 100.0 %
Extraction speed 1.5 X
Track quality 100.0 %
Test CRC BE43A8EE
Copy CRC BE43A8EE
Track not present in AccurateRip database
Copy OK

Track 6

Filename D:\_EAC\Steve Jansen - Tender Extinction (2016) [FLAC]\06 - Diaphanous One.wav

Peak level 55.5 %
Extraction speed 1.6 X
Track quality 100.0 %
Test CRC B15B10CF
Copy CRC B15B10CF
Track not present in AccurateRip database
Copy OK

Track 7

Filename D:\_EAC\Steve Jansen - Tender Extinction (2016) [FLAC]\07 - Faced With Nothing.wav

Peak level 99.7 %
Extraction speed 1.6 X
Track quality 100.0 %
Test CRC FFB1AC73
Copy CRC FFB1AC73
Track not present in AccurateRip database
Copy OK

Track 8

Filename D:\_EAC\Steve Jansen - Tender Extinction (2016) [FLAC]\08 - Mending A Secret.wav

Peak level 99.0 %
Extraction speed 1.5 X
Track quality 99.9 %
Test CRC 459F3063
Copy CRC 459F3063
Track not present in AccurateRip database
Copy OK

Track 9

Filename D:\_EAC\Steve Jansen - Tender Extinction (2016) [FLAC]\09 - Simple Day.wav

Peak level 38.7 %
Extraction speed 1.5 X
Track quality 100.0 %
Test CRC A0B258BE
Copy CRC A0B258BE
Track not present in AccurateRip database
Copy OK

Track 10

Filename D:\_EAC\Steve Jansen - Tender Extinction (2016) [FLAC]\10 - And Birds Sing All Night.wav

Peak level 96.9 %
Extraction speed 1.3 X
Track quality 99.9 %
Test CRC 9C2DE312
Copy CRC 9C2DE312
Track not present in AccurateRip database
Copy OK


None of the tracks are present in the AccurateRip database

No errors occurred

End of status report

==== Log checksum 4BC3665CA4E199B1791D9BAA944D143934EB718481AF24118AB15827317431A7 ====


Steve Jansen - Tender Extinction (2016) {A Steve Jansen Production SJ01}

Steve Jansen - Tender Extinction (2016) {A Steve Jansen Production SJ01}



===