Markus Schulz - Toronto '09 (2 CD)

Posted By: FLESH
Markus Schulz - Toronto '09 (2 CD)

Markus Schulz - Toronto '09 (2 CD)
Electronic, Trance, Progressive Trance
FLAC+cue+log | 1.0 Gb | MP3, 192 Kbps | 214.8 Mb | Covers
Label: Armada Music | Catalog#: ARMA178 | Country: Netherlands | Released: Mar 2009

Tracklisting:
CD1
1-1 Dino (21) Queensquay And Jarvis
1-2 Thomas Sagstad Backfire
1-3 Claud9 Rain (Coldharbour Rework)
1-4 Karnak vs. Dymos Travail
1-5 Tritonal Feat. Cristina Soto* Crash Into Reason (Moonbeam Remix)
1-6 Rex Mundi Scorpion
1-7 Arnej Tomorrow Never Comes
1-8 Tenishia Everything (Tim Grube Dub Mix)
1-9 Skytech Cardboard Box
1-10 Mr. Pit The Cube
1-11 Rex Mundi Feat. Susana (3) Nothing At All
1-12 Max Gueli Remember The Silence
1-13 Adiva Feat. Vicky Fee How Does It Feel
1-14 Omnia (2) Stick In Monday

CD2
2-1 Dakota Koolhaus
2-2 Umek* & Beltek Is It? (Wippenberg Remix)
2-3 Dakota Sin City
2-4 Rowald Steyn Hold Control
2-5 Mike Foyle Bittersweet Nightshade (Markus Schulz Return To Coldharbour Remix)
2-6 Mr. Pit Besides Words
2-7 Danilo Ercole Harbour
2-8 Dance 2 Trance Power Of American Natives (Markus Schulz Return To Coldharbour Remix)
2-9 Project MC* Bromley Ave
2-10 Michael Calderone & Christopher Reddick Sound Of Flight
2-11 Khaz* & Boris M.D. Eliana
2-12 Element One South Heaven
2-13 Barnes* & Heatcliff* Pyjamaparty
2-14 Arnej Dust In The Wind

Exact Audio Copy V0.99 prebeta 4 from 23. January 2008

EAC extraction logfile from 19. March 2009, 17:50

Various / Toronto '09 [CD1]

Used drive : MATSHITADVD-RAM UJ-852 Adapter: 0 ID: 0

Read mode : Secure
Utilize accurate stream : Yes
Defeat audio cache : Yes
Make use of C2 pointers : No

Read offset correction : 102
Overread into Lead-In and Lead-Out : No
Fill up missing offset samples with silence : Yes
Delete leading and trailing silent blocks : No
Null samples used in CRC calculations : Yes
Used interface : Native Win32 interface for Win NT & 2000

Used output format : User Defined Encoder
Selected bitrate : 1024 kBit/s
Quality : High
Add ID3 tag : No
Command line compressor : C:\Program Files\Exact Audio Copy\FLAC\FLAC.EXE
Additional command line options : -V -8 -T "artist=%a" -T "title=%t" -T "album=%g" -T "date=%y" -T "tracknumber=%n" -T "genre=%m" %s


TOC of the extracted CD

Track | Start | Length | Start sector | End sector
––––––––––––––––––––––––––––-
1 | 0:00.00 | 1:30.10 | 0 | 6759
2 | 1:30.10 | 4:44.36 | 6760 | 28095
3 | 6:14.46 | 7:50.26 | 28096 | 63371
4 | 14:04.72 | 6:41.69 | 63372 | 93515
5 | 20:46.66 | 5:26.47 | 93516 | 118012
6 | 26:13.38 | 6:25.04 | 118013 | 146891
7 | 32:38.42 | 5:58.13 | 146892 | 173754
8 | 38:36.55 | 5:22.24 | 173755 | 197928
9 | 43:59.04 | 5:25.18 | 197929 | 222321
10 | 49:24.22 | 6:06.46 | 222322 | 249817
11 | 55:30.68 | 6:19.60 | 249818 | 278302
12 | 61:50.53 | 4:30.41 | 278303 | 298593
13 | 66:21.19 | 4:51.71 | 298594 | 320489
14 | 71:13.15 | 6:10.45 | 320490 | 348284


Range status and errors

Selected range

Filename H:\vboxshare\rips\Various - Toronto '09. CD 1. Mixed By Markus Schulz.wav

Peak level 96.6 %
Range quality 100.0 %
Test CRC 651BB939
Copy CRC 651BB939
Copy OK

No errors occurred


AccurateRip summary

Track 1 not present in database
Track 2 not present in database
Track 3 not present in database
Track 4 not present in database
Track 5 not present in database
Track 6 not present in database
Track 7 not present in database
Track 8 not present in database
Track 9 not present in database
Track 10 not present in database
Track 11 not present in database
Track 12 not present in database
Track 13 not present in database
Track 14 not present in database

None of the tracks are present in the AccurateRip database

End of status report

Exact Audio Copy V0.99 prebeta 4 from 23. January 2008

EAC extraction logfile from 19. March 2009, 20:00

Various / Toronto '09. [CD2]

Used drive : MATSHITADVD-RAM UJ-852 Adapter: 0 ID: 0

Read mode : Secure
Utilize accurate stream : Yes
Defeat audio cache : Yes
Make use of C2 pointers : No

Read offset correction : 102
Overread into Lead-In and Lead-Out : No
Fill up missing offset samples with silence : Yes
Delete leading and trailing silent blocks : No
Null samples used in CRC calculations : Yes
Used interface : Native Win32 interface for Win NT & 2000

Used output format : User Defined Encoder
Selected bitrate : 1024 kBit/s
Quality : High
Add ID3 tag : No
Command line compressor : C:\Program Files\Exact Audio Copy\FLAC\FLAC.EXE
Additional command line options : -V -8 -T "artist=%a" -T "title=%t" -T "album=%g" -T "date=%y" -T "tracknumber=%n" -T "genre=%m" %s


TOC of the extracted CD

Track | Start | Length | Start sector | End sector
––––––––––––––––––––––––––––-
1 | 0:00.00 | 7:22.69 | 0 | 33218
2 | 7:22.69 | 5:09.66 | 33219 | 56459
3 | 12:32.60 | 5:51.40 | 56460 | 82824
4 | 18:24.25 | 4:14.39 | 82825 | 101913
5 | 22:38.64 | 7:30.57 | 101914 | 135720
6 | 30:09.46 | 6:14.14 | 135721 | 163784
7 | 36:23.60 | 2:53.23 | 163785 | 176782
8 | 39:17.08 | 7:27.34 | 176783 | 210341
9 | 46:44.42 | 6:00.47 | 210342 | 237388
10 | 52:45.14 | 5:33.30 | 237389 | 262393
11 | 58:18.44 | 5:17.00 | 262394 | 286168
12 | 63:35.44 | 5:45.48 | 286169 | 312091
13 | 69:21.17 | 4:04.58 | 312092 | 330449
14 | 73:26.00 | 6:01.57 | 330450 | 357581


Range status and errors

Selected range

Filename H:\vboxshare\rips\Various - Toronto '09. CD 2. Mixed By Markus Schulz.wav

Peak level 96.6 %
Range quality 99.9 %
Test CRC 19C50818
Copy CRC 19C50818
Copy OK

No errors occurred


AccurateRip summary

Track 1 not present in database
Track 2 not present in database
Track 3 not present in database
Track 4 not present in database
Track 5 not present in database
Track 6 not present in database
Track 7 not present in database
Track 8 not present in database
Track 9 not present in database
Track 10 not present in database
Track 11 not present in database
Track 12 not present in database
Track 13 not present in database
Track 14 not present in database

None of the tracks are present in the AccurateRip database

End of status report


lossless
Скачать с Vip-file
CD1 | CD2
Скачать с RapidShare
CD1
Part 1 | Part 2 | Part 3 | Part 4 | Part 5 | Part 6
CD2
Part 1 | Part 2 | Part 3 | Part 4 | Part 5 | Part 6

MP3
Скачать с Vip-file
CD1 | CD2
Скачать с RapidShare
CD1
Part 1 | Part 2
CD2
Part 1 | Part 2

Covers
Covers

Folder Music DepositFiles | Folder Music RapidShare | Folder Music iFolder

Welcome to my Blog