Mark Foggo's Skasters - Ska Pig (1989) [Re-issue 1996]

Posted By: Toxxy
Mark Foggo's Skasters - Ska Pig (1989) [Re-issue 1996]

Mark Foggo's Skasters - Ska Pig [Re-issue]
Year: 1989, 1996 Skanky' Lil Records | CD#: SL 102 | File-host: RS.com
FLAC-image + Mp3 @320 CBR | Complete Artwork (600dpi) | WinRAR Recovery 5%
Ska | CD-length 40:06 | 298 MB (FLAC) | 91 MB (Mp3)

EAC Secure-rip + LOG + CUE | Source: my CD-collection

You wanna miss out on a good, skankin' party-time with Foggo and his Skasters? 'Cause you don't! Time to get your Ska-shoes on folks!

MARK FOGGO is a dynamic performer. His music is best described as modern, bizarre, non-influenced, up tempo ska music . The fast catchy songs and sensational live-shows are an unforgettable experience.


Mark Foggo's Skasters at MySpace


Track List:

1. Hello
2. Weirdos
3. Skadansk
4. Dolly
5. Two Legs
6. Ska Pig
7. Lucky to Be Alive
8. Spy
9. Sunday
10. Down the Lane
11. Davy Crocket


RAPIDSHARE linx:

FLAC-image:
Part 1
Part 2
Part 3
Part 4

Mp3 @320 CBR:
Download

Complete scanned artwork (600dpi):
Download

***

Mirror linx at MEGAUPLOAD:

FLAC-image:
Part 1
Part 2
Part 3
Part 4

Mp3 @320 CBR:
Download

Complete scanned artwork (600dpi):
Download


The RS & MU linx are interchangeable

No Password

5% WinRar Recovery Record for ALL files.

Enjoy the tunes ;-)


NO other mirror linx please!


Exact Audio Copy V0.99 prebeta 4 from 23. January 2008

EAC extraction logfile from 6. March 2009, 6:51

Mark Foggo's Skasters / Ska Pig

Used drive : TSSTcorpCDDVDW SH-S202N Adapter: 0 ID: 0

Read mode : Secure
Utilize accurate stream : Yes
Defeat audio cache : Yes
Make use of C2 pointers : No

Read offset correction : 6
Overread into Lead-In and Lead-Out : No
Fill up missing offset samples with silence : Yes
Delete leading and trailing silent blocks : No
Null samples used in CRC calculations : No
Used interface : Installed external ASPI interface

Used output format : User Defined Encoder
Selected bitrate : 320 kBit/s
Quality : High
Add ID3 tag : No
Command line compressor : C:\Programmer\Exact Audio Copy\Flac\flac.exe
Additional command line options : -V -8 -T "artist=%a" -T "title=%t" -T "album=%g" -T "date=%y" -T "tracknumber=%n" -T "genre=%m" %s


TOC of the extracted CD

Track | Start | Length | Start sector | End sector
––––––––––––––––––––––––––––-
1 | 0:00.00 | 3:08.35 | 0 | 14134
2 | 3:08.35 | 4:34.62 | 14135 | 34746
3 | 7:43.22 | 3:04.48 | 34747 | 48594
4 | 10:47.70 | 4:05.50 | 48595 | 67019
5 | 14:53.45 | 3:42.57 | 67020 | 83726
6 | 18:36.27 | 4:15.18 | 83727 | 102869
7 | 22:51.45 | 3:07.07 | 102870 | 116901
8 | 25:58.52 | 3:24.15 | 116902 | 132216
9 | 29:22.67 | 3:18.35 | 132217 | 147101
10 | 32:41.27 | 3:22.15 | 147102 | 162266
11 | 36:03.42 | 4:00.35 | 162267 | 180301


Range status and errors

Selected range

Filename D:\Mark Foggo's Skasters - Ska Pig.wav

Peak level 100.0 %
Range quality 100.0 %
Test CRC EBD251A2
Copy CRC EBD251A2
Copy OK

No errors occurred


AccurateRip summary

Track 1 cannot be verified as accurate (confidence 1) [FD87BE35], AccurateRip returned [B78C65B9]
Track 2 cannot be verified as accurate (confidence 1) [9C0235DF], AccurateRip returned [2FDB02BF]
Track 3 cannot be verified as accurate (confidence 1) [F3ACA8BD], AccurateRip returned [C51771E9]
Track 4 cannot be verified as accurate (confidence 1) [8C2344D6], AccurateRip returned [7DB2821E]
Track 5 cannot be verified as accurate (confidence 1) [FE31F9FB], AccurateRip returned [AAF5D517]
Track 6 cannot be verified as accurate (confidence 1) [2CDE30FA], AccurateRip returned [F8C64E7A]
Track 7 cannot be verified as accurate (confidence 1) [24A60ACB], AccurateRip returned [6C811597]
Track 8 cannot be verified as accurate (confidence 1) [230F93F7], AccurateRip returned [32A0666B]
Track 9 cannot be verified as accurate (confidence 1) [041D1824], AccurateRip returned [06AA57E0]
Track 10 cannot be verified as accurate (confidence 1) [92CDC1F8], AccurateRip returned [0ED26E3C]
Track 11 cannot be verified as accurate (confidence 1) [567D655A], AccurateRip returned [093D21D4]

No tracks could be verified as accurate
You may have a different pressing from the one(s) in the database

End of status report


More albums with Mark Foggo's Skasters:

Live
Haircut
St. Valentines Day Massacre


The next posts from me, in no particular order, are gonna be:

The Business - The Complete Singles Collection
The Bottom Feeders - Big Six

3 Sloppy Seconds CD's:

More Trouble Than They're Worth
Live: No Time for Tuning
Garbage Days Regurgitated (CD-EP)

2 Huntingtons CD's:

Plastic Surgery
Huntingtons & Darlington - Split CD

6 Backstreet Girls CD's:

Party On Elm Street
Coming Down Hard
Let's Have It
Live - Get Yer Yo-Yo's Out!
Hellway To High
Christmas Crusher

All the above CD's will be available in both lossless and and lossy.