Markus Schulz - Amsterdam 08 (2CD)

Posted By: FLESH
Markus Schulz - Amsterdam 08 (2CD)

Markus Schulz - Amsterdam 08 (2CD)
Electronic, Progressive House, Trance, Progressive Trance
FLAC+cue+log | 0.9 Gb | MP3, 192 Kbps | 189.4 Mb | Covers
Label: Armada Music | Catalog#: ARMA116 | Country: Netherlands | Released: 21 Jan 2008

Tracklisting:
CD1
1.01 Dakota Amsterdam
1.02 Leama And James Davis (5) Presents Grafiti (2) Ghettotech
1.03 Glenn Morrison Blue Skies With Linda
1.04 Plastic Angel Try Walking In My World (Original Mix)
1.05 Lens Beyond The Shadows (Moonbeam Remix)
1.06 Glenn Morrison Rubberband
1.07 Rex Mundi Sunrise In Ibiza
1.08 Marcus Schössow Mr. White (Ruben de Ronde Remix)
1.09 tyDi Meet Me In Kyoto
1.10 Ketho Feat. Michael Calderone Silent Room
1.11 Supüer* Azaleas
1.12 Destination X Dangerous (Gareth Emery Remix / Markus Schulz Big Room Reconstruction)
1.13 Sonic Division If I Had Wings

CD2
2.01 Fulyen* Approach
2.02 Dakota Progression
2.03 Carl* & Joni* Forsaken
2.04 Markus Schulz Fly To Colors (Carl B Remix)
2.05 Anton Chernikov Your Burning Eyes
2.06 Breakfast (3) & BiG MiKE (9) Only Two Should Know
2.07 Markus Schulz Feat Andy Moor Daydream (Coldharbour Remix)
2.08 Agnelli & Nelson Present A&N Project, The* Sleeping In Airports
2.09 BeBop (2) Breakthrough Woodpecker
2.10 B.E.N. (2) & Mr. Pit More Manners Please
2.11 EnMass Avalon
2.12 Kenneth Tjonasam Formulation
2.13 Vision* Entry To Heaven (Benya Remix)

Exact Audio Copy V0.99 prebeta 3 from 28. July 2007

EAC extraction logfile from 22. January 2008, 14:08

Various / Amsterdam 08 (Mixed By Markus Schulz) CD1

Used drive : TSSTcorpCDDVDW SH-S203B Adapter: 2 ID: 0

Read mode : Secure
Utilize accurate stream : Yes
Defeat audio cache : No
Make use of C2 pointers : Yes

Read offset correction : 6
Overread into Lead-In and Lead-Out : No
Fill up missing offset samples with silence : Yes
Delete leading and trailing silent blocks : No
Null samples used in CRC calculations : No
Used interface : Native Win32 interface for Win NT & 2000

Used output format : User Defined Encoder
Selected bitrate : 128 kBit/s
Quality : High
Add ID3 tag : No
Command line compressor : c:\Program Files\Exact Audio Copy\Flac\flac.exe
Additional command line options : -8 %s


TOC of the extracted CD

Track | Start | Length | Start sector | End sector
––––––––––––––––––––––––––––-
1 | 0:00.00 | 2:03.73 | 0 | 9297
2 | 2:03.73 | 4:37.56 | 9298 | 30128
3 | 6:41.54 | 4:20.53 | 30129 | 49681
4 | 11:02.32 | 5:05.36 | 49682 | 72592
5 | 16:07.68 | 4:51.26 | 72593 | 94443
6 | 20:59.19 | 5:42.00 | 94444 | 120093
7 | 26:41.19 | 4:11.52 | 120094 | 138970
8 | 30:52.71 | 5:02.33 | 138971 | 161653
9 | 35:55.29 | 4:39.19 | 161654 | 182597
10 | 40:34.48 | 8:20.69 | 182598 | 220166
11 | 48:55.42 | 5:20.05 | 220167 | 244171
12 | 54:15.47 | 4:21.24 | 244172 | 263770
13 | 58:36.71 | 6:39.03 | 263771 | 293698


Range status and errors

Selected range

Filename h:\VA - Amsterdam 08 (Mixed By Markus Schulz) CD1.wav

Peak level 96.6 %
Range quality 100.0 %
Copy CRC 9A87BF5D
Copy OK

No errors occurred


AccurateRip summary

Track 1 not present in database
Track 2 not present in database
Track 3 not present in database
Track 4 not present in database
Track 5 not present in database
Track 6 not present in database
Track 7 not present in database
Track 8 not present in database
Track 9 not present in database
Track 10 not present in database
Track 11 not present in database
Track 12 not present in database
Track 13 not present in database

None of the tracks are present in the AccurateRip database

End of status report

Exact Audio Copy V0.99 prebeta 3 from 28. July 2007

EAC extraction logfile from 22. January 2008, 13:56

Various / Amsterdam 08 (Mixed By Markus Schulz) CD2

Used drive : TSSTcorpCDDVDW SH-S203B Adapter: 2 ID: 0

Read mode : Secure
Utilize accurate stream : Yes
Defeat audio cache : No
Make use of C2 pointers : Yes

Read offset correction : 6
Overread into Lead-In and Lead-Out : No
Fill up missing offset samples with silence : Yes
Delete leading and trailing silent blocks : No
Null samples used in CRC calculations : No
Used interface : Native Win32 interface for Win NT & 2000

Used output format : User Defined Encoder
Selected bitrate : 128 kBit/s
Quality : High
Add ID3 tag : No
Command line compressor : c:\Program Files\Exact Audio Copy\Flac\flac.exe
Additional command line options : -8 %s


TOC of the extracted CD

Track | Start | Length | Start sector | End sector
––––––––––––––––––––––––––––-
1 | 0:00.00 | 1:28.08 | 0 | 6607
2 | 1:28.08 | 8:14.59 | 6608 | 43716
3 | 9:42.67 | 6:47.49 | 43717 | 74290
4 | 16:30.41 | 4:07.74 | 74291 | 92889
5 | 20:38.40 | 4:37.07 | 92890 | 113671
6 | 25:15.47 | 5:05.18 | 113672 | 136564
7 | 30:20.65 | 7:49.06 | 136565 | 171745
8 | 38:09.71 | 7:57.47 | 171746 | 207567
9 | 46:07.43 | 5:19.12 | 207568 | 231504
10 | 51:26.55 | 3:40.16 | 231505 | 248020
11 | 55:06.71 | 5:48.55 | 248021 | 274175
12 | 60:55.51 | 4:36.05 | 274176 | 294880
13 | 65:31.56 | 7:28.35 | 294881 | 328515


Range status and errors

Selected range

Filename h:\VA - Amsterdam 08 (Mixed By Markus Schulz) CD2.wav

Peak level 96.6 %
Range quality 100.0 %
Copy CRC 3B797066
Copy OK

No errors occurred


AccurateRip summary

Track 1 not present in database
Track 2 not present in database
Track 3 not present in database
Track 4 not present in database
Track 5 not present in database
Track 6 not present in database
Track 7 not present in database
Track 8 not present in database
Track 9 not present in database
Track 10 not present in database
Track 11 not present in database
Track 12 not present in database
Track 13 not present in database

None of the tracks are present in the AccurateRip database

End of status report


lossless
Скачать с RapidShare
CD1
Part 1 | Part 2 | Part 3 | Part 4 | Part 5
CD2
Part 1 | Part 2 | Part 3 | Part 4 | Part 5 | Part 6

MP3
Скачать с RapidShare
CD1
CD1
CD2
Part 1 | Part 2

Covers
Covers

Folder Music RapidShare