The Penguin Cafe Orchestra: 12 Cds -lossless-

Posted By: juanchito
The Penguin Cafe Orchestra: 12 Cds  -lossless-

The Penguin Cafe Orchestra: 12 Cds -lossless-
Minimalism / Chamber jazz / folk | EAC Rip, log | Flac, Img+Cue | HQ Covers scans | 3.46 GB


The Penguin Cafe Orchestra was the creation of classically-trained guitarist, composer and arranger Simon Jeffes (Crawley, Sussex, England, 1949-1997). Jeffes and cellist co-founder Helen Liebmann were the only core members throughout its life; a number of other musicians appeared on the PCO's six studio albums according to the requirements of particular pieces. The PCO also toured extensively during the 80's and early 90's, and two albums, "When in Rome" (1988) and "Concert Program" (1995) captured the sound of the live ensemble. The Penguins' sound is not easily categorized, but has elements of exuberant folk music and a minimalist aesthetic occasionally reminiscent of composers such as Philip Glass.

The Penguin Cafe Orchestra's most famous piece may be "Telephone and Rubber Band", which is based around a tape loop of a UK telephone ring tone intersected with an engaged tone, accompanied by the twanging of a rubber band. The piece is featured on the soundtracks of Nadia Tass's film comedy Malcolm (1986) and Oliver Stone's film Talk Radio (1988), and in a long-running advertising campaign for the German-based multinational telecoms company One2One (now T-Mobile). The 1996 single "In The Meantime" by English rockers residing in New York City, Spacehog, featured a tweaked and fine-tuned sample of "Telephone and Rubber Band". The tape loop was recorded when Jeffes was making a phone call, and discovered that he was hearing a combination of a ring tone and an engaged signal at the same time, due to a fault in the system. He recorded it on an answering machine.

Another famous tune featured in Malcolm (among other films) is "Music For A Found Harmonium", which Jeffes wrote on a harmonium that he had found dumped in a back street in Kyoto, where he was staying in the summer of 1982 after the ensemble's first tour of Japan. He wrote that after installing the found harmonium "in a friend's house in one of the most beautiful parts at the edge of the city," he "frequently visited this instrument during the next few months, and I remember the time fondly as one during which I was under a form of enchantment with the place and the time…

¿Se imaginan un concierto de Beethoven donde repentinamente surgiese entre las líneas pentagrámicas un armonioso sonido telefónico?, ¿se imaginan una pieza renacentista donde sonase la guitarra eléctrica?, ¿se imaginan una orquesta sinfónica (por lo menos viendo alguna de España) que se dejase de espectáculos circenses y burradas similares y lograse fusionar la música clásica perfectamente, acercarla a niños y demás labores que supuestamente les corresponden sin necesidad de contratar payasos ridículos que provocan vergüenza ajena? Pues, lo crean o no, esa es la Penguin Cafe Orchestra (y no se fíen demasiado del nombre, ya que su música tiene la seriedad necesaria para considerarla en el espectro clásico).Ya es hora de que hable del que posiblemente ha sido el mejor grupo de tendencia clásica de este siglo (tras mucho nombrarlo), y hacerlo de la mejor manera posible: no solo de un disco, que sabe a poco, sino de toda su discografía en general.
Seguir leyendo



The Penguin Cafe Orchestra: 12 Cds  -lossless-

Music from the Penguin Cafe (1976) | 216 MB


Track Listings:
1. Penguin Cafe Single
2. Zopf
a. From the Colonies
b. In a Sydney Motel
c. Surface Tension (where the trees meet the sky)
d. Milk
e. Coronation
f. Giles Farnaby's Dream
g. Pigtail
3. The sound of someone you love who's going away and it doesn't matter
4. Hugebaby
5. Chartered Flight

Exact Audio Copy V0.99 prebeta 4 from 23. January 2008

EAC extraction logfile from 15. April 2008, 20:16

Penguin Cafe Orchestra / Music from the Penguin Cafe

Used drive : MATSHITADVD-RAM UJ-840S Adapter: 1 ID: 0

Read mode : Secure
Utilize accurate stream : Yes
Defeat audio cache : Yes
Make use of C2 pointers : No

Read offset correction : 102
Overread into Lead-In and Lead-Out : No
Fill up missing offset samples with silence : Yes
Delete leading and trailing silent blocks : No
Null samples used in CRC calculations : No
Used interface : Installed external ASPI interface

Used output format : User Defined Encoder
Selected bitrate : 1024 kBit/s
Quality : High
Add ID3 tag : No
Command line compressor : C:\Program Files\Exact Audio Copy\FLAC\FLAC.EXE
Additional command line options : -6 -V -T "ARTIST=%a" -T "TITLE=%t" -T "ALBUM=%g" -T "DATE=%y" -T "TRACKNUMBER=%n" -T "GENRE=%m" -T "COMMENT=%e" %s -o %d


TOC of the extracted CD

Track | Start | Length | Start sector | End sector
––––––––––––––––––––––––––––-
1 | 0:00.00 | 6:20.32 | 0 | 28531
2 | 6:20.32 | 1:38.65 | 28532 | 35946
3 | 7:59.22 | 2:28.13 | 35947 | 47059
4 | 10:27.35 | 2:22.55 | 47060 | 57764
5 | 12:50.15 | 2:22.05 | 57765 | 68419
6 | 15:12.20 | 1:33.00 | 68420 | 75394
7 | 16:45.20 | 2:19.70 | 75395 | 85889
8 | 19:05.15 | 2:44.52 | 85890 | 98241
9 | 21:49.67 | 11:46.65 | 98242 | 151256
10 | 33:36.57 | 4:48.23 | 151257 | 172879
11 | 38:25.05 | 6:41.32 | 172880 | 202986


Range status and errors

Selected range

Filename F:\z\Penguin Cafe Orchestra - Music from the Penguin Cafe.wav

Peak level 92.7 %
Range quality 100.0 %
Copy CRC 0161BD0D
Copy OK

No errors occurred


AccurateRip summary

Track 1 cannot be verified as accurate (confidence 3) [C6236817], AccurateRip returned [2CC7467A]
Track 2 cannot be verified as accurate (confidence 3) [B1050C7F], AccurateRip returned [9D59ACCD]
Track 3 cannot be verified as accurate (confidence 2) [794BBF31], AccurateRip returned [D6C9BE8B]
Track 4 cannot be verified as accurate (confidence 3) [58B54DE7], AccurateRip returned [39766333]
Track 5 cannot be verified as accurate (confidence 3) [0FEA7B14], AccurateRip returned [B9D1009D]
Track 6 cannot be verified as accurate (confidence 3) [B80256A9], AccurateRip returned [831A2ED7]
Track 7 cannot be verified as accurate (confidence 3) [F62F29A4], AccurateRip returned [8D1FA8C3]
Track 8 cannot be verified as accurate (confidence 3) [B6529D34], AccurateRip returned [572F643F]
Track 9 cannot be verified as accurate (confidence 3) [23A783E4], AccurateRip returned [1589C965]
Track 10 cannot be verified as accurate (confidence 3) [FD910F4A], AccurateRip returned [0281857B]
Track 11 cannot be verified as accurate (confidence 3) [19D07C90], AccurateRip returned [09E732C6]

No tracks could be verified as accurate
You may have a different pressing from the one(s) in the database

End of status report




Filesonic
Part1
Part2

Fileserve
Part1
Part2



The Penguin Cafe Orchestra: 12 Cds  -lossless-

Penguin Cafe Orchestra (1982) | 264 MB


Track Listings:
1. Air a Danser
2. Yodel 1
3. Telephone and Rubber Band
4. Cutting Branches For a Temporary Shelter
5. Pythagoras's Trousers
6. Numbers 1-4
7. Yodel 2
8. Salty Bean Fumble
9. Paul's Dance
10. The Ecstasy Of Dancing Fleas
11. Walk Don't Run
12. Flux
13. Simon's Dream
14. Harmonic Necklace
15. Steady State

Exact Audio Copy V0.99 prebeta 4 from 23. January 2008

EAC extraction logfile from 15. April 2008, 20:30

Penguin Cafe Orchestra / Penguin Cafe Orchestra

Used drive : MATSHITADVD-RAM UJ-840S Adapter: 1 ID: 0

Read mode : Secure
Utilize accurate stream : Yes
Defeat audio cache : Yes
Make use of C2 pointers : No

Read offset correction : 102
Overread into Lead-In and Lead-Out : No
Fill up missing offset samples with silence : Yes
Delete leading and trailing silent blocks : No
Null samples used in CRC calculations : No
Used interface : Installed external ASPI interface

Used output format : User Defined Encoder
Selected bitrate : 1024 kBit/s
Quality : High
Add ID3 tag : No
Command line compressor : C:\Program Files\Exact Audio Copy\FLAC\FLAC.EXE
Additional command line options : -6 -V -T "ARTIST=%a" -T "TITLE=%t" -T "ALBUM=%g" -T "DATE=%y" -T "TRACKNUMBER=%n" -T "GENRE=%m" -T "COMMENT=%e" %s -o %d


TOC of the extracted CD

Track | Start | Length | Start sector | End sector
––––––––––––––––––––––––––––-
1 | 0:00.00 | 4:32.00 | 0 | 20399
2 | 4:32.00 | 4:09.62 | 20400 | 39136
3 | 8:41.62 | 2:29.63 | 39137 | 50374
4 | 11:11.50 | 3:09.30 | 50375 | 64579
5 | 14:21.05 | 3:21.70 | 64580 | 79724
6 | 17:43.00 | 6:59.10 | 79725 | 111159
7 | 24:42.10 | 4:37.10 | 111160 | 131944
8 | 29:19.20 | 2:14.17 | 131945 | 142011
9 | 31:33.37 | 1:46.43 | 142012 | 150004
10 | 33:20.05 | 4:01.20 | 150005 | 168099
11 | 37:21.25 | 3:02.37 | 168100 | 181786
12 | 40:23.62 | 1:48.65 | 181787 | 189951
13 | 42:12.52 | 1:49.10 | 189952 | 198136
14 | 44:01.62 | 1:12.73 | 198137 | 203609
15 | 45:14.60 | 3:36.15 | 203610 | 219824


Range status and errors

Selected range

Filename F:\z\Penguin Cafe Orchestra - Penguin Cafe Orchestra.wav

Peak level 96.1 %
Range quality 99.9 %
Copy CRC D3DF8735
Copy OK

No errors occurred


AccurateRip summary

Track 1 cannot be verified as accurate (confidence 5) [1760E298], AccurateRip returned [71AB044C]
Track 2 cannot be verified as accurate (confidence 4) [4C17F8B4], AccurateRip returned [112B92A0]
Track 3 cannot be verified as accurate (confidence 4) [59EA5E4F], AccurateRip returned [B99356E7]
Track 4 cannot be verified as accurate (confidence 4) [874901A9], AccurateRip returned [E02F825B]
Track 5 cannot be verified as accurate (confidence 4) [93EF1A50], AccurateRip returned [2EA836C1]
Track 6 cannot be verified as accurate (confidence 5) [68A188A8], AccurateRip returned [9A20DA71]
Track 7 cannot be verified as accurate (confidence 5) [ED4F862A], AccurateRip returned [924E9075]
Track 8 cannot be verified as accurate (confidence 5) [E6229B0E], AccurateRip returned [868CA872]
Track 9 cannot be verified as accurate (confidence 5) [84D90D70], AccurateRip returned [CA46AE7A]
Track 10 cannot be verified as accurate (confidence 5) [DD846BE8], AccurateRip returned [7679D570]
Track 11 cannot be verified as accurate (confidence 5) [EC3218DC], AccurateRip returned [B5DD9D28]
Track 12 cannot be verified as accurate (confidence 5) [034068C6], AccurateRip returned [6255BD4E]
Track 13 cannot be verified as accurate (confidence 5) [5053F59D], AccurateRip returned [25BABD2E]
Track 14 cannot be verified as accurate (confidence 5) [FB3B2767], AccurateRip returned [A8416F19]
Track 15 cannot be verified as accurate (confidence 5) [F1E928F5], AccurateRip returned [E4A3AF35]

No tracks could be verified as accurate
You may have a different pressing from the one(s) in the database

End of status report



Filesonic
Part1
Part2

Fileserve
Part1
Part2



The Penguin Cafe Orchestra: 12 Cds  -lossless-

Broadcasting from Home (1984) | 239 MB


Track Listings:
1. Music for a Found Harmonium
2. Prelude & Yodel
3. More Milk
4. Sheep Dip
5. White Mischief
6. In the Back of a Taxi
7. Music by Numbers
8. Another One From the Colonies
9. Air
10. Heartwind
11. Isle of View (Music for Helicopter Pilots)
12. Now Nothing

Exact Audio Copy V0.99 prebeta 4 from 23. January 2008

EAC extraction logfile from 15. April 2008, 19:41

Penguin Cafe Orchestra / Broadcasting from Home

Used drive : MATSHITADVD-RAM UJ-840S Adapter: 1 ID: 0

Read mode : Secure
Utilize accurate stream : Yes
Defeat audio cache : Yes
Make use of C2 pointers : No

Read offset correction : 102
Overread into Lead-In and Lead-Out : No
Fill up missing offset samples with silence : Yes
Delete leading and trailing silent blocks : No
Null samples used in CRC calculations : No
Used interface : Installed external ASPI interface

Used output format : User Defined Encoder
Selected bitrate : 1024 kBit/s
Quality : High
Add ID3 tag : No
Command line compressor : C:\Program Files\Exact Audio Copy\FLAC\FLAC.EXE
Additional command line options : -6 -V -T "ARTIST=%a" -T "TITLE=%t" -T "ALBUM=%g" -T "DATE=%y" -T "TRACKNUMBER=%n" -T "GENRE=%m" -T "COMMENT=%e" %s -o %d


TOC of the extracted CD

Track | Start | Length | Start sector | End sector
––––––––––––––––––––––––––––-
1 | 0:00.00 | 3:37.30 | 0 | 16304
2 | 3:37.30 | 3:50.32 | 16305 | 33586
3 | 7:27.62 | 3:11.13 | 33587 | 47924
4 | 10:39.00 | 3:59.72 | 47925 | 65921
5 | 14:38.72 | 5:50.18 | 65922 | 92189
6 | 20:29.15 | 3:21.67 | 92190 | 107331
7 | 23:51.07 | 4:42.20 | 107332 | 128501
8 | 28:33.27 | 3:06.05 | 128502 | 142456
9 | 31:39.32 | 4:20.03 | 142457 | 161959
10 | 35:59.35 | 4:12.22 | 161960 | 180881
11 | 40:11.57 | 4:30.48 | 180882 | 201179
12 | 44:42.30 | 3:00.17 | 201180 | 214696


Range status and errors

Selected range

Filename F:\z\Penguin Cafe Orchestra - Broadcasting from Home.wav

Peak level 93.5 %
Range quality 100.0 %
Copy CRC 3BCC6D8D
Copy OK

No errors occurred


AccurateRip summary

Track 1 not present in database
Track 2 not present in database
Track 3 not present in database
Track 4 not present in database
Track 5 not present in database
Track 6 not present in database
Track 7 not present in database
Track 8 not present in database
Track 9 not present in database
Track 10 not present in database
Track 11 not present in database
Track 12 not present in database

None of the tracks are present in the AccurateRip database

End of status report


Filesonic
Part1
Part2

Fileserve
Part1
Part2



The Penguin Cafe Orchestra: 12 Cds  -lossless-

Signs of Life (1987) | 252 MB


Track Listings:
1. Beanfields
2. Southern Jukebox Music
3. Horns Of The Bull
4. Oscar Tango
5. The Snake And The Lotus (The Pond)
6. Rosasolis
7. Dirt
8. Sketch
9. Perpetuum Mobile
10. Swing The Cat
11. Wildlife

Exact Audio Copy V0.99 prebeta 4 from 23. January 2008

EAC extraction logfile from 19. April 2008, 18:32

Penguin Cafe Orchestra / Signs of Life

Used drive : TSSTcorpCD/DVDW SH-S182M Adapter: 2 ID: 0

Read mode : Secure
Utilize accurate stream : Yes
Defeat audio cache : Yes
Make use of C2 pointers : No

Read offset correction : 6
Overread into Lead-In and Lead-Out : No
Fill up missing offset samples with silence : Yes
Delete leading and trailing silent blocks : No
Null samples used in CRC calculations : No
Used interface : Installed external ASPI interface

Used output format : User Defined Encoder
Selected bitrate : 1024 kBit/s
Quality : High
Add ID3 tag : No
Command line compressor : C:\Program Files\Exact Audio Copy\FLAC\FLAC.EXE
Additional command line options : -6 -V -T "ARTIST=%a" -T "TITLE=%t" -T "ALBUM=%g" -T "DATE=%y" -T "TRACKNUMBER=%n" -T "GENRE=%m" -T "COMMENT=%e" %s -o %d


TOC of the extracted CD

Track | Start | Length | Start sector | End sector
––––––––––––––––––––––––––––-
1 | 0:00.00 | 4:25.35 | 0 | 19909
2 | 4:25.35 | 4:38.52 | 19910 | 40811
3 | 9:04.12 | 4:35.20 | 40812 | 61456
4 | 13:39.32 | 3:15.10 | 61457 | 76091
5 | 16:54.42 | 2:55.60 | 76092 | 89276
6 | 19:50.27 | 4:21.68 | 89277 | 108919
7 | 24:12.20 | 4:49.00 | 108920 | 130594
8 | 29:01.20 | 3:21.52 | 130595 | 145721
9 | 32:22.72 | 4:28.05 | 145722 | 165826
10 | 36:51.02 | 3:25.25 | 165827 | 181226
11 | 40:16.27 | 10:58.73 | 181227 | 230649


Range status and errors

Selected range

Filename F:\u\PCO\Penguin Cafe Orchestra - Signs of Life (1987)\Penguin Cafe Orchestra - Signs of Life.wav

Peak level 86.9 %
Range quality 100.0 %
Copy CRC AF958E24
Copy OK

No errors occurred


AccurateRip summary

Track 1 not present in database
Track 2 not present in database
Track 3 cannot be verified as accurate (confidence 2) [02CED978], AccurateRip returned [BE718FA3]
Track 4 cannot be verified as accurate (confidence 2) [313CDAE0], AccurateRip returned [A51FD217]
Track 5 cannot be verified as accurate (confidence 2) [FF4E22A2], AccurateRip returned [CD21378C]
Track 6 cannot be verified as accurate (confidence 2) [178484BB], AccurateRip returned [618BE0BE]
Track 7 cannot be verified as accurate (confidence 2) [4CCA4AE3], AccurateRip returned [E5BCAAA6]
Track 8 cannot be verified as accurate (confidence 2) [037A2627], AccurateRip returned [4AD1CE14]
Track 9 cannot be verified as accurate (confidence 2) [62C939F9], AccurateRip returned [0DFA2995]
Track 10 cannot be verified as accurate (confidence 2) [8E968084], AccurateRip returned [7C11D079]
Track 11 cannot be verified as accurate (confidence 2) [62F8BF64], AccurateRip returned [91166113]

9 track(s) could not be verified as accurate
2 track(s) not present in the AccurateRip database

No tracks could be verified as accurate
You may have a different pressing from the one(s) in the database

End of status report


Filesonic
Part1
Part2

Fileserve
Part1
Part2



The Penguin Cafe Orchestra: 12 Cds  -lossless-

When In Rome (1988) | 350 MB


Track Listings:
1. Air a Danser
2. Yodel 1
3. Cutting Branches For a Temporary Shelter
4. From the Colonies
5. Southern Jukebox Music
6. Number 1 to 4
7. Telephone and Rubber Band
8. Air
9. Beanfields
10. Paul's Dance
11. Oscar Tango
12. Music for a Found Harmonium
13. Isle of View (Music for Helicopter Pilots)
14. Prelude and Yodel
15. Dirt
16. Giles Farnaby's Dream

Exact Audio Copy V0.99 prebeta 4 from 23. January 2008

EAC extraction logfile from 15. April 2008, 21:08

Penguin Cafe Orchestra / When In Rome

Used drive : MATSHITADVD-RAM UJ-840S Adapter: 1 ID: 0

Read mode : Secure
Utilize accurate stream : Yes
Defeat audio cache : Yes
Make use of C2 pointers : No

Read offset correction : 102
Overread into Lead-In and Lead-Out : No
Fill up missing offset samples with silence : Yes
Delete leading and trailing silent blocks : No
Null samples used in CRC calculations : No
Used interface : Installed external ASPI interface

Used output format : User Defined Encoder
Selected bitrate : 1024 kBit/s
Quality : High
Add ID3 tag : No
Command line compressor : C:\Program Files\Exact Audio Copy\FLAC\FLAC.EXE
Additional command line options : -6 -V -T "ARTIST=%a" -T "TITLE=%t" -T "ALBUM=%g" -T "DATE=%y" -T "TRACKNUMBER=%n" -T "GENRE=%m" -T "COMMENT=%e" %s -o %d


TOC of the extracted CD

Track | Start | Length | Start sector | End sector
––––––––––––––––––––––––––––-
1 | 0:00.00 | 5:17.60 | 0 | 23834
2 | 5:17.60 | 4:46.55 | 23835 | 45339
3 | 10:04.40 | 2:27.25 | 45340 | 56389
4 | 12:31.65 | 3:28.32 | 56390 | 72021
5 | 16:00.22 | 4:55.05 | 72022 | 94151
6 | 20:55.27 | 7:45.00 | 94152 | 129026
7 | 28:40.27 | 4:07.58 | 129027 | 147609
8 | 32:48.10 | 3:59.12 | 147610 | 165546
9 | 36:47.22 | 4:32.10 | 165547 | 185956
10 | 41:19.32 | 2:19.15 | 185957 | 196396
11 | 43:38.47 | 3:17.60 | 196397 | 211231
12 | 46:56.32 | 3:16.03 | 211232 | 225934
13 | 50:12.35 | 4:38.52 | 225935 | 246836
14 | 54:51.12 | 3:56.00 | 246837 | 264536
15 | 58:47.12 | 5:28.20 | 264537 | 289156
16 | 64:15.32 | 4:14.40 | 289157 | 308246


Range status and errors

Selected range

Filename F:\z\Penguin Cafe Orchestra - When In Rome.wav

Peak level 100.0 %
Range quality 99.9 %
Copy CRC F6B3D493
Copy OK

No errors occurred


AccurateRip summary

Track 1 cannot be verified as accurate (confidence 4) [39DB90C5], AccurateRip returned [D286E9F8]
Track 2 cannot be verified as accurate (confidence 4) [6EDE3F8B], AccurateRip returned [77C3C5A1]
Track 3 cannot be verified as accurate (confidence 4) [001BC9D6], AccurateRip returned [2F789128]
Track 4 cannot be verified as accurate (confidence 4) [E039483A], AccurateRip returned [960BC816]
Track 5 cannot be verified as accurate (confidence 4) [6D7743FC], AccurateRip returned [FD452096]
Track 6 cannot be verified as accurate (confidence 4) [FD4D957B], AccurateRip returned [B741FE3F]
Track 7 cannot be verified as accurate (confidence 3) [E13F393F], AccurateRip returned [519A91D6]
Track 8 cannot be verified as accurate (confidence 3) [32DE4E37], AccurateRip returned [B9B9AD7E]
Track 9 cannot be verified as accurate (confidence 3) [4C11F35F], AccurateRip returned [8738C2B5]
Track 10 cannot be verified as accurate (confidence 4) [33926D97], AccurateRip returned [59A97521]
Track 11 cannot be verified as accurate (confidence 4) [0B2A24DF], AccurateRip returned [2D5DFAAB]
Track 12 cannot be verified as accurate (confidence 4) [B9840639], AccurateRip returned [36C8F083]
Track 13 cannot be verified as accurate (confidence 3) [A9F0CE54], AccurateRip returned [0E38F28F]
Track 14 cannot be verified as accurate (confidence 4) [C3F99F29], AccurateRip returned [BF541E18]
Track 15 cannot be verified as accurate (confidence 3) [B750E7E5], AccurateRip returned [78C65809]
Track 16 cannot be verified as accurate (confidence 2) [C14128EA], AccurateRip returned [E8DB3242]

No tracks could be verified as accurate
You may have a different pressing from the one(s) in the database

End of status report


Filesonic
Part1
Part2


Fileserve
Part1
Part2



The Penguin Cafe Orchestra: 12 Cds  -lossless-

Still Life (1990) | 260 MB


Track Listings:
1. Air a Danser
2. Prelude and Yodel
3. Horns of the Bull
4. Pythagoras' Trousers
5. White Mischief
6. Now Nothing
7. Music by Numbers
8. Numbers 1-4
9. Perpetuum Mobile
10. Southern Jukebox Music
11. Oscar Tango
12. Music for a Found Harmonium

Exact Audio Copy V0.99 prebeta 4 from 23. January 2008

EAC extraction logfile from 15. April 2008, 21:27

Simon Jeffes / 'Still Life' at the Penguin Café

Used drive : MATSHITADVD-RAM UJ-840S Adapter: 1 ID: 0

Read mode : Secure
Utilize accurate stream : Yes
Defeat audio cache : Yes
Make use of C2 pointers : No

Read offset correction : 102
Overread into Lead-In and Lead-Out : No
Fill up missing offset samples with silence : Yes
Delete leading and trailing silent blocks : No
Null samples used in CRC calculations : No
Used interface : Installed external ASPI interface

Used output format : User Defined Encoder
Selected bitrate : 1024 kBit/s
Quality : High
Add ID3 tag : No
Command line compressor : C:\Program Files\Exact Audio Copy\FLAC\FLAC.EXE
Additional command line options : -6 -V -T "ARTIST=%a" -T "TITLE=%t" -T "ALBUM=%g" -T "DATE=%y" -T "TRACKNUMBER=%n" -T "GENRE=%m" -T "COMMENT=%e" %s -o %d


TOC of the extracted CD

Track | Start | Length | Start sector | End sector
––––––––––––––––––––––––––––-
1 | 0:00.32 | 4:35.38 | 32 | 20694
2 | 4:35.70 | 4:00.62 | 20695 | 38756
3 | 8:36.57 | 5:06.00 | 38757 | 61706
4 | 13:42.57 | 3:23.00 | 61707 | 76931
5 | 17:05.57 | 5:14.50 | 76932 | 100531
6 | 22:20.32 | 4:24.50 | 100532 | 120381
7 | 26:45.07 | 3:48.38 | 120382 | 137519
8 | 30:33.45 | 6:27.12 | 137520 | 166556
9 | 37:00.57 | 4:31.25 | 166557 | 186906
10 | 41:32.07 | 5:50.50 | 186907 | 213206
11 | 47:22.57 | 3:16.63 | 213207 | 227969
12 | 50:39.45 | 4:00.37 | 227970 | 246006


Range status and errors

Selected range

Filename F:\z\Simon Jeffes - 'Still Life' at the Penguin Café.wav

Peak level 98.0 %
Range quality 99.9 %
Copy CRC 53185383
Copy OK

No errors occurred


AccurateRip summary

Track 1 not present in database
Track 2 not present in database
Track 3 not present in database
Track 4 not present in database
Track 5 not present in database
Track 6 not present in database
Track 7 not present in database
Track 8 not present in database
Track 9 not present in database
Track 10 not present in database
Track 11 not present in database
Track 12 not present in database

None of the tracks are present in the AccurateRip database

End of status report


Filesonic
Part1
Part2


Fileserve
Part1
Part2



The Penguin Cafe Orchestra: 12 Cds  -lossless-

Union Café (1993) | 286 MB



Tracklist:
1. Scherzo And Trio
2. Lifeboat (Lovers Rock)
3. Nothing Really Blue
4. Cage Dead
5. Vega
6. Yodel 3
7. Organum
8. Another One From Porlock
9. Thorn Tree Wind
10. Silver Star of Bologna
11. Discover America
12. Pythagoras On The Line
13. Kora Kora
14. Lie Back And Think Of England
15. Red Shorts
16. Passing Through

Exact Audio Copy V0.99 prebeta 4 from 23. January 2008

EAC extraction logfile from 15. April 2008, 20:05

Penguin Cafe Orchestra / Union Café

Used drive : MATSHITADVD-RAM UJ-840S Adapter: 1 ID: 0

Read mode : Secure
Utilize accurate stream : Yes
Defeat audio cache : Yes
Make use of C2 pointers : No

Read offset correction : 102
Overread into Lead-In and Lead-Out : No
Fill up missing offset samples with silence : Yes
Delete leading and trailing silent blocks : No
Null samples used in CRC calculations : No
Used interface : Installed external ASPI interface

Used output format : User Defined Encoder
Selected bitrate : 1024 kBit/s
Quality : High
Add ID3 tag : No
Command line compressor : C:\Program Files\Exact Audio Copy\FLAC\FLAC.EXE
Additional command line options : -6 -V -T "ARTIST=%a" -T "TITLE=%t" -T "ALBUM=%g" -T "DATE=%y" -T "TRACKNUMBER=%n" -T "GENRE=%m" -T "COMMENT=%e" %s -o %d


TOC of the extracted CD

Track | Start | Length | Start sector | End sector
––––––––––––––––––––––––––––-
1 | 0:00.30 | 6:55.09 | 30 | 31163
2 | 6:55.39 | 7:14.69 | 31164 | 63782
3 | 14:10.33 | 5:16.42 | 63783 | 87524
4 | 19:27.00 | 4:36.35 | 87525 | 108259
5 | 24:03.35 | 10:31.00 | 108260 | 155584
6 | 34:34.35 | 3:26.39 | 155585 | 171073
7 | 38:00.74 | 3:48.19 | 171074 | 188192
8 | 41:49.18 | 2:57.36 | 188193 | 201503
9 | 44:46.54 | 3:16.35 | 201504 | 216238
10 | 48:03.14 | 4:04.56 | 216239 | 234594
11 | 52:07.70 | 3:03.41 | 234595 | 248360
12 | 55:11.36 | 1:51.42 | 248361 | 256727
13 | 57:03.03 | 3:04.66 | 256728 | 270593
14 | 60:07.69 | 4:20.65 | 270594 | 290158
15 | 64:28.59 | 4:09.48 | 290159 | 308881
16 | 68:38.32 | 5:19.66 | 308882 | 332872


Range status and errors

Selected range

Filename F:\z\Penguin Cafe Orchestra - Union Café.wav

Peak level 96.2 %
Range quality 99.9 %
Copy CRC 28C3E13E
Copy OK

No errors occurred


AccurateRip summary

Track 1 not present in database
Track 2 not present in database
Track 3 not present in database
Track 4 not present in database
Track 5 not present in database
Track 6 not present in database
Track 7 not present in database
Track 8 not present in database
Track 9 not present in database
Track 10 not present in database
Track 11 not present in database
Track 12 not present in database
Track 13 not present in database
Track 14 not present in database
Track 15 not present in database
Track 16 not present in database

None of the tracks are present in the AccurateRip database

End of status report


Filesonic
Part1
Part2

Fileserve
Part1
Part2



The Penguin Cafe Orchestra: 12 Cds  -lossless-

Concert Program (1995) | 471 MB


Track Listings:
DISC 1
1. Air a Danser
2. Cage Dead (version 2)
3. Organum
4. Southern Jukebox Music
5. Numbers 1-4
6. Air
7. Perpetuum Mobile
8. Nothing Really Blue
9. Telephone and Rubber Band

DISC 2
10. Beanfields
11. Vega
12. Surface Tension (where the trees meet the sky)
13. Oscar Tango
14. Music for a Found Harmonium
15. Lifeboat (Lovers Rock)
16. Steady State
17. Scherzo And Trio
18. Giles Farnaby's Dream
19. Salty Bean Fumble
20. Red Shorts

Exact Audio Copy V0.99 prebeta 4 from 23. January 2008

EAC extraction logfile from 19. April 2008, 19:20

Penguin Cafe Orchestra / Concert Program (Disc 1)

Used drive : TSSTcorpCD/DVDW SH-S182M Adapter: 2 ID: 0

Read mode : Secure
Utilize accurate stream : Yes
Defeat audio cache : Yes
Make use of C2 pointers : No

Read offset correction : 6
Overread into Lead-In and Lead-Out : No
Fill up missing offset samples with silence : Yes
Delete leading and trailing silent blocks : No
Null samples used in CRC calculations : No
Used interface : Installed external ASPI interface

Used output format : User Defined Encoder
Selected bitrate : 1024 kBit/s
Quality : High
Add ID3 tag : No
Command line compressor : C:\Program Files\Exact Audio Copy\FLAC\FLAC.EXE
Additional command line options : -6 -V -T "ARTIST=%a" -T "TITLE=%t" -T "ALBUM=%g" -T "DATE=%y" -T "TRACKNUMBER=%n" -T "GENRE=%m" -T "COMMENT=%e" %s -o %d


Exact Audio Copy V0.99 prebeta 4 from 23. January 2008

EAC extraction logfile from 19. April 2008, 19:00

Penguin Cafe Orchestra / Concert Program (Disc 2)

Used drive : TSSTcorpCD/DVDW SH-S182M Adapter: 2 ID: 0

Read mode : Secure
Utilize accurate stream : Yes
Defeat audio cache : Yes
Make use of C2 pointers : No

Read offset correction : 6
Overread into Lead-In and Lead-Out : No
Fill up missing offset samples with silence : Yes
Delete leading and trailing silent blocks : No
Null samples used in CRC calculations : No
Used interface : Installed external ASPI interface

Used output format : User Defined Encoder
Selected bitrate : 1024 kBit/s
Quality : High
Add ID3 tag : No
Command line compressor : C:\Program Files\Exact Audio Copy\FLAC\FLAC.EXE
Additional command line options : -6 -V -T "ARTIST=%a" -T "TITLE=%t" -T "ALBUM=%g" -T "DATE=%y" -T "TRACKNUMBER=%n" -T "GENRE=%m" -T "COMMENT=%e" %s -o %d


TOC of the extracted CD

Track | Start | Length | Start sector | End sector
––––––––––––––––––––––––––––-
1 | 0:00.00 | 4:38.15 | 0 | 20864
2 | 4:38.15 | 10:10.02 | 20865 | 66616
3 | 14:48.17 | 2:08.43 | 66617 | 76259
4 | 16:56.60 | 3:43.07 | 76260 | 92991
5 | 20:39.67 | 2:36.05 | 92992 | 104696
6 | 23:15.72 | 6:51.05 | 104697 | 135526
7 | 30:07.02 | 5:20.05 | 135527 | 159531
8 | 35:27.07 | 6:58.10 | 159532 | 190891
9 | 42:25.17 | 5:25.70 | 190892 | 215336
10 | 47:51.12 | 4:06.05 | 215337 | 233791
11 | 51:57.17 | 3:59.60 | 233792 | 251776


Range status and errors

Selected range

Filename F:\z\Penguin Cafe Orchestra - Concert Program (Disc 2).wav

Peak level 99.1 %
Range quality 100.0 %
Copy CRC 73EB9F78
Copy OK

No errors occurred


AccurateRip summary

Track 1 accurately ripped (confidence 1) [CC0C33C9]
Track 2 accurately ripped (confidence 1) [BEB4EE43]
Track 3 accurately ripped (confidence 1) [17BFFB47]
Track 4 accurately ripped (confidence 1) [B8205A9C]
Track 5 accurately ripped (confidence 1) [2C1C0853]
Track 6 accurately ripped (confidence 1) [C527609A]
Track 7 accurately ripped (confidence 1) [E0739931]
Track 8 accurately ripped (confidence 1) [CBBF39F1]
Track 9 accurately ripped (confidence 1) [FF738253]
Track 10 accurately ripped (confidence 1) [6203E7E5]
Track 11 accurately ripped (confidence 1) [5A3DCC1F]

All tracks accurately ripped

End of status report


Filesonic
Part1
Part2


Fileserve
Part1
Part2



The Penguin Cafe Orchestra: 12 Cds  -lossless-

Preludes Airs and Yodels (1996) | 376 MB


Track Listings:
1. Music for a Found Harmonium (from Broadcasting from Home)
2. Perpetuum Mobile (from Signs of Life)
3. Penguin Cafe Single (from Music from the Penguin Cafe)
4. Air (from Broadcasting from Home)
5. Telephone and Rubber Band (from Penguin Cafe Orchestra)
6. Dirt (from Signs of Life)
7. Giles Farnaby's Dream (from Music from the Penguin Cafe)
8. Oscar Tango (from Signs of Life)
9. Rosasolis (from Signs of Life)
10. Air à Danser (from Penguin Cafe Orchestra)
11. Music for a Found Harmonium (performed by Patrick Street)
12. Yodel 3 (from Union Cafe)
13. White Mischief (from Broadcasting from Home)
14. Prelude and Yodel (from Broadcasting from Home)
15. Harmonic Necklace (from Penguin Cafe Orchestra)
16. Steady State (from Penguin Cafe Orchestra)
17. Nothing Really Blue (from Union Cafe)
18. Pandaharmonium (Orb remix of Music for a Found Harmonium [May 1996])
19. Piano Music (from the Penguin Cafe Mini Album)

Exact Audio Copy V0.99 prebeta 4 from 23. January 2008

EAC extraction logfile from 19. April 2008, 18:48

Penguin Cafe Orchestra / Preludes Airs and Yodels

Used drive : TSSTcorpCD/DVDW SH-S182M Adapter: 2 ID: 0

Read mode : Secure
Utilize accurate stream : Yes
Defeat audio cache : Yes
Make use of C2 pointers : No

Read offset correction : 6
Overread into Lead-In and Lead-Out : No
Fill up missing offset samples with silence : Yes
Delete leading and trailing silent blocks : No
Null samples used in CRC calculations : No
Used interface : Installed external ASPI interface

Used output format : User Defined Encoder
Selected bitrate : 1024 kBit/s
Quality : High
Add ID3 tag : No
Command line compressor : C:\Program Files\Exact Audio Copy\FLAC\FLAC.EXE
Additional command line options : -6 -V -T "ARTIST=%a" -T "TITLE=%t" -T "ALBUM=%g" -T "DATE=%y" -T "TRACKNUMBER=%n" -T "GENRE=%m" -T "COMMENT=%e" %s -o %d


TOC of the extracted CD

Track | Start | Length | Start sector | End sector
––––––––––––––––––––––––––––-
1 | 0:00.00 | 3:39.52 | 0 | 16476
2 | 3:39.52 | 4:29.60 | 16477 | 36711
3 | 8:09.37 | 6:15.35 | 36712 | 64871
4 | 14:24.72 | 4:20.38 | 64872 | 84409
5 | 18:45.35 | 2:32.37 | 84410 | 95846
6 | 21:17.72 | 4:49.55 | 95847 | 117576
7 | 26:07.52 | 2:18.28 | 117577 | 127954
8 | 28:26.05 | 3:10.37 | 127955 | 142241
9 | 31:36.42 | 4:14.45 | 142242 | 161336
10 | 35:51.12 | 4:30.20 | 161337 | 181606
11 | 40:21.32 | 2:43.43 | 181607 | 193874
12 | 43:05.00 | 3:24.62 | 193875 | 209236
13 | 46:29.62 | 5:49.40 | 209237 | 235451
14 | 52:19.27 | 3:50.30 | 235452 | 252731
15 | 56:09.57 | 1:12.55 | 252732 | 258186
16 | 57:22.37 | 3:39.60 | 258187 | 274671
17 | 61:02.22 | 5:05.48 | 274672 | 297594
18 | 66:07.70 | 5:29.05 | 297595 | 322274
19 | 71:37.00 | 1:54.20 | 322275 | 330844


Range status and errors

Selected range

Filename F:\z\Penguin Cafe Orchestra - Preludes Airs and Yodels.wav

Peak level 100.0 %
Range quality 100.0 %
Copy CRC 4E8AE8CA
Copy OK

No errors occurred


AccurateRip summary

Track 1 accurately ripped (confidence 2) [9F12A775]
Track 2 accurately ripped (confidence 2) [FC1A5346]
Track 3 accurately ripped (confidence 2) [3EDDB536]
Track 4 accurately ripped (confidence 2) [73D0A81A]
Track 5 accurately ripped (confidence 2) [490AC307]
Track 6 accurately ripped (confidence 2) [03B15AE1]
Track 7 accurately ripped (confidence 2) [8F0EAABB]
Track 8 accurately ripped (confidence 2) [B9442343]
Track 9 accurately ripped (confidence 2) [7B251C2E]
Track 10 accurately ripped (confidence 2) [7882CFCB]
Track 11 accurately ripped (confidence 2) [AC78B43B]
Track 12 accurately ripped (confidence 2) [9ED4C3AF]
Track 13 accurately ripped (confidence 2) [FDDBAB33]
Track 14 accurately ripped (confidence 2) [1F2CB915]
Track 15 accurately ripped (confidence 2) [92301B2A]
Track 16 accurately ripped (confidence 2) [61B795AF]
Track 17 accurately ripped (confidence 2) [2619EDC0]
Track 18 accurately ripped (confidence 2) [8191E09F]
Track 19 accurately ripped (confidence 2) [F80DBB13]

All tracks accurately ripped

End of status report


Filesonic
Part1
Part2


Fileserve
Part1
Part2



The Penguin Cafe Orchestra: 12 Cds  -lossless-

Oskar und Leni (1999) | 205 MB


Track Listings:
1. Life Boat
2. Anotherone from the Porlock
3. Southern Juke Box Music
4. Nothing Really Blue
5. Silver Star of Bologna
6. Steady State
7. Oscar Tango
8. Thorn Tree Wind
9. Red Shorts
10. Air Danser

Exact Audio Copy V0.99 prebeta 4 from 23. January 2008

EAC extraction logfile from 19. April 2008, 19:31

Penguin Café Orchestra / Oskar und Leni

Used drive : TSSTcorpCD/DVDW SH-S182M Adapter: 2 ID: 0

Read mode : Secure
Utilize accurate stream : Yes
Defeat audio cache : Yes
Make use of C2 pointers : No

Read offset correction : 6
Overread into Lead-In and Lead-Out : No
Fill up missing offset samples with silence : Yes
Delete leading and trailing silent blocks : No
Null samples used in CRC calculations : No
Used interface : Installed external ASPI interface

Used output format : User Defined Encoder
Selected bitrate : 1024 kBit/s
Quality : High
Add ID3 tag : No
Command line compressor : C:\Program Files\Exact Audio Copy\FLAC\FLAC.EXE
Additional command line options : -6 -V -T "ARTIST=%a" -T "TITLE=%t" -T "ALBUM=%g" -T "DATE=%y" -T "TRACKNUMBER=%n" -T "GENRE=%m" -T "COMMENT=%e" %s -o %d


TOC of the extracted CD

Track | Start | Length | Start sector | End sector
––––––––––––––––––––––––––––-
1 | 0:00.00 | 6:52.10 | 0 | 30909
2 | 6:52.10 | 2:59.62 | 30910 | 44396
3 | 9:51.72 | 5:10.20 | 44397 | 67666
4 | 15:02.17 | 5:09.55 | 67667 | 90896
5 | 20:11.72 | 4:05.40 | 90897 | 109311
6 | 24:17.37 | 5:21.30 | 109312 | 133416
7 | 29:38.67 | 3:43.40 | 133417 | 150181
8 | 33:22.32 | 3:20.48 | 150182 | 165229
9 | 36:43.05 | 3:56.29 | 165230 | 182958
10 | 40:39.34 | 5:24.48 | 182959 | 207306


Range status and errors

Selected range

Filename F:\z\Penguin Café Orchestra - Oskar und Leni.wav

Peak level 98.9 %
Range quality 99.9 %
Copy CRC B9E864DF
Copy OK

No errors occurred


AccurateRip summary

Track 1 not present in database
Track 2 not present in database
Track 3 not present in database
Track 4 not present in database
Track 5 not present in database
Track 6 not present in database
Track 7 not present in database
Track 8 not present in database
Track 9 not present in database
Track 10 not present in database

None of the tracks are present in the AccurateRip database

End of status report


Filesonic
Part1
Part2


Fileserve
Part1
Part2



The Penguin Cafe Orchestra: 12 Cds  -lossless-

Piano Music (2000) | 194 MB


Track Listings:
1. Lullaby
2. Untitled
3. Mirror
4. Piano Piece No 2
5. Piano Piece No 3
6. Piano Piece No 4
7. Piano Piece No 5
8. Shelter
9. Hallfield Piano Idea 2
10. Silver Star Of Bologna
11. Hallfield Piano Idea 1
12. Japanese Piano Piece
13. Kora Kora
14. Technics Op 1.2
15. Piano Sketch
16. Meditation Rag
17. Piano Music
18. Cajun Music

Exact Audio Copy V0.99 prebeta 4 from 23. January 2008

EAC extraction logfile from 15. April 2008, 21:51

Simon Jeffes / Piano Music

Used drive : MATSHITADVD-RAM UJ-840S Adapter: 1 ID: 0

Read mode : Secure
Utilize accurate stream : Yes
Defeat audio cache : Yes
Make use of C2 pointers : No

Read offset correction : 102
Overread into Lead-In and Lead-Out : No
Fill up missing offset samples with silence : Yes
Delete leading and trailing silent blocks : No
Null samples used in CRC calculations : No
Used interface : Installed external ASPI interface

Used output format : User Defined Encoder
Selected bitrate : 1024 kBit/s
Quality : High
Add ID3 tag : No
Command line compressor : C:\Program Files\Exact Audio Copy\FLAC\FLAC.EXE
Additional command line options : -6 -V -T "ARTIST=%a" -T "TITLE=%t" -T "ALBUM=%g" -T "DATE=%y" -T "TRACKNUMBER=%n" -T "GENRE=%m" -T "COMMENT=%e" %s -o %d


TOC of the extracted CD

Track | Start | Length | Start sector | End sector
––––––––––––––––––––––––––––-
1 | 0:00.00 | 4:00.37 | 0 | 18036
2 | 4:00.37 | 2:59.58 | 18037 | 31519
3 | 7:00.20 | 3:53.00 | 31520 | 48994
4 | 10:53.20 | 2:19.15 | 48995 | 59434
5 | 13:12.35 | 1:29.55 | 59435 | 66164
6 | 14:42.15 | 2:21.60 | 66165 | 76799
7 | 17:04.00 | 1:47.67 | 76800 | 84891
8 | 18:51.67 | 4:24.55 | 84892 | 104746
9 | 23:16.47 | 1:03.50 | 104747 | 109521
10 | 24:20.22 | 4:06.03 | 109522 | 127974
11 | 28:26.25 | 1:54.62 | 127975 | 136586
12 | 30:21.12 | 6:29.53 | 136587 | 165814
13 | 36:50.65 | 3:07.00 | 165815 | 179839
14 | 39:57.65 | 3:17.20 | 179840 | 194634
15 | 43:15.10 | 1:04.55 | 194635 | 199489
16 | 44:19.65 | 2:23.05 | 199490 | 210219
17 | 46:42.70 | 1:58.10 | 210220 | 219079
18 | 48:41.05 | 1:50.55 | 219080 | 227384


Range status and errors

Selected range

Filename F:\z\Simon Jeffes - Piano Music.wav

Peak level 95.2 %
Range quality 99.9 %
Copy CRC D91E0466
Copy OK

No errors occurred


AccurateRip summary

Track 1 not present in database
Track 2 not present in database
Track 3 not present in database
Track 4 not present in database
Track 5 not present in database
Track 6 not present in database
Track 7 not present in database
Track 8 not present in database
Track 9 not present in database
Track 10 not present in database
Track 11 not present in database
Track 12 not present in database
Track 13 not present in database
Track 14 not present in database
Track 15 not present in database
Track 16 not present in database
Track 17 not present in database
Track 18 not present in database

None of the tracks are present in the AccurateRip database

End of status report


Filesonic
Part1
Part2


Fileserve
Part1
Part2



The Penguin Cafe Orchestra: 12 Cds  -lossless-

A Brief History (2001) | 430 MB


Track Listings:
1. Beanfields
2. Telephone and Rubber Band
3. Music For a Found Harmonium
4. Perpetuum Mobile
5. From the Colonies
6. Giles Farnaby's Dream
7. Surface Tension
8. Air a Danser
9. Yodel 1
10. Number 14
11. Steady State
12. Paul's Dance
13. Prelude and Yodel
14. Heartwind
15. White Mischief
16. Dirt
17. Rosasolis
18. Organum
19. Lullaby

Exact Audio Copy V0.99 prebeta 4 from 23. January 2008

EAC extraction logfile from 19. April 2008, 19:48

The Penguin Cafe Orchestra / A Brief History

Used drive : TSSTcorpCD/DVDW SH-S182M Adapter: 2 ID: 0

Read mode : Secure
Utilize accurate stream : Yes
Defeat audio cache : Yes
Make use of C2 pointers : No

Read offset correction : 6
Overread into Lead-In and Lead-Out : No
Fill up missing offset samples with silence : Yes
Delete leading and trailing silent blocks : No
Null samples used in CRC calculations : No
Used interface : Installed external ASPI interface

Used output format : User Defined Encoder
Selected bitrate : 1024 kBit/s
Quality : High
Add ID3 tag : No
Command line compressor : C:\Program Files\Exact Audio Copy\FLAC\FLAC.EXE
Additional command line options : -6 -V -T "ARTIST=%a" -T "TITLE=%t" -T "ALBUM=%g" -T "DATE=%y" -T "TRACKNUMBER=%n" -T "GENRE=%m" -T "COMMENT=%e" %s -o %d


TOC of the extracted CD

Track | Start | Length | Start sector | End sector
––––––––––––––––––––––––––––-
1 | 0:00.00 | 4:30.65 | 0 | 20314
2 | 4:30.65 | 2:29.05 | 20315 | 31494
3 | 6:59.70 | 3:39.69 | 31495 | 47988
4 | 10:39.64 | 4:31.10 | 47989 | 68323
5 | 15:10.74 | 3:20.41 | 68324 | 83364
6 | 18:31.40 | 4:06.32 | 83365 | 101846
7 | 22:37.72 | 2:23.26 | 101847 | 112597
8 | 25:01.23 | 4:31.64 | 112598 | 132986
9 | 29:33.12 | 4:12.02 | 132987 | 151888
10 | 33:45.14 | 6:51.40 | 151889 | 182753
11 | 40:36.54 | 3:34.26 | 182754 | 198829
12 | 44:11.05 | 1:46.25 | 198830 | 206804
13 | 45:57.30 | 3:58.17 | 206805 | 224671
14 | 49:55.47 | 4:12.65 | 224672 | 243636
15 | 54:08.37 | 5:48.22 | 243637 | 269758
16 | 59:56.59 | 4:52.05 | 269759 | 291663
17 | 64:48.64 | 4:15.29 | 291664 | 310817
18 | 69:04.18 | 3:53.15 | 310818 | 328307
19 | 72:57.33 | 4:00.09 | 328308 | 346316


Range status and errors

Selected range

Filename F:\z\The Penguin Cafe Orchestra - A Brief History.wav

Peak level 99.8 %
Range quality 99.9 %
Copy CRC 4FB68E06
Copy OK

No errors occurred


AccurateRip summary

Track 1 cannot be verified as accurate (confidence 4) [72701D05], AccurateRip returned [275DF464]
Track 2 accurately ripped (confidence 4) [9F5954FB]
Track 3 accurately ripped (confidence 4) [07BF6478]
Track 4 accurately ripped (confidence 4) [65687D19]
Track 5 accurately ripped (confidence 4) [A8234144]
Track 6 accurately ripped (confidence 3) [002FC824]
Track 7 accurately ripped (confidence 4) [BE5142B9]
Track 8 accurately ripped (confidence 4) [5AA21C44]
Track 9 accurately ripped (confidence 4) [58F6CBE4]
Track 10 accurately ripped (confidence 4) [DC871D5D]
Track 11 accurately ripped (confidence 4) [5D499346]
Track 12 accurately ripped (confidence 4) [845576F8]
Track 13 accurately ripped (confidence 4) [29D700C2]
Track 14 accurately ripped (confidence 4) [3D7B188C]
Track 15 accurately ripped (confidence 4) [E9372E1C]
Track 16 accurately ripped (confidence 4) [570EA88B]
Track 17 accurately ripped (confidence 4) [4F7CC6A8]
Track 18 accurately ripped (confidence 4) [5C6C3183]
Track 19 accurately ripped (confidence 4) [0D2407EC]

18 track(s) accurately ripped
1 track(s) could not be verified as accurate

Some tracks could not be verified as accurate

End of status report



Filesonic
Part1
Part2


Fileserve
Part1
Part2



New links, Re-up


Links are interchangeable

Thanks to the original uploader: ivoronen

No Mirrors